#VERSION:0.83;
#TITLE:Deméter;
#SUBTITLE:;
#ARTIST:Pascu y Rodri;
#TITLETRANSLIT:;
#SUBTITLETRANSLIT:;
#ARTISTTRANSLIT:;
#GENRE:;
#ORIGIN:;
#CREDIT:;
#BANNER:Demeter-bn.jpg;
#BACKGROUND:Demeter-bg.png;
#PREVIEWVID:;
#JACKET:Demeter-jacket.jpg;
#CDIMAGE:;
#DISCIMAGE:;
#LYRICSPATH:;
#CDTITLE:cdtitle_ukiarrow.png;
#MUSIC:Demeter.mp3;
#OFFSET:0.260000;
#SAMPLESTART:103.988098;
#SAMPLELENGTH:12.000000;
#SELECTABLE:YES;
#BPMS:0.000=82.000;
#STOPS:27.875=0.732;
#DELAYS:;
#WARPS:;
#TIMESIGNATURES:0.000=4=4;
#TICKCOUNTS:0.000=4;
#COMBOS:0.000=1;
#SPEEDS:0.000=1.000=0.000=0;
#SCROLLS:0.000=1.000;
#FAKES:;
#LABELS:0.000=Song Start;
#BGCHANGES:0.250=Demeter.mp4=1.000=0=0=1=====,
249.000=Demeter-bg.png=1.000=0=0=1=====,
99999=-nosongbg-=1.000=0=0=0 // don't automatically add -songbackground-
;
#KEYSOUNDS:;
#ATTACKS:
;

//---------------dance-single - ----------------
#NOTEDATA:;
#CHARTNAME:;
#STEPSTYPE:dance-single;
#DESCRIPTION:;
#CHARTSTYLE:;
#DIFFICULTY:Hard;
#METER:11;
#RADARVALUES:0.401362,0.417688,0.174660,0.484058,0.424175,563.000000,528.000000,35.000000,97.000000,0.000000,0.000000,0.000000,0.000000,0.000000,0.401362,0.417688,0.174660,0.484058,0.424175,563.000000,528.000000,35.000000,97.000000,0.000000,0.000000,0.000000,0.000000,0.000000;
#CREDIT:;
#NOTES:
0000
0000
0000
0000
,
0000
0000
0000
0000
,
0000
0000
0000
0000
,
0000
0000
0000
0000
,
0000
0000
0000
0000
2000
0000
0000
0000
3100
0000
0010
0001
0000
0010
0100
0000
,
1100
0000
0000
0000
0002
0000
0000
0000
0013
0000
0100
1000
0000
0000
0100
0000
,
0011
0000
0000
0000
0000
0000
0000
0000
0000
0000
0000
0000
0000
0000
0000
0000
0000
0000
0000
0000
0000
0000
0000
0000
0000
0000
0000
0000
0000
0000
0000
0000
0000
0000
0000
0000
0000
0000
0000
0000
0000
0000
0000
0000
0000
0000
0000
0000
0002
0000
0000
0000
0000
0000
0000
0000
0000
0000
0000
0000
0000
0000
0000
0000
0000
0000
0000
0000
0000
0000
0000
0000
0000
0000
0000
0000
0000
0000
0000
0000
0000
0000
0000
0000
0000
0000
0000
0000
0000
0000
0000
0000
0000
0000
0000
0000
0013
0000
0000
0000
0000
0000
0000
0000
0000
0000
0000
0000
0000
0000
0000
0000
0000
0000
0000
0000
0000
0000
0000
0000
0100
0000
0000
0000
0000
0000
0000
0000
0000
0000
0000
0000
1000
0000
0000
0000
0000
0000
0000
0000
0000
0000
0000
0000
0000
0000
0000
0000
0000
0000
0000
0000
0000
0000
0000
0000
0100
0000
0000
0000
0000
0000
0000
0000
0000
0000
0000
0000
0020
0000
0000
0000
0000
0000
0000
0000
0000
0000
0000
0000
0000
0000
0000
0000
0000
0000
0000
0030
0000
0000
0000
0000
,
0210
0000
0000
0000
1300
0000
0001
1000
0000
1000
0001
0000
0110
0000
0000
0000
,
0002
0000
0013
0000
0020
0000
0031
0000
2000
0100
3100
0000
0200
0000
1300
0000
,
0002
0100
0103
0000
0200
0000
0301
0000
2000
0000
3000
0000
1010
0000
0000
0000
,
0002
0000
1003
0000
2000
0000
3001
0000
0200
0010
0310
0000
0020
0000
0130
0000
,
0020
1000
1030
0000
2000
0000
3001
0000
0200
0000
0300
0000
0101
0000
0000
0000
,
1000
0000
0100
0000
1000
0000
0001
0100
0001
0100
0001
0000
1000
0000
0001
0010
,
0001
0010
0100
1000
2002
3003
0220
0330
,
0001
0000
0010
0000
0001
1000
0010
0100
0001
0100
0010
0000
1000
0000
0001
0100
,
0010
1000
0100
0000
0010
0000
0011
0000
2002
0000
3003
0000
0220
0000
0330
0000
,
1000
0000
0100
1000
0100
0000
0010
0001
0000
0001
0010
0000
0001
1000
0100
0010
,
0001
0000
1000
0001
0010
0100
1000
0000
2002
0000
3003
0001
0100
0001
0010
0100
,
0010
0000
0011
0000
0000
0000
0100
1000
0000
1000
0100
0000
0010
0001
1000
0001
,
0200
0000
0310
0000
0020
0000
1030
0000
2002
0000
3003
0000
1000
0100
1000
0100
,
0010
0000
0001
0000
1000
0100
1000
0100
0001
0000
0100
0000
0010
0100
0010
0100
,
2000
0000
3010
0000
0020
0000
0130
0000
0000
0001
1000
0000
0001
0010
0100
0100
,
1000
0000
2020
0000
3030
0000
0001
0100
0000
0200
0000
0000
0310
1000
0010
1000
,
0000
2000
0000
0000
3001
0000
0001
0100
0000
0200
0000
0000
0310
0000
0000
0000
,
1000
0000
0000
1000
0000
0000
0100
0000
0000
0100
0000
0000
0010
0000
0001
1000
,
0001
0000
0000
0001
0000
0000
0100
0000
0000
0100
0000
0000
0010
0000
1000
0000
,
0001
0000
0000
0001
0000
0000
0010
0000
0000
0100
0100
0000
2000
0000
0000
0000
,
3001
0000
0000
1000
0000
0000
0010
0010
0000
0000
0100
0000
0002
0000
0000
0000
,
0013
0000
0100
0000
1000
0000
0010
0000
1000
0010
1000
0000
0001
0000
1000
0000
,
0100
0010
0001
0000
0010
0000
0100
0000
1000
0000
0000
0000
1001
0000
0000
0000
,
1000
0000
0010
0000
0100
0000
0001
0000
0001
0010
0001
0000
1000
0000
0001
0000
,
0010
0100
1000
0000
0100
0000
0010
0000
0001
0000
0000
0000
1001
0000
0000
0000
,
1000
0000
1000
0000
0100
0000
0010
0001
1000
0001
0020
0000
0000
0000
0130
0010
,
0100
0000
1000
0000
0001
1000
0001
0000
0220
0000
0330
0000
2002
0000
3003
0000
,
1000
0000
0100
0000
1000
0000
0001
0100
0010
0100
0001
0000
1000
0000
0001
0010
,
0100
0010
0100
0000
1000
0000
1100
0000
2002
0000
3003
0000
0220
0000
0330
0000
,
1000
0000
0100
1000
0100
0000
0010
0001
0000
0001
0010
0000
0001
1000
0100
0010
,
0001
0000
0010
0000
0100
1000
0001
0000
2002
0000
3003
0000
1000
0100
1000
0010
,
0100
0000
0101
0000
0000
0000
0010
1000
0000
1000
0001
0000
0010
0001
1000
0001
,
0200
0000
0310
0000
0020
0000
1030
0000
2002
0000
3003
0000
1000
0100
1000
0100
,
0010
0000
0001
0000
1000
0100
1000
0100
0001
0000
0100
0000
0010
0100
0010
0100
,
2000
0000
3010
0000
0020
0000
0130
0000
0000
0001
1000
0000
0001
0010
0100
0100
,
1000
0000
2020
0000
3030
0000
0001
0100
0000
0200
0000
0000
0310
1000
0010
1000
,
0000
2000
0000
0000
3001
0000
0001
0100
0000
0100
0000
0000
1010
0000
0000
0000
,
2000
0000
0000
3001
0100
0000
0001
0100
0000
0100
0010
1000
0100
1000
0010
0100
,
0001
0001
0000
0001
0100
0000
0100
0001
0000
0001
1000
0100
0010
0001
1000
1000
,
0001
0100
0000
0100
0001
0000
1000
0010
0000
1000
0001
0010
0100
1000
0001
0001
,
1000
0010
0000
0010
0100
0000
0100
0001
0000
0001
1000
1000
0001
0100
0001
0100
,
0020
0000
1000
0000
0030
0000
0100
0002
0000
0000
0003
0000
1000
0100
1000
0001
,
2000
0000
3010
0000
0020
0000
0130
0000
0220
0000
0330
0000
0001
0100
0010
1000
,
0002
0000
0013
0000
0000
0000
0010
0100
0000
0100
0000
0000
1000
0100
0010
0100
,
0020
0000
0031
0000
0002
0000
0013
0000
1100
0000
0000
0000
0100
1000
0001
0010
,
0100
0000
0010
0000
0010
0001
1000
0100
0010
0000
0100
0000
0100
1000
0001
0100
,
0020
0000
1030
0000
0001
0000
0202
0000
0000
0000
0303
0000
0001
0010
0100
1000
,
1010
0000
0001
0100
0001
0000
1000
0200
0000
0000
0310
0000
0001
0100
0001
0010
,
0002
0000
1003
0000
2000
0000
3010
0000
2020
0000
3030
0000
0001
0100
0010
1000
,
0200
0000
0310
0001
0010
0000
0100
1000
0000
2000
0000
0000
3001
1000
0010
1000
,
0200
0000
0310
0000
0020
0000
0031
0000
2200
0000
3300
0000
1000
0100
0010
0100
,
0002
0000
0103
0000
0001
0100
0010
0100
0020
0000
0031
0000
0001
0010
0001
0001
,
2000
0000
3010
0100
0001
0000
2000
0000
0000
0100
3100
0000
0010
0001
1000
0100
,
0010
0000
0022
0000
0033
0000
0100
0010
0000
0020
0000
0000
0031
0100
0001
0100
,
0000
0200
0000
0000
0310
0000
0010
1000
0000
1000
0000
0000
2002
0000
0000
0000
,
3003
0000
0000
0000
;

//---------------dance-single - ----------------
#NOTEDATA:;
#CHARTNAME:;
#STEPSTYPE:dance-single;
#DESCRIPTION:;
#CHARTSTYLE:;
#DIFFICULTY:Medium;
#METER:7;
#RADARVALUES:0.326508,0.340338,0.094816,0.309398,0.234544,458.000000,439.000000,19.000000,62.000000,0.000000,0.000000,0.000000,0.000000,0.000000,0.326508,0.340338,0.094816,0.309398,0.234544,458.000000,439.000000,19.000000,62.000000,0.000000,0.000000,0.000000,0.000000,0.000000;
#CREDIT:;
#NOTES:
0000
0000
0000
0000
,
0000
0000
0000
0000
,
0000
0000
0000
0000
,
0000
0000
0000
0000
,
0000
0000
0000
0000
1000
0000
0000
0000
0100
0000
0010
0000
0000
0001
0001
0000
,
1000
0000
0000
0000
0001
0000
0000
0000
0010
0000
0100
1000
0000
0000
1000
0000
,
0001
0000
0000
0000
1000
0000
0000
0000
0010
0000
0100
0000
0000
0001
0001
0000
,
1000
0000
0000
0000
0100
0000
0010
0001
0000
0000
0010
0000
0110
0000
0000
0000
,
0001
0000
0010
0000
1000
0000
0010
0000
0001
1000
0001
0000
1000
0000
1000
0000
,
0001
0100
1000
0100
0002
0000
1003
0000
,
1000
0000
0100
0000
0001
0000
0100
0000
1000
0001
1000
0000
0001
0000
0001
0000
,
1000
0010
0001
0010
2000
0000
3001
0000
,
1000
1000
0100
0000
0001
0001
0100
0000
,
0010
0100
0010
0100
0220
0330
2002
3003
,
1000
0000
0001
0000
1000
0001
1000
0000
0010
0100
0020
0000
0000
0000
0230
0000
,
0000
0310
1000
0100
0220
0330
2002
3003
,
0001
0000
0000
0100
0001
0000
1000
0000
0000
0000
0001
0000
0200
0000
0000
0000
,
0310
0000
0000
1000
0010
0000
1000
0000
0000
0001
0100
0000
0002
0000
0000
0000
,
0013
0000
0000
0100
1000
0000
0100
0000
0000
0010
0001
0000
0010
0000
0000
0000
,
0100
0000
0000
1000
0100
0000
1000
0000
0000
0001
0100
0000
1000
0010
1000
0000
,
0001
0000
0100
0000
0001
0010
0001
0000
1000
0000
0100
0000
1000
0100
1000
0000
,
0001
0000
0010
0000
0100
0000
1000
0000
0000
0001
0010
0000
0002
0000
0000
0000
,
1003
0000
0000
0010
0100
0000
0001
0100
0000
0200
0000
0000
0300
0000
0001
0100
,
0000
0200
0000
0000
0300
0000
0100
0010
0000
1000
0001
0000
1001
0000
0000
0000
,
0002
0000
0000
0000
0103
0000
0100
0002
0000
0000
1003
0000
0010
0000
0010
2000
,
0000
0000
3000
0200
0000
0000
0320
0000
,
0031
0000
0000
0000
0100
0000
0010
0100
0000
0000
0001
0000
0100
0001
0100
0000
,
0020
0000
0000
0000
1030
0000
0001
1000
0000
0000
1000
0000
1010
0000
0000
0000
,
1000
0000
0100
0000
0100
0000
1000
0000
0001
0010
0001
0000
0002
0000
0000
0000
,
1003
0100
1000
0000
0100
0000
0010
0001
0020
0000
0000
0000
0230
0000
0000
0000
,
1300
0000
1000
0000
0001
0000
0001
0000
1000
0001
1000
0000
0010
0000
0100
0000
,
0010
0100
0010
0000
0100
0000
0001
0000
0200
0000
0000
0000
0310
0000
0000
0000
,
0001
0000
0010
0000
1000
0000
0010
0000
0001
1000
0001
0000
1000
0000
0100
0000
,
0001
0100
1000
0001
2002
3003
0220
0330
,
1000
0000
0100
0000
0001
0000
0100
0000
1000
0001
1000
0000
0010
0000
0001
0000
,
0100
2000
0000
3100
0220
0330
2002
3003
,
0001
0000
0000
0100
0010
0000
0200
0000
0000
0000
0301
0000
2002
0000
3003
0000
,
1000
0000
0000
0010
0100
0000
0001
0000
0000
0100
0010
0000
2000
0000
0000
0000
,
3100
0000
0000
0010
0001
0000
1000
0000
0000
0000
0100
0000
0220
0000
0330
0000
,
0010
0000
0000
0001
0010
0000
0100
0000
0000
0100
1000
0000
0010
1000
0010
0000
,
0100
0000
0100
0000
0001
0100
0001
0000
0010
0000
0010
0000
0100
1000
0100
0000
,
1000
0000
0001
0000
1001
0000
1001
0000
0000
0001
0100
0000
0010
1000
0010
0000
,
0100
0000
0001
0000
0000
0000
0001
0100
0000
0200
0000
0000
0300
0000
0001
0100
,
0000
0200
0000
0000
0300
0000
0100
0010
0000
1000
0100
0000
0010
0000
0000
0000
,
0001
0000
0100
0000
0001
0000
0100
0000
0001
0000
0010
1000
0010
1000
0010
0000
,
1000
0000
0100
0000
1000
0000
0100
0000
1000
0000
0001
0010
0001
0010
0001
0000
,
1000
0000
0001
0000
1000
0000
0001
0000
0010
0000
0100
0010
0100
0010
0100
0000
,
1000
0000
0001
0000
1000
0000
0010
0000
0100
0000
0001
1000
0001
1000
0001
0000
,
2000
0000
0100
0000
0000
0000
0100
0000
3000
1000
0001
0000
0001
0100
0001
0000
,
0002
0000
0100
0000
1003
0000
0001
0000
2002
0000
3003
0000
1000
0010
1000
0010
,
0200
0000
0001
0000
0300
0000
0001
0100
0000
0010
0000
0000
1000
0010
1000
0000
,
0001
0000
0010
0000
0100
0000
1000
0000
0001
0000
0000
0000
0100
0001
0100
0000
,
0010
0000
1000
0000
0001
0010
0001
0000
1000
0000
0100
0000
0010
0100
0010
0000
,
0001
0000
1000
0000
0010
0000
0220
0000
0330
0000
0000
0000
0001
0100
0001
0100
,
0001
0000
0000
1000
0100
0000
0020
0000
0000
0000
0031
0000
0202
0000
0303
0000
,
0010
0000
0000
1000
0001
0000
0010
0000
0000
0100
1000
0000
0001
0100
0001
0000
,
1000
0000
0000
0010
1000
0000
0002
0000
0000
0000
0013
0000
0100
1000
0100
0000
,
0010
0000
0000
0001
0100
0000
0020
0000
0000
0130
0010
0000
0100
0001
0100
0000
,
0010
0000
1000
0000
0100
1000
0100
0000
0010
0000
0001
0000
1000
0001
1000
0000
,
0010
0000
0100
0000
0010
0000
0220
0000
0000
0000
0330
0000
0100
0001
1000
0001
,
2000
0000
0010
0000
3000
0000
0010
0100
0000
0200
0000
0000
0300
0000
0001
0100
,
0000
0200
0000
0000
0300
0000
0001
0100
0000
0010
1000
0000
0002
0000
1000
0000
,
0003
0000
0000
0000
;

//---------------dance-single - ----------------
#NOTEDATA:;
#CHARTNAME:;
#STEPSTYPE:dance-single;
#DESCRIPTION:;
#CHARTSTYLE:;
#DIFFICULTY:Easy;
#METER:4;
#RADARVALUES:0.166818,0.201109,0.099806,0.289437,0.000000,234.000000,214.000000,20.000000,58.000000,0.000000,0.000000,0.000000,0.000000,0.000000,0.166818,0.201109,0.099806,0.289437,0.000000,234.000000,214.000000,20.000000,58.000000,0.000000,0.000000,0.000000,0.000000,0.000000;
#CREDIT:;
#NOTES:
0000
0000
0000
0000
,
0000
0000
0000
0000
,
0000
0000
0000
0000
,
0000
0000
0000
0000
,
0000
0000
1000
0000
0001
0000
0000
0100
,
0010
0000
1000
0000
0002
0003
0000
0100
,
0010
0000
0001
0000
1000
0000
0000
0010
,
0000
0000
1000
0010
0000
0010
0100
0000
,
0001
0010
0100
1000
,
1000
0001
2002
3003
,
1000
0100
0010
0001
,
0001
1000
2002
3003
,
0010
1000
0100
0001
,
0010
0000
1000
0000
2002
3003
2002
3003
,
0001
0100
1000
0010
,
0001
0000
0100
0000
0220
0330
2002
3003
,
0001
0001
0000
1000
1000
0000
0010
0000
,
0100
0001
2002
3003
,
1000
1000
0000
0001
0001
0000
0100
0000
,
0010
1000
2020
3030
,
1000
0001
0100
0001
,
1000
0100
0010
0001
,
1000
2000
0000
3000
0001
0000
0010
0000
,
1000
0100
0001
2002
,
3003
0001
0100
0010
,
2000
0000
3000
0000
,
1000
0100
0010
0001
,
0200
0000
0300
0000
,
0010
1000
0001
0100
,
0001
0010
0022
0033
,
0100
1000
0010
1000
,
0001
0100
0202
0303
,
0100
0010
1000
0001
,
0001
0000
1000
0000
2002
3003
0220
0330
,
1000
0100
0010
0001
,
0100
0000
0010
0000
2002
3003
0220
0330
,
1000
1000
0000
0001
0001
0000
1000
0000
,
0100
0010
0220
0330
,
0010
0010
0000
0100
0100
0000
1000
0000
,
0010
1000
2002
3003
,
1000
0100
0010
0100
,
1000
0001
1000
0100
,
1000
2000
0000
3000
0001
0000
0010
0000
,
1000
0100
0001
1001
,
2000
0100
0200
3300
,
0020
0001
0002
0033
,
0002
0100
0200
0303
,
0020
1000
2000
3030
,
1000
2000
0000
0000
3001
0000
1000
0000
,
0010
0001
0100
1000
,
0001
0002
0000
0000
1003
0000
0010
0000
,
0001
0100
1000
0001
,
1000
2000
0000
0000
3010
0020
0000
0000
,
0130
0000
0001
0002
0000
0000
0003
0000
,
1000
0100
0010
0001
,
0001
0100
0220
0330
,
0100
0001
1000
0010
,
1000
0001
2002
3003
,
0001
0010
0100
0010
,
0001
1000
0001
0100
,
0010
0020
0000
0000
1030
0000
0100
0000
,
0001
0010
1000
0002
,
1003
0000
0000
0000
;

//---------------dance-single - ----------------
#NOTEDATA:;
#CHARTNAME:;
#STEPSTYPE:dance-single;
#DESCRIPTION:;
#CHARTSTYLE:;
#DIFFICULTY:Beginner;
#METER:3;
#RADARVALUES:0.129748,0.139229,0.009981,0.099806,0.000000,182.000000,180.000000,2.000000,20.000000,0.000000,0.000000,0.000000,0.000000,0.000000,0.129748,0.139229,0.009981,0.099806,0.000000,182.000000,180.000000,2.000000,20.000000,0.000000,0.000000,0.000000,0.000000,0.000000;
#CREDIT:;
#NOTES:
// measure 0
0000
0000
0000
0000
,  // measure 1
0000
0000
0000
0000
,  // measure 2
0000
0000
0000
0000
,  // measure 3
0000
0000
0000
0000
,  // measure 4
0000
1000
0001
0100
,  // measure 5
0000
0010
1000
0001
,  // measure 6
0000
0001
1000
0100
,  // measure 7
0000
1000
0001
0000
,  // measure 8
0010
0010
0100
0100
,  // measure 9
1000
0001
1000
0000
,  // measure 10
0100
0100
0010
0010
,  // measure 11
0001
1000
0001
0000
,  // measure 12
0010
0010
0100
0000
,  // measure 13
1000
0001
2000
3000
,  // measure 14
0001
1000
0001
0000
,  // measure 15
0010
0100
0220
0330
,  // measure 16
0001
0010
0100
1000
,  // measure 17
0010
0100
0002
0003
,  // measure 18
1000
0100
0010
0001
,  // measure 19
0100
0010
2000
3000
,  // measure 20
0001
0100
1000
0100
,  // measure 21
0001
1000
0001
0000
,  // measure 22
1000
0001
0100
0000
,  // measure 23
0010
1000
0001
0000
,  // measure 24
1000
0001
0100
0000
,  // measure 25
0100
0001
1000
0000
,  // measure 26
0001
1000
0010
0000
,  // measure 27
0010
1000
0001
0000
,  // measure 28
0010
0010
0100
0100
,  // measure 29
1000
0001
1000
0000
,  // measure 30
0100
0100
0010
0010
,  // measure 31
0001
1000
0001
0000
,  // measure 32
0100
0100
0010
0000
,  // measure 33
0010
0100
0020
0030
,  // measure 34
1000
0001
1000
0000
,  // measure 35
0100
0100
0220
0330
,  // measure 36
1000
0100
0010
0001
,  // measure 37
0100
0010
2000
3000
,  // measure 38
0001
0010
0100
1000
,  // measure 39
0010
0100
0002
0003
,  // measure 40
1000
0100
0001
0100
,  // measure 41
1000
0010
0100
0000
,  // measure 42
0001
1000
0010
0000
,  // measure 43
1000
0001
0100
0010
,  // measure 44
1000
1000
2000
3000
,  // measure 45
0001
0001
0002
0003
,  // measure 46
0010
0010
0020
0030
,  // measure 47
0100
0100
0200
0300
,  // measure 48
2000
0000
3000
0000
,  // measure 49
0010
0010
0010
0000
,  // measure 50
0002
0000
0003
0000
,  // measure 51
0100
0100
0100
0000
,  // measure 52
0010
0000
1000
0000
,  // measure 53
0001
0000
0100
0000
,  // measure 54
0010
0010
0010
0000
,  // measure 55
0100
0100
0200
0300
,  // measure 56
0001
0001
0001
0000
,  // measure 57
1000
1000
2000
3000
,  // measure 58
0001
0010
0100
1000
,  // measure 59
0010
0100
0001
0000
,  // measure 60
0010
0010
0020
0030
,  // measure 61
0100
0100
0200
0300
,  // measure 62
1000
0000
0000
0000
;
