#TITLE:Dazzling White Town;
#SUBTITLE:;
#ARTIST:Saint Snow;
#TITLETRANSLIT:;
#SUBTITLETRANSLIT:;
#ARTISTTRANSLIT:;
#GENRE:;
#CREDIT:;
#BANNER:Dazzling White Town-bn.png;
#BACKGROUND:Dazzling White Town-bg.jpg;
#LYRICSPATH:;
#CDTITLE:;
#MUSIC:Dazzling White Town.mp3;
#OFFSET:-0.240000;
#SAMPLESTART:92.719940;
#SAMPLELENGTH:12.000000;
#SELECTABLE:YES;
#BPMS:0.000000=133.000000
;
#STOPS:64.750000=0.226000,
65.000000=0.226000,
65.250000=0.226000,
65.500000=0.226000
;
#BGCHANGES:0.000=Dazzling White Town.mp4=1.600=0=0=1=====,
1.688=Dazzling White Town.mp4=1.000=0=0=1=====,
256.000=Dazzling White Town.mp4=0.100=0=0=1=====,
269.000=Dazzling White Town-bg.jpg=1.000=0=0=1=====,
99999=-nosongbg-=1.000=0=0=0 // don't automatically add -songbackground-
;
#KEYSOUNDS:;
#ATTACKS:;

//---------------dance-single - ----------------
#NOTES:
     dance-single:
     :
     Hard:
     14:
     0.602103,0.612764,0.407876,0.095971,0.491850,527.000000,476.000000,51.000000,12.000000,0.000000,0.000000,0.602103,0.612764,0.407876,0.095971,0.491850,527.000000,476.000000,51.000000,12.000000,0.000000,0.000000:
// measure 0
0000
0000
0000
0000
,  // measure 1
0000
0000
0000
0000
,  // measure 2
0000
0000
0000
0000
,  // measure 3
0000
0000
0000
0000
,  // measure 4
0000
0000
0000
0000
,  // measure 5
0000
0000
0000
0000
1000
0000
0000
1000
0000
0000
1000
0000
0010
0000
0000
0100
,  // measure 6
0000
0000
0001
0000
0010
0000
0000
0010
0000
0000
0010
0000
0100
0000
0000
1000
,  // measure 7
0000
0000
0010
0000
0001
0000
0000
0001
0000
0000
0001
0000
1000
0000
0000
0010
,  // measure 8
0000
0000
0100
0000
1000
0000
0000
0001
0000
0000
0001
0000
1000
0000
0000
0001
,  // measure 9
1000
0010
0110
0000
0010
1000
0100
0000
,  // measure 10
0010
0000
0010
0001
0100
0001
0010
0000
,  // measure 11
0100
0000
1000
0000
0010
1000
0100
0000
,  // measure 12
0010
0000
0000
0000
0010
0000
0001
0000
0100
0000
0001
0010
0000
0001
0000
0100
,  // measure 13
0001
0010
0110
0000
0010
1000
0100
0000
,  // measure 14
0010
0000
0100
1000
0010
1000
0100
0000
,  // measure 15
0010
0000
0010
0000
0001
0000
0100
0000
0010
0000
1000
0000
0100
1000
0010
1000
,  // measure 16
0001
0100
0001
0010
0100
0100
0100
0100
0020
0000
0000
0000
0031
0000
0100
0000
,  // measure 17
0100
0001
0000
0001
0100
0000
0001
1000
0000
0100
0000
0010
0000
0000
0001
0010
,  // measure 18
0100
0000
1000
0100
0010
0001
0010
0002
0000
0000
1003
0000
0000
0000
0010
0100
,  // measure 19
0010
1000
0000
0001
0100
0000
0010
0100
0000
0000
0001
0000
1001
0000
1000
0000
,  // measure 20
1010
0000
0010
1000
0100
1000
0010
0100
0000
0000
0010
0000
0110
0000
0000
0100
,  // measure 21
0001
0000
0010
0000
0100
0000
0000
0010
0001
0000
0100
0000
0110
0000
0010
0000
,  // measure 22
1010
0000
0001
0000
0101
0000
0010
1000
0000
0000
1010
0000
0000
0000
0010
0100
,  // measure 23
0001
1000
0000
0100
1000
0000
1000
0100
0010
0000
0001
0000
0000
0000
1000
0000
,  // measure 24
1000
0000
0000
0000
1000
0001
1000
0001
1000
0000
0010
0000
0110
0000
0010
1000
,  // measure 25
0000
0001
0000
1000
0100
0000
0000
0000
0010
0000
0010
0000
0110
0000
0100
1000
,  // measure 26
0000
0001
0000
1000
0020
0000
0000
0000
0130
0000
0001
0100
0000
0000
0010
0000
,  // measure 27
1000
0010
0000
0100
0001
0000
0100
0010
0000
0010
1000
0000
0001
0000
0100
0001
,  // measure 28
0000
0100
0010
0000
1010
0000
0000
0000
1000
0000
0100
0000
0010
0000
0100
1000
,  // measure 29
0000
0100
0000
1000
0020
0000
0000
0000
0130
0000
0001
0000
0010
0000
0001
0100
,  // measure 30
0000
0001
0000
0010
0001
0000
0000
0000
1001
0000
0001
0000
2000
0000
0000
0000
,  // measure 31
3020
0000
0230
0000
0302
0000
1003
0100
,  // measure 32
1000
0000
0100
0000
0010
0001
0010
0000
0001
0010
0100
1000
0001
0000
1000
0100
,  // measure 33
0000
0010
0001
0000
0010
0100
1000
0000
0001
0000
1000
0000
1001
0000
0000
0000
,  // measure 34
1000
0000
1000
0000
1000
0010
0100
0000
,  // measure 35
0100
0000
0100
0000
0001
1000
0100
0010
,  // measure 36
0100
1000
0010
0001
0010
1000
0110
0000
,  // measure 37
1001
0000
0000
0000
0110
0000
0000
0000
1001
0000
0000
0000
0100
0000
0000
0100
,  // measure 38
0000
0000
0010
0000
0001
0000
0000
0000
1001
0000
0000
0000
0010
0000
0000
0010
,  // measure 39
0000
0100
1000
0000
0110
0000
0010
1000
,  // measure 40
0100
1000
0010
0001
0100
0001
0010
0100
,  // measure 41
0010
0000
0100
0000
0001
0000
1000
0000
0001
1000
0001
1000
0000
0000
0010
0000
,  // measure 42
0100
0000
0000
0000
0101
0000
0000
0010
1000
0000
0001
0000
1000
0000
0010
1000
,  // measure 43
0000
1000
0100
0000
0010
0001
0000
0001
0100
0000
0010
0000
1000
0000
0010
1000
,  // measure 44
0000
0100
1000
0000
0010
0100
0001
0000
1001
0000
0000
0000
0010
0000
0001
0100
,  // measure 45
0000
0001
0010
0000
0001
0100
0000
0010
1000
0000
0001
0000
0011
0000
0010
0000
,  // measure 46
0110
0000
0100
0000
1000
0001
0000
1000
0210
0000
0000
0000
0310
0000
1000
0100
,  // measure 47
0000
1000
0010
0000
1000
0100
0000
0010
0001
0000
0010
0000
0100
0000
1000
0100
,  // measure 48
0000
0100
0010
0000
0010
0001
0000
0001
0100
0000
0000
0000
0010
0000
0001
0100
,  // measure 49
0000
0001
0010
0000
0001
0100
0000
0010
1000
0000
0010
0000
0010
0000
0100
0000
,  // measure 50
0100
0000
0000
0000
0000
0000
0000
0000
0000
0000
0000
0000
0000
0000
0000
0000
0000
0000
0000
0000
0000
0000
0000
0000
0001
0000
0000
0000
0000
0000
0000
0000
0000
0000
0000
0000
0000
0000
0000
0000
0000
0000
0000
0000
0000
0000
0000
0000
1000
0000
0000
0000
0000
0000
0000
0000
0000
0000
0000
0000
0001
0000
0000
0000
0000
0000
0000
0000
0000
0000
0000
0000
1000
0000
0000
0000
0000
0000
0000
0000
0000
0000
0000
0000
0001
0000
0000
0000
0000
0000
0000
0000
0000
0000
0000
0000
2000
0000
0000
0000
0000
0000
0000
0000
0000
0000
0000
0000
0000
0000
0000
0000
0000
0000
0000
0000
0000
0000
0000
0000
0000
0000
0000
0000
0000
0000
0000
0000
0000
0000
0000
0000
0000
0000
0000
0000
0000
0000
0000
0000
0000
0000
0000
3000
1010
0000
0000
0000
0000
0000
0000
0000
0000
0000
0000
0000
0000
0000
0000
0000
0000
0000
0000
0000
0000
0000
0000
0000
0000
0000
0000
0000
0000
0000
0000
0000
0000
0000
0000
0000
0000
0000
0000
0000
0000
0000
0000
0000
0000
0000
0000
0000
,  // measure 51
1100
0010
0011
0000
1100
0000
1010
0010
,  // measure 52
0100
0001
0101
0000
1010
0000
1000
0000
,  // measure 53
1100
0010
0011
0000
0101
0000
0010
1000
,  // measure 54
0100
0000
1000
0010
0000
0100
0000
0001
0010
0000
0100
0000
1001
0000
0000
0000
,  // measure 55
1100
0010
0011
0000
1100
0000
1010
1000
,  // measure 56
0010
0100
0110
0000
1001
0000
0100
0000
,  // measure 57
1010
0100
0101
0000
1010
0000
1002
0000
,  // measure 58
0103
0000
2001
0000
0000
0000
3000
0010
1000
0000
0001
0000
0101
0000
0000
0010
,  // measure 59
1000
0000
0000
1000
0100
0000
0000
0010
0001
0000
0010
0000
0100
0000
1000
0000
,  // measure 60
0001
0000
1000
0000
0100
0010
0000
0100
1000
0000
0001
0000
0010
0000
0000
0010
,  // measure 61
0100
0000
1000
0000
0010
0000
0000
0100
0010
0000
1000
0000
1100
0000
0010
0000
,  // measure 62
0011
0000
0001
0000
0101
0000
1000
0000
0100
0000
1000
0100
0010
0000
0000
0010
,  // measure 63
1000
0000
0000
0001
0100
0000
0000
0010
0001
0000
1000
0000
0001
0000
0100
0000
,  // measure 64
0001
0000
0010
0000
0001
1000
0000
0010
1000
0001
0100
0000
1000
0000
0000
0100
,  // measure 65
0010
1000
0100
0000
0001
0000
0000
0100
0010
0001
0100
0000
0010
0000
0001
0000
,  // measure 66
0010
0100
0001
0010
1000
0000
0000
0000
0010
0000
0001
0000
0000
0000
0000
0000
;

//---------------dance-single - ----------------
#NOTES:
     dance-single:
     :
     Medium:
     9:
     0.450149,0.479554,0.215934,0.183944,0.111966,394.000000,367.000000,27.000000,23.000000,0.000000,0.000000,0.450149,0.479554,0.215934,0.183944,0.111966,394.000000,367.000000,27.000000,23.000000,0.000000,0.000000:
0000
0000
0000
0000
,
0000
0000
0000
0000
,
0000
0000
0000
0000
,
0000
0000
0000
0000
,
0000
0000
0000
0000
,
0000
0000
0000
0000
1000
0000
0000
1000
0000
0000
0100
0000
0000
0010
0000
0000
,
0001
0000
0001
0000
1000
0000
0000
1000
0000
0000
0100
0000
0000
0100
0000
0000
,
0010
0000
0001
0000
1000
0000
0000
0100
0000
0000
0010
0000
0000
0001
0000
0000
,
1000
0000
0100
0000
2000
0000
0000
3002
0000
0000
0103
0000
0010
0000
0000
0000
,
0110
0000
1000
0000
0001
0100
0001
0000
,
0100
0000
0001
0010
1000
0010
0001
0000
,
1000
0000
0001
0000
1000
0010
0001
0000
,
0010
0000
0000
0000
1000
0000
0100
0000
0010
0000
0000
0001
0000
0100
0000
0000
,
0020
0000
1030
0000
0001
0010
1000
0000
,
0010
0000
0001
0100
1000
0100
0001
0000
,
1000
0000
0001
0010
0100
1000
0001
0010
,
0100
0000
1000
0000
2000
3002
2000
0000
3000
0000
0003
0000
1000
0000
0010
0000
,
0001
0010
1000
0100
0010
0001
1000
0000
,
0001
0010
0100
1000
0001
0000
1000
0100
,
0001
0100
1000
0010
0100
0000
0101
0001
,
1001
0000
1010
1000
1001
0000
0010
0000
,
0010
0001
0100
0000
0100
0001
0010
0001
,
0100
0001
0010
1000
0020
0000
0030
0001
,
0100
0010
1000
0100
1000
0000
0001
1000
,
1000
0000
0000
0000
0001
0000
1000
0000
0001
0000
0000
0000
1000
0000
0000
0010
,
0000
0000
0100
0000
0001
0000
0000
0000
1000
0000
0001
0000
1000
0000
0000
0010
,
0000
0100
0001
0000
1000
0100
0020
0000
,
0031
0000
0010
0000
0001
0000
1000
0000
0001
0000
0100
0000
0101
0000
0000
0100
,
0000
0010
1010
0000
0010
1000
0100
0000
,
1000
0010
0100
0000
0010
1000
0100
0000
,
0001
0100
1000
0000
1000
0010
0001
0010
,
1000
0100
0010
0001
1000
0001
0100
1000
,
0100
0001
0010
1000
0010
0001
2000
0000
,
0010
3001
1001
0100
,
0000
0100
0000
0000
0100
0010
1000
0000
,
0000
1000
0000
0000
1000
0001
0010
0001
,
0100
0001
0010
0001
0100
1000
0200
0000
,
0320
0000
0000
0000
2030
0000
0000
0000
3002
0000
0000
0000
1003
0000
0000
0100
,
0000
0000
0010
0000
0001
0000
0000
0000
0011
0000
0000
0000
0001
0000
0000
0100
,
0000
0000
0010
0000
1000
0000
0000
0000
1010
0000
0000
0000
1000
0000
0000
0100
,
0000
0000
1100
0000
1000
0000
0000
0010
0000
0000
0110
0000
0100
0000
0001
0000
,
0010
0100
1000
0010
0100
0001
0000
0100
,
0100
0000
0000
0000
0010
0000
0000
0000
1001
0000
0000
0000
0010
0000
0000
1000
,
0000
0000
0100
0000
0000
0010
0000
0000
0110
0000
0000
0000
0010
0000
0000
0001
,
0000
0000
0100
0000
0010
0000
0000
0000
0110
0000
0000
0000
1000
0000
0000
0010
,
0000
0000
0001
0000
0000
0010
0000
0000
1000
0000
0001
0000
1000
0000
0100
0000
,
0001
0000
0100
0000
1000
0000
0001
0000
1002
0000
0000
0000
0013
0000
0000
0001
,
0000
0000
0100
0000
0000
0010
0000
0000
0110
0000
0000
0000
0010
0000
0000
1000
,
0000
0000
0100
0000
0010
0000
0001
0000
1000
0000
0000
0000
0001
0000
0000
0100
,
0000
0000
1000
0000
0000
0100
0000
0000
0001
0000
0010
0000
1000
0000
0010
0000
,
0001
0100
1000
0100
0120
0000
1030
0000
,
0100
0010
0011
0000
0011
0000
0010
0010
,
0100
1000
0001
0000
1001
0000
0020
0000
,
0031
0100
0010
0000
0100
0000
0010
1000
,
0100
1000
0010
0100
0001
0010
0001
0000
,
0100
0010
0110
0000
1001
0000
1000
0010
,
0001
0010
1000
0000
1001
0000
0010
1000
,
0100
0010
0100
0000
0010
0001
0200
0000
,
0300
0020
0000
0030
0000
0000
1000
0100
,
1000
0000
0100
0010
0100
1000
0000
0010
,
0100
0010
1000
0000
1010
0000
0001
0100
,
0001
0000
0100
0010
0100
0001
0020
0000
,
2030
0000
3002
0000
0103
1000
0010
1000
,
0100
0000
0010
0001
0100
0001
0010
0100
,
1000
0000
0010
0100
0110
0020
0100
0030
,
1001
2000
0001
3000
0001
0100
0010
1000
,
0100
0010
0001
0000
0100
0000
0000
0000
0010
0000
1000
0000
0000
0000
0000
0000
;

//---------------dance-single - ----------------
#NOTES:
     dance-single:
     :
     Easy:
     6:
     0.291340,0.319703,0.095971,0.159951,0.051984,255.000000,243.000000,12.000000,20.000000,0.000000,0.000000,0.291340,0.319703,0.095971,0.159951,0.051984,255.000000,243.000000,12.000000,20.000000,0.000000,0.000000:
0000
0000
0000
0000
,
0000
0000
0000
0000
,
0000
0000
0000
0000
,
0000
0000
0000
0000
,
0000
0000
0000
0000
,
0000
0000
0000
0000
1000
0000
0000
0000
1000
0000
0000
0000
0001
0000
0000
0100
,
0000
0000
0010
0000
0000
0000
0000
0000
0000
0000
0000
0000
1000
0000
0000
0010
,
0000
0000
0100
0000
0000
0000
0000
0000
0000
0000
0000
0000
0001
0000
0000
0010
,
0000
0100
0000
0000
0000
0000
0000
0000
,
0000
1000
0100
1000
,
0100
0001
0010
1000
,
0001
1000
0100
1000
,
0100
0000
0010
0000
0001
0000
0100
0001
,
0100
0001
0010
0001
,
0010
1000
0100
0001
,
1000
0001
0010
0100
,
2000
0000
3000
1000
,
0010
0000
0100
0001
0100
0000
0001
0000
,
0010
0100
1000
0001
,
0100
0000
0010
1000
0010
0000
0100
0000
,
0001
1000
1001
0010
,
0010
0001
0100
0010
,
0010
0000
1000
0000
0100
0000
0010
0001
,
0010
0100
1000
0001
,
1001
0000
0001
1000
0001
0000
1000
0000
,
0010
0100
0100
0001
,
0010
0100
0100
2000
,
0010
3002
0100
1003
,
0001
2002
3003
1000
,
0001
0000
0100
0001
0100
0000
0001
0000
,
1000
0000
0100
1000
0100
0000
0020
0000
,
0032
0000
2003
0000
3200
0000
1300
0001
,
1000
0001
1000
0000
0010
0000
2002
0000
,
0000
3003
0100
0100
,
0000
0100
0000
0000
0010
0000
1000
0000
,
0000
1000
0000
0000
0001
0000
0010
0000
,
0001
0100
0010
0200
,
0320
2030
3002
1003
,
0000
1000
0000
0000
1001
0000
0010
0000
,
0000
0010
0000
0000
0110
0000
1000
0000
,
0001
0000
1000
0000
0001
0000
0010
0100
,
0010
0000
0100
0010
0100
0000
0000
0000
,
0000
0000
0000
0000
0000
0000
0000
0000
0000
0000
0000
0000
1000
0000
0000
0100
,
0000
0000
1000
0000
0000
0100
0000
0000
0000
0000
0000
0000
0010
0000
0000
0001
,
0000
0000
0010
0000
0001
0000
0000
0000
1001
0000
0000
0000
1000
0000
0000
0010
,
0000
0000
1000
0000
0000
0010
0000
0000
0000
0000
0000
0000
1000
0000
0000
0000
,
0001
0000
0000
0000
0100
0000
0000
0000
1001
0000
0000
0000
0001
0000
0000
0100
,
0000
0000
0001
0000
0000
0100
0000
0000
0000
0000
0000
0000
0010
0000
0000
1000
,
0000
0000
0010
0000
1000
0000
0000
0000
0010
0000
0000
0000
0001
0000
0000
0010
,
0000
0000
0001
0000
0000
0010
0000
0000
0000
0000
0000
0000
0100
0000
0000
0000
,
1000
0001
0110
1000
,
0100
0000
0010
0000
0010
0000
0001
1000
,
0001
0100
0010
1000
,
1000
0000
0100
0000
0010
0000
0001
0010
,
0001
0000
1000
0001
1000
0000
0010
0000
,
0100
0001
1001
1000
,
0010
0001
0010
1000
,
0100
0000
0010
0001
0010
0000
0200
0000
,
0300
0020
0000
0030
0000
0000
0001
0000
,
0100
0000
0010
0000
1000
0020
0000
0000
,
0030
1000
0100
0010
,
0001
0100
0001
1001
,
1000
1001
0001
1000
,
0010
0100
0001
0010
,
0100
0000
1000
0000
0010
0020
0000
0030
,
1000
2000
0000
3000
0001
0000
0100
0000
,
0010
0000
1000
0000
0001
0100
0000
0000
;
