#TITLE:Ares;
#SUBTITLE:;
#ARTIST:Pascu y Rodri;
#TITLETRANSLIT:;
#SUBTITLETRANSLIT:;
#ARTISTTRANSLIT:;
#GENRE:;
#CREDIT:;
#BANNER:Ares-bn.jpg;
#BACKGROUND:Ares-bg.png;
#LYRICSPATH:;
#CDTITLE:cdtitle_ukiarrow.png;
#MUSIC:Ares.mp3;
#OFFSET:1.940000;
#SAMPLESTART:145.728165;
#SAMPLELENGTH:12.000000;
#LASTBEATHINT:1.189482;
#SELECTABLE:YES;
#BPMS:0.000000=80.010002
;
#STOPS:
;
#BGCHANGES:2.500=Ares.mp4=1.000=0=0=1=====,
243.000=Ares-bg.png=1.000=0=0=1=====,
99999=-nosongbg-=1.000=0=0=0 // don't automatically add -songbackground-
;
#KEYSOUNDS:;
#ATTACKS:;

//---------------dance-single - ----------------
#NOTES:
     dance-single:
     :
     Hard:
     7:
     0.234841,0.310535,0.303821,0.792105,0.005425,303.000000,247.000000,56.000000,146.000000,0.000000,0.000000,0.234841,0.310535,0.303821,0.792105,0.005425,303.000000,247.000000,56.000000,146.000000,0.000000,0.000000:
// measure 0
0000
0000
0000
0000
,  // measure 1
0000
0000
0000
0000
,  // measure 2
0000
0000
0000
0000
,  // measure 3
0000
0000
0000
0000
,  // measure 4
0000
0000
0000
0000
,  // measure 5
0000
0000
0002
0000
0103
0010
0200
0000
,  // measure 6
0300
0000
0020
0000
1030
0000
1001
0001
,  // measure 7
0000
0000
2000
0000
3100
0000
0010
0001
,  // measure 8
0010
0200
1300
2002
,  // measure 9
3003
0000
2000
0000
3010
1000
2020
0000
,  // measure 10
3030
0000
0002
0000
0103
0000
0010
0100
,  // measure 11
0001
0000
2000
0000
3010
0000
0010
1000
,  // measure 12
0001
0200
0310
0220
,  // measure 13
0330
2000
0000
3200
,  // measure 14
0010
0000
0310
0001
1000
0001
0200
0000
,  // measure 15
0310
0000
0020
1000
1030
0000
0002
0100
,  // measure 16
0103
0000
0010
1000
0002
0000
2000
0000
,  // measure 17
3003
0000
1001
0000
0001
1000
2200
3300
,  // measure 18
0022
0033
2002
3000
0200
0300
0020
0030
,  // measure 19
2000
3003
0110
0000
0010
0100
2020
3030
,  // measure 20
0202
0303
0220
0300
0002
0003
2000
3000
,  // measure 21
0200
0330
0101
0010
1000
0001
0020
0000
,  // measure 22
0130
0000
2200
3000
0020
0030
0002
0003
,  // measure 23
2000
3300
0011
0100
1000
0010
0200
0000
,  // measure 24
0301
0000
0022
0003
0200
0300
2000
3000
,  // measure 25
0002
0033
0002
0000
1003
0010
0200
0000
,  // measure 26
0300
0000
0002
0000
1003
0000
0010
1000
,  // measure 27
0001
0000
0200
0000
0301
0000
1000
0010
,  // measure 28
0200
0302
1003
0220
,  // measure 29
0330
0002
0000
0203
,  // measure 30
0000
0000
0310
1000
0001
0100
0220
0330
,  // measure 31
2002
0000
3003
0000
0011
0000
0001
1000
0000
0000
0000
0000
1100
0000
1000
0001
,  // measure 32
0000
0000
0001
0100
0010
1000
2002
0000
,  // measure 33
0000
3003
2100
0000
3100
0010
0022
0033
,  // measure 34
2200
3300
0012
0000
0103
0010
2020
3030
,  // measure 35
0202
0303
2010
0000
3010
0100
0202
0303
,  // measure 36
2020
3030
0102
0000
0013
0100
2200
3300
,  // measure 37
0022
0033
2001
0100
3100
1000
1002
0000
,  // measure 38
0100
0003
2001
0000
0100
3001
2002
0000
,  // measure 39
3003
0000
2001
0001
3100
0100
1002
0000
,  // measure 40
0100
0003
2001
0000
3100
1000
2002
0000
,  // measure 41
3003
0000
1000
0000
0100
0000
0010
0001
,  // measure 42
1000
0010
0200
0000
0001
0000
0302
0000
,  // measure 43
0000
0003
0002
0000
0103
0000
0010
1000
,  // measure 44
0001
0010
0200
0000
1000
0000
2300
0000
,  // measure 45
0000
3000
0002
0000
0000
0100
0203
0000
,  // measure 46
0320
2030
0000
3002
,  // measure 47
0000
0003
2000
0000
0000
0100
3200
0000
,  // measure 48
0320
0032
0000
0203
,  // measure 49
0300
0000
0210
0000
0301
1000
0201
0000
,  // measure 50
0310
0000
0120
0000
1030
0001
1020
0000
,  // measure 51
0130
0000
0201
0000
0310
1000
0210
0000
,  // measure 52
0301
0000
1020
0000
0130
0001
0120
0000
,  // measure 53
1030
0000
0002
0023
2030
3001
0021
0000
,  // measure 54
0130
0000
0220
0030
2000
3000
0002
0003
,  // measure 55
0020
0330
2000
3200
0302
1003
1020
0000
,  // measure 56
0130
0000
0120
0000
2000
3000
0002
0003
,  // measure 57
0200
0330
0010
1000
0001
0100
2000
0000
,  // measure 58
3001
0000
0220
0300
2000
3000
0200
0030
,  // measure 59
0002
0303
2002
0000
0000
0000
0000
0000
,  // measure 60
0000
3003
0000
0000
;

//---------------dance-single - ----------------
#NOTES:
     dance-single:
     :
     Medium:
     6:
     0.193763,0.228815,0.048828,0.537112,0.000000,250.000000,241.000000,9.000000,99.000000,0.000000,1.000000,0.193763,0.228815,0.048828,0.537112,0.000000,250.000000,241.000000,9.000000,99.000000,0.000000,1.000000:
// measure 0
0000
0000
0000
0000
,  // measure 1
0000
0000
0000
0000
,  // measure 2
0000
0000
0000
0000
,  // measure 3
0000
0000
0000
0000
,  // measure 4
0000
0000
0000
0000
,  // measure 5
0000
0000
0002
0000
0103
0010
1000
0000
,  // measure 6
0000
0000
0020
0000
0130
0000
0001
1000
,  // measure 7
0010
0000
2000
0000
3100
0000
0010
0001
,  // measure 8
0100
0200
0310
1000
,  // measure 9
0000
0000
2000
0000
3010
0100
0001
0000
,  // measure 10
0000
0000
0002
0000
0013
0000
0100
1000
,  // measure 11
0001
0000
2000
0000
3010
0000
0100
0001
,  // measure 12
1000
0200
0310
0002
,  // measure 13
0003
2000
0000
3200
,  // measure 14
0000
0000
0310
0001
1000
0001
0020
0000
,  // measure 15
0130
0000
0100
1000
0010
0000
0100
0001
,  // measure 16
0010
0000
0001
1000
0002
0000
2000
0000
,  // measure 17
3003
0000
0002
0000
1003
0100
0010
0000
,  // measure 18
0200
0302
2003
3020
,  // measure 19
0031
0000
2000
0000
3001
0010
0100
0000
,  // measure 20
0020
2030
3002
0203
,  // measure 21
2300
0000
3100
0001
1000
0010
0002
0000
,  // measure 22
0203
2300
3002
0023
,  // measure 23
2030
0000
3100
0001
1000
0010
0002
0000
,  // measure 24
1003
0002
0023
0230
,  // measure 25
2300
0000
3001
0000
1000
0010
0100
0000
,  // measure 26
0000
0000
0002
0000
0013
0000
0100
1000
,  // measure 27
0001
0000
2000
0000
3100
0000
0010
0001
,  // measure 28
0100
0020
0130
0020
,  // measure 29
0030
2000
0000
3200
,  // measure 30
0000
0000
0310
0001
0010
0100
2000
3000
,  // measure 31
0002
0003
1000
0100
0010
0000
0001
0010
,  // measure 32
0100
0000
1000
0010
0100
0001
2000
0000
,  // measure 33
0000
3000
0002
0000
0103
0010
2000
3000
,  // measure 34
0002
0003
0020
0000
2030
0000
3002
0000
,  // measure 35
0203
0000
2300
0000
3010
0100
0002
0003
,  // measure 36
2000
3000
0200
0000
0302
0000
2003
0000
,  // measure 37
3020
0000
0031
0100
0100
0010
2000
0000
,  // measure 38
3001
2000
0010
3002
,  // measure 39
0010
0000
1003
0100
0100
0010
0002
0000
,  // measure 40
1003
0002
0100
2003
,  // measure 41
0100
0000
3001
0000
0001
0000
0001
0010
,  // measure 42
0100
1000
0020
0000
0000
0000
0230
0000
,  // measure 43
0000
0300
0001
0000
0001
0000
0001
0100
,  // measure 44
0010
1000
0200
0000
0000
0000
0320
0000
,  // measure 45
0000
0030
0002
0000
0000
0100
0203
0000
,  // measure 46
0320
2030
0000
3002
,  // measure 47
0000
0003
2000
0000
0000
0100
3200
0000
,  // measure 48
0320
0032
0000
0203
,  // measure 49
0300
0000
1001
0000
0001
1000
1001
0000
,  // measure 50
0110
2000
3010
0002
,  // measure 51
0013
0000
0110
0000
0100
0010
0110
0000
,  // measure 52
1001
2000
3100
0002
,  // measure 53
0103
0000
0001
0010
0100
1000
0020
0000
,  // measure 54
0130
0002
0203
0320
,  // measure 55
2030
0000
3001
0100
0010
1000
0200
0000
,  // measure 56
0310
0002
0023
0230
,  // measure 57
2300
0000
3001
1000
0010
0100
0110
0000
,  // measure 58
1001
2000
3200
0320
,  // measure 59
0032
0223
0000
0000
,  // measure 60
0000
0330
0000
0000
;

//---------------dance-single - ----------------
#NOTES:
     dance-single:
     :
     Easy:
     4:
     0.155786,0.192872,0.048828,0.195314,0.000000,201.000000,192.000000,9.000000,36.000000,0.000000,0.000000,0.155786,0.192872,0.048828,0.195314,0.000000,201.000000,192.000000,9.000000,36.000000,0.000000,0.000000:
// measure 0
0000
0000
0000
0000
,  // measure 1
0000
0000
0000
0000
,  // measure 2
0000
0000
0000
0000
,  // measure 3
0000
0000
0000
0000
,  // measure 4
0000
0000
0000
0000
,  // measure 5
0000
0001
0100
0010
,  // measure 6
0000
0000
0010
0000
0100
0000
0001
0001
,  // measure 7
0000
1000
0100
0010
,  // measure 8
0000
0001
1000
1001
,  // measure 9
0000
1000
0010
0100
,  // measure 10
0000
0000
0001
0000
1000
0000
0010
0010
,  // measure 11
0000
1000
0100
0010
,  // measure 12
0000
0001
1000
1001
,  // measure 13
0000
2000
3000
0200
,  // measure 14
0300
0000
0010
0010
0010
0000
0001
0000
,  // measure 15
0001
1000
0010
0100
,  // measure 16
0001
0010
0100
2000
,  // measure 17
3000
0001
0100
0010
,  // measure 18
1000
0002
0003
2000
,  // measure 19
3000
0001
0010
0100
,  // measure 20
1000
2000
3000
0002
,  // measure 21
0003
0000
1000
1000
1000
0000
0010
0000
,  // measure 22
1000
0002
0003
0200
,  // measure 23
0300
0000
0001
0001
0001
0000
0100
0000
,  // measure 24
0001
2000
3000
0020
,  // measure 25
0030
1000
0001
0100
,  // measure 26
0000
0010
1000
0001
,  // measure 27
0001
1000
0100
0010
,  // measure 28
0000
0001
0010
0100
,  // measure 29
0000
0020
0030
0002
,  // measure 30
0003
0000
0010
0010
0010
0000
0001
0000
,  // measure 31
1000
0001
0100
0010
,  // measure 32
1000
0001
1000
0020
,  // measure 33
0030
1001
0100
1000
,  // measure 34
0001
0010
0001
1000
,  // measure 35
1000
1001
0010
0001
,  // measure 36
1000
0100
1000
0001
,  // measure 37
0001
0000
1000
1000
1000
0000
0001
0000
,  // measure 38
0010
0220
0330
2002
,  // measure 39
3003
0000
0001
0001
0001
0000
1000
0000
,  // measure 40
0100
0220
0330
2002
,  // measure 41
3003
0000
1000
0000
0010
0000
1000
1000
,  // measure 42
0010
0200
0300
0020
,  // measure 43
0030
0000
0001
0000
0100
0000
0001
0001
,  // measure 44
0100
0020
0030
0200
,  // measure 45
0300
0000
0002
0000
0000
1000
1003
0000
,  // measure 46
0001
0020
0030
0200
,  // measure 47
0300
0000
2000
0000
0000
0001
3001
0000
,  // measure 48
1000
0020
0030
0200
,  // measure 49
0300
0000
0001
0000
0010
0010
0001
0000
,  // measure 50
0010
0002
0003
0020
,  // measure 51
0030
0000
1000
0000
0100
0100
1000
0000
,  // measure 52
0100
2000
3000
0200
,  // measure 53
0300
0000
1000
1000
0100
0000
0010
0000
,  // measure 54
0001
0001
1000
1000
,  // measure 55
0001
0000
0001
0001
0010
0000
0100
0000
,  // measure 56
1000
0010
0100
0100
,  // measure 57
0010
0000
1000
1000
0010
0010
1000
0000
,  // measure 58
0001
1000
0100
0010
,  // measure 59
0001
1001
0000
0000
;

//---------------dance-single - ----------------
#NOTES:
     dance-single:
     :
     Challenge:
     13:
     0.374351,0.555694,0.168187,0.412329,0.439456,483.000000,452.000000,31.000000,76.000000,0.000000,0.000000,0.374351,0.555694,0.168187,0.412329,0.439456,483.000000,452.000000,31.000000,76.000000,0.000000,0.000000:
// measure 0
0000
0000
0000
0000
,  // measure 1
0000
0000
0000
0000
,  // measure 2
0000
0000
0000
0000
,  // measure 3
0000
0000
0000
0000
,  // measure 4
0000
0000
0000
0000
,  // measure 5
0000
0000
0000
0000
2000
0000
0000
0000
3001
0000
0100
0020
0000
0000
0030
0000
,  // measure 6
0000
0000
1000
0000
0020
0000
0000
0000
0230
0000
0000
0000
0301
0010
1000
0000
,  // measure 7
0000
0000
0000
2000
0000
0000
3020
0000
0000
0031
0010
0100
,  // measure 8
0000
0000
0000
0000
1000
0000
0000
0001
1000
0000
0000
1000
0002
0000
0000
0000
,  // measure 9
0003
0000
0000
0000
2000
0000
0000
0000
3010
0000
0100
0001
0000
0000
0000
0000
,  // measure 10
0000
0000
0001
0000
0200
0000
0000
0000
0310
0000
0000
0000
1000
0000
0010
0100
,  // measure 11
0000
0000
0000
0000
0200
0000
0000
0000
0302
0000
0000
0000
1003
0000
0001
0010
,  // measure 12
0000
0000
0000
0000
0100
0000
0000
1000
0001
0000
0000
0001
2000
0000
0000
0000
,  // measure 13
3000
0002
0100
0023
,  // measure 14
0001
0000
0031
0100
0010
0001
0020
0000
,  // measure 15
0130
0000
0000
0000
0020
0000
1000
2030
0000
0000
3000
0000
0002
0000
0100
0203
,  // measure 16
0000
0000
0300
0000
0010
0000
1000
0200
0000
0000
0310
0000
2002
0000
0000
0000
,  // measure 17
3003
0000
1001
0000
1000
0001
0101
0000
,  // measure 18
0001
1000
0001
1000
0001
1000
0002
0000
0000
0000
0000
0000
0103
0000
0000
0000
0000
0000
0020
0000
0000
0000
0000
0000
,  // measure 19
1030
0001
1000
0001
1000
0001
1000
0000
0000
0000
0000
0000
0010
0000
0000
0100
0000
0000
0220
0000
0000
0330
0000
0000
,  // measure 20
0100
0001
0100
0001
0100
0001
0200
0000
0000
0000
0000
0000
0301
0000
0000
0000
0000
0000
0020
0000
0000
0000
0000
0000
,  // measure 21
1030
0010
1000
0010
1000
0010
1000
0000
0000
1001
0000
0000
0001
0000
0000
0101
0000
0000
0020
0000
0000
0000
0000
0000
,  // measure 22
0130
0001
0100
0001
0100
0001
0200
0000
0000
0000
0000
0000
0301
0000
0000
0000
0000
0000
2000
0000
0000
0000
0000
0000
,  // measure 23
3010
0100
0010
0100
0010
0100
0010
0000
0000
1000
0000
0000
0001
0000
0000
0010
0000
0000
0110
0000
0000
0000
0000
0000
,  // measure 24
0100
1000
0100
1000
0100
1000
0200
0000
0000
0000
0000
0000
0310
0000
0000
0000
0000
0000
0002
0000
0000
0000
0000
0000
,  // measure 25
1003
0000
0001
0000
1000
0000
0001
0000
1000
0000
0001
0000
2000
0000
0000
0000
0000
0000
0000
0000
0000
0000
0000
0000
3010
0000
0000
0000
0000
0000
0100
0000
0000
0001
0000
0000
0000
0000
0000
0000
0000
0000
0000
0000
0000
0000
0000
0000
,  // measure 26
0000
0000
0010
0000
0020
0000
0000
0000
0130
0000
0000
0000
1000
0000
0010
0100
,  // measure 27
0000
0000
0000
0000
0002
0000
0000
0000
0023
0000
0000
0000
0130
0000
1000
0010
,  // measure 28
0000
0000
0000
0000
1000
0000
0000
0001
0100
0000
0000
0010
2000
0000
0000
0000
,  // measure 29
3000
0002
0000
0203
,  // measure 30
0000
0000
0310
0100
1000
0100
2020
3030
,  // measure 31
2002
0000
3003
0000
0001
0000
0100
0010
0000
0000
0000
0000
1000
0000
0100
0010
,  // measure 32
0000
0000
0000
0000
0001
0000
0100
0020
0000
0000
1030
0000
2002
0000
0000
0000
,  // measure 33
0000
0000
0000
3003
0000
0000
1001
0000
0000
0000
0000
0000
0100
0000
0000
0010
0001
0010
0001
0000
0000
1000
0000
0000
,  // measure 34
0100
1000
0100
1000
0100
1000
1100
0000
0000
0000
0000
0000
0010
0000
0000
0001
1000
0001
1000
0000
0000
0010
0000
0000
,  // measure 35
0100
0001
0100
0001
0100
0001
0101
0000
0000
0000
0000
0000
0010
0000
0000
1000
0100
1000
0100
0000
0000
0010
0000
0000
,  // measure 36
0001
0010
0001
0010
0001
0010
0011
0000
0000
0000
0000
0000
0001
0000
0000
0100
0010
0100
0010
0000
0000
1000
0000
0000
,  // measure 37
0001
1000
0001
1000
0001
1000
1001
0000
0000
0001
0000
0000
0010
0000
0000
0100
1000
0100
1000
0000
0000
0010
0000
0000
,  // measure 38
0100
0001
0100
0001
0100
0001
0102
0000
0000
0000
0000
0000
1003
0000
0000
0010
0000
0000
2010
0000
0000
0000
0000
0000
,  // measure 39
3001
0010
0100
1000
0100
0010
0002
0000
0000
0103
0000
0000
0200
0000
0000
0310
1000
0010
1000
0000
0000
0100
0000
0000
,  // measure 40
0010
0001
0010
0100
1000
0001
2001
0000
0000
0000
0000
0000
3100
0000
0000
0010
0000
0000
2001
0000
0000
0000
0000
0000
,  // measure 41
3001
0000
0010
0000
0100
0000
1000
0000
0100
0000
0010
0000
0002
0000
0000
0000
0000
0000
0000
0000
0000
0000
0000
0000
0103
0000
0000
0000
0000
0000
0000
0000
0000
0100
0000
0000
0010
0000
0000
0000
0000
0000
1000
0000
0000
0000
0000
0000
,  // measure 42
0001
0000
0010
0000
0200
0000
0000
0000
0000
0000
1300
0001
1000
0000
0000
0000
,  // measure 43
0001
0010
0100
1000
2000
0000
0000
0000
3100
0000
0000
0100
0010
0000
0001
0000
,  // measure 44
1000
0010
0200
0000
0000
0301
0001
0000
,  // measure 45
1001
0000
0002
0000
0000
0013
0200
0000
,  // measure 46
0320
0032
0000
2000
,  // measure 47
0000
3003
2000
0000
0000
3010
0200
0000
,  // measure 48
0320
0000
2030
0000
0000
3100
0020
0000
,  // measure 49
0030
0000
0000
0000
0000
0000
0011
0000
0000
0000
0000
0000
0001
0000
0000
1000
0100
1000
0200
0000
0000
0010
0000
0000
,  // measure 50
1300
0100
1000
0100
0010
0001
0011
0000
0000
0000
0000
0000
0001
0000
0000
0100
0010
0100
0020
0000
0000
1000
0000
0000
,  // measure 51
0130
0010
0100
0010
1000
0001
0101
0000
0000
0000
0000
0000
0100
0000
0000
0001
0010
0001
0020
0000
0000
0100
0000
0000
,  // measure 52
0031
0010
0001
0010
0100
1000
1200
0000
0000
0000
0000
0000
1300
0000
0000
0001
0000
1000
0001
0000
0000
1000
0000
0000
,  // measure 53
0010
1000
0001
0010
0100
1000
1010
0000
0000
1000
0000
0000
0001
0000
0000
0010
0001
0010
0002
0000
0000
0100
0000
0000
,  // measure 54
0013
0001
0010
0001
1000
0100
0110
0000
0000
0000
0000
0000
1000
0000
0000
0001
0000
0000
0001
0000
0000
0010
0000
0000
,  // measure 55
0001
0100
0010
1000
0010
0100
0101
0000
0000
0010
0000
0000
1000
0000
0000
0001
0010
0100
2000
0000
0000
0100
0000
0000
,  // measure 56
3001
0010
0100
1000
0010
0100
0101
0000
0000
1000
0000
1000
0100
0000
0000
0010
0000
0010
0001
0000
0000
1000
0000
0000
,  // measure 57
0010
0100
0001
0010
0100
1000
1010
0000
0000
0100
0000
0000
0001
0000
0000
1000
0100
0010
0002
0000
0000
0100
0000
0000
,  // measure 58
1003
0100
0010
0001
0100
0010
0110
0000
0000
0010
0000
0010
1000
0000
0000
0001
0000
0001
0100
0000
0000
0001
0010
0100
,  // measure 59
1000
0100
0010
0001
1000
0001
2002
0000
0000
0000
0000
0000
0000
0000
0000
0000
0000
0000
0000
0000
0000
0000
0000
0000
,  // measure 60
0000
3003
0000
0000
;
