#VERSION:0.83;
#TITLE:Afrodita;
#SUBTITLE:;
#ARTIST:Pascu y Rodri;
#TITLETRANSLIT:;
#SUBTITLETRANSLIT:;
#ARTISTTRANSLIT:;
#GENRE:;
#ORIGIN:;
#CREDIT:;
#BANNER:Afrodita-bn.jpg;
#BACKGROUND:Afrodita-bg.png;
#PREVIEWVID:;
#JACKET:Afrodita-jacket.jpg;
#CDIMAGE:;
#DISCIMAGE:;
#LYRICSPATH:;
#CDTITLE:cdtitle_ukiarrow.png;
#MUSIC:Afrodita.mp3;
#OFFSET:0.100000;
#SAMPLESTART:34.107914;
#SAMPLELENGTH:12.000000;
#SELECTABLE:YES;
#BPMS:0.000=142.000;
#STOPS:57.000=0.211,
57.250=0.211,
57.500=0.106,
57.750=0.317,
59.000=0.211,
59.250=0.211,
59.500=0.106,
59.750=0.106,
60.000=0.106,
60.250=0.106,
73.000=0.211,
73.250=0.211,
73.500=0.106,
73.750=0.106,
74.000=0.106,
74.250=0.106,
123.000=0.211,
123.250=0.211,
123.500=0.106,
123.750=0.317,
125.000=0.211,
125.250=0.211,
125.500=0.106,
125.750=0.106,
126.000=0.106,
126.250=0.106,
127.000=0.211,
127.250=0.211,
127.500=0.106,
127.750=0.317,
129.000=0.211,
129.250=0.211,
129.500=0.106,
129.750=0.106,
130.000=0.106,
130.250=0.106,
171.000=0.211,
171.250=0.211,
171.500=0.106,
171.750=0.317,
173.000=0.211,
173.250=0.211,
173.500=0.106,
173.750=0.106,
174.000=0.106,
174.250=0.106,
187.000=0.211,
187.250=0.211,
187.500=0.106,
188.750=0.106,
317.500=0.211,
317.750=0.211,
318.000=0.106,
318.250=0.317,
319.500=0.211,
319.750=0.211,
320.000=0.106,
320.250=0.106,
320.500=0.106,
320.750=0.106,
321.500=0.211,
321.750=0.211,
322.000=0.106,
322.250=0.317,
322.500=0.106,
323.250=0.211,
323.500=0.211,
323.750=0.106;
#DELAYS:;
#WARPS:;
#TIMESIGNATURES:0.000=4=4;
#TICKCOUNTS:0.000=4;
#COMBOS:0.000=1;
#SPEEDS:0.000=1.000=0.000=0;
#SCROLLS:0.000=1.000,
57.000=2.000,
58.000=1.000,
59.000=2.000,
60.250=1.000,
73.000=2.000,
74.250=1.500,
75.000=1.000,
123.000=2.000,
124.000=1.000,
125.000=2.000,
126.250=1.000,
127.000=2.000,
128.000=1.000,
129.000=2.000,
130.250=1.000,
171.000=2.000,
172.000=1.000,
173.000=2.000,
174.250=1.000,
187.000=2.000,
187.750=1.000,
188.750=4.000,
189.500=1.000,
317.500=2.000,
318.500=1.000,
319.500=2.000,
320.750=1.000,
321.500=2.000,
322.500=1.000,
323.250=2.000,
323.750=1.000;
#FAKES:;
#LABELS:0.000=Song Start;
#BGCHANGES:0.250=Afrodita.mp4=1.000=0=0=1=====,
326.000=Afrodita-bg.png=1.000=0=0=1=====,
99999=-nosongbg-=1.000=0=0=0 // don't automatically add -songbackground-
;
#KEYSOUNDS:;
#ATTACKS:
;

//---------------dance-single - ----------------
#NOTEDATA:;
#CHARTNAME:;
#STEPSTYPE:dance-single;
#DESCRIPTION:;
#CHARTSTYLE:;
#DIFFICULTY:Hard;
#METER:15;
#RADARVALUES:0.678790,1.117976,0.831016,0.388701,0.495929,709.000000,585.000000,124.000000,58.000000,0.000000,3.000000,0.000000,0.000000,0.000000,0.678790,1.117976,0.831016,0.388701,0.495929,709.000000,585.000000,124.000000,58.000000,0.000000,3.000000,0.000000,0.000000,0.000000;
#CREDIT:;
#NOTES:
// measure 0
0000
0000
0000
0000
,  // measure 1
0000
0000
0000
0000
,  // measure 2
0000
0000
0000
0000
,  // measure 3
0000
0000
0000
0000
,  // measure 4
0000
0000
1000
0001
1000
0001
0200
0000
,  // measure 5
0310
0000
1000
0100
1000
0100
0020
0000
,  // measure 6
0031
0000
0100
0001
0100
0001
2000
0000
,  // measure 7
3010
0000
0100
0010
0100
0010
2000
0000
,  // measure 8
3001
0000
0000
0000
0010
0000
0100
0000
1000
0000
0001
0000
0100
0000
0000
0100
,  // measure 9
0010
0000
0000
0000
1000
0000
0001
0000
0100
0000
0001
0000
0010
0000
0000
0010
,  // measure 10
0100
0000
0000
0000
1000
0000
0001
0000
0100
0000
0010
0000
0100
0000
0000
0100
,  // measure 11
0001
0000
0000
0000
0001
0000
1000
0000
0100
0000
1000
0000
0010
0000
0000
0010
,  // measure 12
1000
0000
0000
0000
0001
0100
0010
0100
0001
1000
0100
1000
0002
0000
0023
0000
,  // measure 13
0230
0000
2300
0000
3001
0100
0010
0100
0001
0000
1000
0100
0020
0000
0032
0000
,  // measure 14
2003
0000
3200
0000
0311
0011
0011
0001
1001
0000
0000
0000
1010
1010
1010
1000
,  // measure 15
0001
1001
0000
0000
1000
0001
0100
0001
1000
0010
0100
0010
2000
0000
3200
0000
,  // measure 16
0320
0000
0032
0000
0103
0010
1000
0010
0100
0001
1000
0001
0200
0000
0320
0000
,  // measure 17
2030
0000
3002
0000
0113
0000
0000
0110
0000
0000
0110
0000
1000
0000
0000
0000
,  // measure 18
1001
0000
0000
0000
0110
1001
0110
1001
0100
2002
3003
0000
1100
0000
0000
0000
,  // measure 19
0011
0000
0101
0000
1010
0000
0001
0010
,  // measure 20
1000
0010
0001
0100
1000
0100
0101
0000
,  // measure 21
1010
0000
0000
0000
1100
0000
0000
0000
0011
0000
0001
0000
1000
0000
0010
0002
,  // measure 22
0000
0013
1000
0001
1001
0000
1100
0000
,  // measure 23
1010
0000
0101
0000
0011
0000
1000
0100
,  // measure 24
0010
1000
0001
0100
0010
0001
0011
0000
,  // measure 25
1010
0000
0000
0000
1100
0000
0000
0000
0101
0000
0000
0000
0001
0000
0000
0010
,  // measure 26
0000
0000
0100
0000
1000
0000
0000
0000
2002
0000
3003
0000
0001
0100
0000
0010
,  // measure 27
0000
0100
0010
0000
1000
0000
0010
0000
1000
0010
0000
0100
0000
0010
0100
0000
,  // measure 28
0001
0000
0100
0001
1000
0001
1000
0000
1001
0000
0000
0000
1000
0010
0000
0100
,  // measure 29
0000
0010
0100
0000
0001
0000
0100
0000
0001
0100
0000
0010
0000
0100
0010
0000
,  // measure 30
1000
0000
0010
1000
0001
1000
0001
0000
1001
0000
0000
0000
1100
1100
0110
0011
,  // measure 31
1001
0000
0000
0000
0101
0101
0110
1000
0001
1001
0000
0000
1100
1100
0110
0011
,  // measure 32
1001
0000
0000
0000
0101
0101
0110
1000
0001
1001
0000
0000
1000
0000
0000
0001
,  // measure 33
0000
0000
1000
0000
0020
0000
0000
0000
0130
0000
0000
0000
0010
0000
0000
0100
,  // measure 34
0000
0000
0010
0000
1000
0000
0001
0000
2000
0000
0000
0000
3001
0000
0000
0100
,  // measure 35
0000
0000
0010
0000
2000
0000
0000
0000
3001
0000
0000
0000
1000
0000
0000
0100
,  // measure 36
0000
0010
0001
1000
0002
0000
1003
0100
,  // measure 37
0010
0001
0200
0000
0310
0000
0100
0001
,  // measure 38
0010
0100
2000
0000
3001
0000
0100
0001
,  // measure 39
0100
0010
2000
0000
3010
0000
0100
0001
,  // measure 40
1000
0000
0010
0000
0200
0000
0000
0000
0301
0000
0000
0000
1000
0100
0000
1000
,  // measure 41
0001
1000
0010
0100
0002
0000
0023
0000
0230
0000
2300
0000
3001
0100
0010
1000
,  // measure 42
0001
0010
0100
1000
0020
0000
2030
0000
3002
0000
0203
0000
1301
1001
1100
0110
,  // measure 43
1001
0000
0000
0000
0101
0101
0110
1000
0100
1001
0000
0000
1000
0100
0010
0001
,  // measure 44
0010
0100
1000
0001
0200
0000
0320
0000
2030
0000
3002
0000
0103
0001
1000
0010
,  // measure 45
1000
0001
0100
0001
2000
0000
3200
0000
0320
0000
0000
0000
0031
0010
0000
0001
,  // measure 46
0010
0000
0100
0000
1000
0000
0000
0000
1001
0000
0000
0000
1010
0110
0101
1000
,  // measure 47
0000
0001
0000
2002
3003
0000
1100
0000
0000
0000
1010
0000
0000
0000
0101
0000
,  // measure 48
0000
0011
0000
1000
0010
0001
0100
0010
,  // measure 49
1000
0100
0010
0011
0000
1010
0000
0101
,  // measure 50
0000
0000
1100
0000
0001
0000
0100
0000
1000
0010
0000
0000
0100
0000
0001
0000
,  // measure 51
0020
0100
0030
0110
0000
1100
0000
0011
,  // measure 52
0000
0101
0000
0100
0001
0010
0001
0100
,  // measure 53
1000
0001
1000
1100
0000
0101
0000
0011
,  // measure 54
0000
0000
1010
0000
0000
0000
0010
0000
0000
0001
0000
0000
1000
0000
0010
0000
,  // measure 55
0000
0000
1001
0000
0000
0000
0001
0100
0000
0010
0000
0100
0010
0000
1000
0000
,  // measure 56
0010
0000
1000
0010
0000
0100
0000
0010
0100
0000
0001
0000
0100
0001
0100
0001
,  // measure 57
1000
0000
1001
0000
0000
0000
1000
0010
0000
0100
0000
0010
0100
0000
0001
0000
,  // measure 58
0100
0000
0001
0100
0000
0010
0000
0100
0010
0000
1000
0000
0010
1000
0001
1000
,  // measure 59
0010
0000
1001
0000
0000
0000
1000
0000
0000
0100
0000
0000
0100
0000
0010
0000
,  // measure 60
0000
0001
0000
0000
0001
0000
1000
0000
0100
0000
0001
0000
0100
0000
1000
0000
,  // measure 61
0000
1000
0000
0000
0000
0000
1001
0000
0000
0001
0000
0000
0100
0000
1000
0000
,  // measure 62
0000
1000
0000
0000
0100
0000
0001
0000
0010
0000
0100
0000
1000
0000
0001
0000
,  // measure 63
0000
0001
0000
0000
0000
0000
1000
0000
0000
1000
0000
0000
0001
0000
0001
0000
,  // measure 64
0000
0001
0000
0000
0100
0000
0010
0000
0100
0000
0010
0000
1000
0000
0001
0000
,  // measure 65
0000
1001
0000
0000
0000
0000
1000
0000
0000
1000
0100
0000
0010
0000
0001
0000
,  // measure 66
0100
0000
0010
0000
1000
0000
0001
0010
0100
1000
0010
0100
0001
1000
0200
0000
,  // measure 67
0000
0300
0000
0110
0000
0011
0000
0110
,  // measure 68
0000
1100
0000
0100
1000
0010
0001
0010
,  // measure 69
1000
0100
0001
0101
0000
1100
0000
1010
,  // measure 70
0000
0000
0011
0000
0001
0000
0010
0000
1000
0100
0000
0000
0100
0000
0001
0000
,  // measure 71
0020
0000
0030
0110
0000
1001
0000
1001
,  // measure 72
0000
0110
0000
1000
0100
0010
0001
0001
,  // measure 73
0010
0100
1000
1010
0000
0011
0000
0101
,  // measure 74
0000
0000
1100
0000
0000
0000
0001
0000
0100
0001
0000
1000
0010
0000
1000
0000
,  // measure 75
0000
0000
2002
0000
3003
0000
1000
0100
0000
0010
0000
0001
0100
0000
0010
0000
,  // measure 76
0010
0000
1000
0100
0000
0010
0000
0001
0100
0000
0010
0000
0010
1000
0100
0010
,  // measure 77
0001
0000
1001
0000
0000
0000
0100
0001
0000
0010
0000
0100
1000
0000
0010
0000
,  // measure 78
0010
0000
0100
0001
0000
0010
0000
0100
1000
0000
0010
0000
0100
0010
1000
0100
,  // measure 79
0010
0001
1000
0000
0000
0000
1100
0101
0011
1010
1001
0000
0000
0000
0101
1100
,  // measure 80
1010
0011
1000
0001
0000
0000
0011
1010
0011
1000
1001
0000
0000
1100
0101
1100
,  // measure 81
0020
0032
2003
3000
0000
0000
0000
0000
;

//---------------dance-single - ----------------
#NOTEDATA:;
#CHARTNAME:;
#STEPSTYPE:dance-single;
#DESCRIPTION:;
#CHARTSTYLE:;
#DIFFICULTY:Medium;
#METER:11;
#RADARVALUES:0.554330,0.736228,0.583051,0.435613,0.197701,579.000000,492.000000,87.000000,65.000000,0.000000,0.000000,0.000000,0.000000,0.000000,0.554330,0.736228,0.583051,0.435613,0.197701,579.000000,492.000000,87.000000,65.000000,0.000000,0.000000,0.000000,0.000000,0.000000;
#CREDIT:;
#NOTES:
0000
0000
0000
0000
,
0000
0000
0000
0000
,
0000
0000
0000
0000
,
0000
0000
0000
0000
,
0000
0000
1000
0001
0100
0010
0200
0000
,
0301
0000
1000
0100
0010
0100
2000
0000
,
3001
0000
0100
0001
0100
0010
2000
0000
,
3001
0000
0100
0010
1000
0001
2000
0000
,
3100
0000
0010
0100
1000
0010
0200
0000
,
0310
0000
1000
0001
0100
0001
2000
0000
,
3100
0000
1000
0001
0100
0010
0200
0000
,
0301
0000
0010
0100
1000
0100
0020
0000
,
0031
0000
0001
0010
0100
1000
2200
3300
,
0022
0033
0001
0100
0010
0100
0220
0330
,
2002
0000
3003
0000
0001
0001
0001
1000
1001
0000
0000
0000
0010
0010
0010
1000
,
0001
1001
0000
0000
1000
0000
0001
0000
0100
0000
0001
0000
0022
0000
0033
0000
,
2200
3300
0100
0010
0001
1000
2020
3030
,
0202
0000
0303
0000
0100
0000
0000
0100
0000
0000
0100
0000
0001
0000
0000
0000
,
1001
0000
0000
0000
1000
0100
0010
0001
1000
2002
3003
0000
1100
0000
0000
0000
,
0011
0000
1100
0000
0011
0000
0001
0010
,
0100
1000
0100
0010
0001
1000
1010
0000
,
0101
0000
0000
0000
1010
0000
0000
0000
0101
0000
0000
0000
1000
0000
0000
0010
,
0000
0100
0001
2002
3003
0000
1100
0000
,
1010
0000
0101
0000
0011
0000
1000
0100
,
0010
0001
0001
0100
0010
1000
1001
0000
,
0110
0000
0000
0000
0110
0000
0000
0000
1001
0000
0000
0000
0001
0000
0000
0010
,
0000
0100
1000
0000
2002
3003
0001
0100
,
0010
0100
0010
1000
0010
0100
0010
0100
,
0001
1000
0001
1000
1001
0000
1000
0010
,
0100
0010
0100
0001
0100
0001
1000
0001
,
1000
0000
0010
0000
1000
0000
0001
0000
1001
0000
0000
0000
1000
1000
0100
0010
,
1001
0000
0000
0000
0001
0001
0100
0010
1000
1001
0000
0000
1000
1000
0100
0010
,
1001
0000
0000
0000
0001
0001
0100
0010
1000
1001
0000
0000
1000
0000
0000
1000
,
0000
0000
1000
0000
0020
0000
0000
0000
0130
0000
0000
0000
0010
0000
0000
0010
,
0000
0000
0010
0000
2000
0000
0000
0000
3001
0000
0000
0000
0100
0000
0000
0100
,
0000
0000
0100
0000
0020
0000
0000
0000
1030
0000
0000
0000
0001
0000
0000
0001
,
0000
0001
2000
0000
3100
0000
1000
0100
,
0010
0001
0200
0000
0310
0000
0100
0001
,
0010
0100
2000
0000
3001
0000
0100
0001
,
0100
0010
2000
0000
3010
0000
0100
0001
,
1000
0010
0200
0000
0301
0000
1000
0100
,
1000
0010
2020
3030
0202
0303
0001
1000
,
0100
0000
0010
0000
0220
0000
0330
0000
2002
0000
3003
0000
0001
0001
0100
0010
,
1001
0000
0000
0000
1000
1000
0100
0010
0001
1001
0000
0000
1000
0000
0100
0000
,
0010
0001
0022
0033
2200
3300
1000
0010
,
0100
0000
0001
0000
2002
0000
3003
0000
0220
0000
0330
0000
1000
0000
0000
1000
,
0000
0000
1000
0000
0100
0000
0000
0000
1001
0000
0000
0000
0001
0100
0010
1000
,
0000
0001
0000
2002
3003
0000
1000
0000
0000
0000
1010
0000
0000
0000
0001
0000
,
0000
0011
0000
1000
0010
0001
0010
1000
,
0010
0001
0010
1000
0000
1100
0000
0001
,
0000
0000
0101
0000
0000
0000
0100
0000
0000
0010
0000
0000
1000
0000
0001
0000
,
2002
3003
0000
0110
0000
1100
0000
0110
,
0000
0011
0000
0001
0010
0100
1000
0100
,
0010
0001
1000
1001
0000
1010
0000
1001
,
0000
0000
0101
0000
0000
0000
0010
0000
0000
1000
0000
0000
0100
0000
0010
0000
,
0000
1001
0000
0001
0100
0010
0100
0010
,
1000
0010
1000
0010
0100
0001
0100
0001
,
1000
1001
0000
1000
0100
0010
0100
0010
,
0001
0010
0100
0010
0100
1000
0100
1000
,
0001
0000
1001
0000
0000
0000
1000
0000
0000
1000
0000
0000
0100
0000
0010
0000
,
0000
0010
0000
0000
0001
0000
1000
0000
0100
0000
0010
0000
0001
0000
0100
0000
,
0000
0100
0000
0000
0000
0000
0001
0000
0000
0100
0000
0000
0010
0000
1000
0000
,
0000
0010
0000
0000
0100
0000
0001
0000
0010
0000
0100
0000
1000
0000
0001
0000
,
0000
0001
0000
0000
0000
0000
1000
0000
0000
0100
0000
0000
0010
0000
0001
0000
,
0000
0100
0000
0000
0010
0000
0100
0000
0010
0000
0100
0000
0001
0000
1000
0000
,
0000
1000
0000
0000
0000
0000
0001
0000
0000
0001
0000
0000
0100
0000
0010
0000
,
0000
0010
0000
0000
1000
0000
0001
0000
0010
0000
0100
0000
1000
0000
2002
0000
,
0000
3003
0000
1001
0000
1100
0000
1001
,
0000
0011
0000
0100
1000
0001
0010
0010
,
0001
1000
0100
0110
0000
1001
0000
1010
,
0000
0000
0101
0000
0000
0000
0010
0000
0000
1000
0000
0000
1000
0000
0001
0000
,
0010
0100
0000
0110
0000
1010
0000
0110
,
0000
0101
0000
1000
0100
0010
0001
0001
,
0010
0100
1000
1100
0000
0011
0000
0101
,
0000
0000
1010
0000
0000
0000
0001
0000
0000
0100
0000
0000
0010
0000
1000
0000
,
0000
2002
3003
1000
0100
0010
0100
0010
,
0001
0010
0100
0010
0100
1000
0100
1000
,
0001
1001
0000
0100
0001
0100
0010
1000
,
0010
1000
0001
1000
0010
0100
0010
0100
,
0001
0000
1001
0000
0000
0000
1000
0001
1000
0001
1001
0000
0000
0000
0010
0100
,
0010
1000
0001
1001
0000
0000
0001
0010
0001
1000
1001
0000
0000
1000
0100
1000
,
0002
0023
0230
0300
0000
0000
0000
0000
;

//---------------dance-single - ----------------
#NOTEDATA:;
#CHARTNAME:;
#STEPSTYPE:dance-single;
#DESCRIPTION:;
#CHARTSTYLE:;
#DIFFICULTY:Easy;
#METER:6;
#RADARVALUES:0.399232,0.462839,0.288175,0.254666,0.097175,417.000000,374.000000,43.000000,38.000000,0.000000,0.000000,0.000000,0.000000,0.000000,0.399232,0.462839,0.288175,0.254666,0.097175,417.000000,374.000000,43.000000,38.000000,0.000000,0.000000,0.000000,0.000000,0.000000;
#CREDIT:;
#NOTES:
0000
0000
0000
0000
,
0000
0000
0000
0000
,
0000
0000
0000
0000
,
0000
0000
0000
0000
,
0000
0000
0001
0000
1000
0000
0010
0100
,
0010
0000
1000
0000
0010
0100
0010
0000
,
0100
0000
0001
0000
1000
0000
0100
0010
,
0100
0000
1000
0000
0100
0010
0100
0000
,
1000
0000
0001
0000
0010
0000
0100
1000
,
0100
0000
1000
0000
0010
1000
0010
0000
,
0100
0000
0001
0000
1000
0000
0010
0100
,
0010
0000
1000
0000
0100
0010
0100
0000
,
0010
0000
0001
1000
0001
0000
1001
0000
,
1001
0000
1000
0010
1000
0000
1010
0000
,
1010
0000
0000
0000
1000
0001
1000
0002
0003
0000
0000
0000
0001
1000
0001
2000
,
0000
3000
0000
0000
0001
0000
0100
0000
0001
0000
0000
0000
0101
0000
0000
0000
,
0101
0000
0010
0100
0010
0000
0110
0000
,
0110
2000
3001
0002
,
1003
0000
0000
0000
0010
0100
0010
0200
0000
0300
0000
0000
0001
0000
0000
0000
,
0100
0000
0010
0000
1000
0000
0001
0100
,
0001
0100
0001
0100
0001
0000
1000
0000
,
0100
0010
0001
1100
,
1100
0022
0033
0001
,
0010
0000
0100
0000
1000
0000
0010
1000
,
0010
1000
0010
1000
0010
0000
1000
0000
,
0010
0100
0001
0101
,
0110
0000
1010
0000
1001
0000
1000
0100
,
1000
0000
0100
0000
0010
0000
0001
0010
,
0001
0000
2000
0000
3000
0000
0001
0100
,
0001
0000
0100
0000
0010
0000
1000
0010
,
1000
0000
0000
0000
0002
0000
0000
0000
0003
0000
0000
0000
1000
0001
1000
0002
,
0000
0003
0000
0000
0001
1000
0001
2000
0000
3000
0000
0000
1000
0001
1000
0002
,
0003
0000
0000
0000
0001
1000
0001
2000
0000
3000
0000
0000
0001
0000
0000
0000
,
0001
0000
0002
0000
0003
0000
0100
0010
,
0100
0200
0300
0010
,
0010
0000
0020
0000
0030
0000
1000
0001
,
1000
2000
3000
1000
,
0100
0000
0010
0100
0010
0000
0001
0000
,
0010
0100
0010
0000
0001
0000
0001
0000
,
1000
0000
0100
0010
0100
0000
1000
0000
,
0100
0010
0100
0000
0010
0000
0001
0010
,
0001
0000
0011
0000
0011
0000
1000
0100
,
1000
0000
0000
0000
1100
0000
0000
0000
1100
0000
0000
0000
0010
0100
0010
0200
,
0300
0000
0000
0000
0010
0100
0010
0200
0000
0300
0000
0000
0001
0000
1000
0000
,
0001
0000
1001
0000
1001
0000
0100
0010
,
0100
0000
0110
0000
0220
0330
0100
0000
,
0100
0000
0000
0000
0100
0000
0000
0000
0100
0000
0000
0000
0001
1000
0001
2000
,
0000
0000
0000
3000
0000
0000
1000
0000
0000
0000
1000
0000
0000
0000
0001
0000
,
0000
0001
0000
0100
0010
0100
0010
0100
,
0010
0100
0000
0001
0000
0001
0000
1000
,
0000
1000
0000
1010
0000
0110
0000
0202
,
0000
0303
0000
0001
0000
0001
0000
1000
,
0000
1000
0000
0001
1000
0001
1000
0001
,
1000
0001
0000
0010
0000
0010
0000
0100
,
0000
0100
0000
1100
0000
0110
0000
0011
,
0000
1001
0000
1000
0100
1000
0000
0010
,
0000
0010
0000
0100
0001
0100
0000
0001
,
0000
1001
0000
1000
0010
1000
0000
0100
,
0000
0100
0000
0010
0001
0010
0000
0001
,
0000
1001
0000
2000
0000
3000
0000
0002
,
0000
0003
0000
0100
0000
0010
0000
0020
,
0000
0030
0000
2000
0000
3000
0000
0002
,
0000
0003
0000
0010
0000
0100
0000
0200
,
0000
0300
0000
1000
0000
0100
0000
1000
,
0000
0000
0000
0001
0000
0100
0000
0001
,
0000
0100
0000
0010
0000
1000
0000
0010
,
0000
1000
0000
0001
0000
0010
0000
0220
,
0000
0330
0000
1000
0000
1100
0000
0001
,
0000
0101
0000
1000
0001
1000
0001
1000
,
0001
1000
0000
0001
0000
0011
0000
1000
,
0000
1010
0000
0001
1000
0001
0000
2002
,
0000
3003
0000
0001
0000
0101
0000
1000
,
0000
1100
0000
0010
0100
0010
0100
0010
,
0100
0010
0000
0001
0000
0011
0000
1000
,
0000
0000
1010
0000
0000
0000
0001
0000
0000
1000
0000
0000
0001
0000
1000
0000
,
0000
1001
0000
1000
0000
0001
0000
0100
,
0010
0100
0000
0001
0000
0010
0100
0010
,
0000
0001
0000
1000
0000
0001
0000
0010
,
0100
0010
0000
0001
0000
0100
0010
0100
,
0000
0000
0010
0000
0000
0000
1000
0001
1000
0002
0003
0000
0000
0000
0001
1000
,
0001
2000
0000
3000
0000
0000
1000
0001
1000
0002
0003
0000
0000
0001
1000
0001
,
2000
3100
0000
0000
;
