#TITLE:Terror to Terror;
#SUBTITLE:;
#ARTIST:sun3;
#TITLETRANSLIT:;
#SUBTITLETRANSLIT:;
#ARTISTTRANSLIT:;
#CREDIT:;
#BANNER:Terror to Terror-bn.PNG;
#BACKGROUND:Terror to Terror-bg.PNG;
#LYRICSPATH:;
#CDTITLE:cooltext595710085-cdtitle.png;
#MUSIC:Terror to Terror.mp3;
#OFFSET:-1.060;
#SAMPLESTART:101.430;
#SAMPLELENGTH:12.000;
#SELECTABLE:YES;
#BPMS:0.000=185.000,62.000=369.999,63.000=739.996,69.000=185.000,96.500=369.999,101.000=185.000,131.000=369.999,133.000=739.995,137.000=185.001,199.000=370.000,200.000=739.995,206.000=185.001,233.500=370.000,238.000=185.001,334.000=493.997,398.000=92.500,430.000=123.500,451.333=185.000,484.000=369.999,489.000=739.996,495.000=185.001,572.000=532.496,575.000=185.001,606.000=532.998,609.000=185.001,626.875=-185.000,642.875=185.001,721.000=369.999,722.000=739.996,728.000=185.001,755.500=369.999,760.000=185.000;
#STOPS:97.500=0.220
,98.000=0.040
,98.250=0.040
,98.500=0.040
,98.750=0.040
,99.000=0.240
,99.500=0.100
,234.500=0.240
,235.000=0.040
,235.250=0.040
,235.500=0.040
,235.750=0.040
,236.000=0.220
,236.500=0.100
,334.000=0.140
,334.667=0.020
,335.000=0.080
,335.667=0.040
,336.000=0.080
,336.667=0.080
,337.333=0.080
,338.000=0.120
,339.000=0.080
,339.667=0.040
,340.000=0.080
,340.667=0.080
,341.333=0.080
,342.000=0.120
,343.000=0.080
,343.667=0.040
,344.000=0.080
,344.667=0.080
,345.333=0.080
,346.000=0.120
,347.000=0.080
,347.667=0.040
,348.000=0.080
,348.667=0.080
,349.333=0.080
,350.000=0.120
,351.000=0.080
,351.667=0.040
,352.000=0.080
,352.667=0.080
,353.333=0.080
,354.000=0.120
,355.000=0.080
,355.667=0.040
,356.000=0.080
,356.667=0.080
,357.333=0.080
,358.000=0.120
,359.000=0.080
,359.667=0.040
,360.000=0.080
,360.667=0.080
,361.333=0.080
,362.000=0.120
,363.000=0.080
,363.667=0.040
,364.000=0.080
,364.667=0.080
,365.167=0.020
,365.333=0.080
,366.000=0.140
,367.000=0.080
,367.667=0.040
,368.000=0.080
,368.667=0.080
,369.333=0.080
,370.000=0.120
,371.000=0.080
,371.667=0.040
,372.000=0.080
,372.667=0.080
,373.333=0.080
,374.000=0.120
,375.000=0.100
,375.667=0.040
,376.000=0.080
,376.667=0.080
,377.333=0.080
,378.000=0.120
,379.000=0.080
,379.667=0.040
,380.000=0.080
,380.667=0.080
,381.333=0.080
,382.000=0.140
,383.000=0.100
,383.667=0.040
,384.000=0.080
,384.667=0.080
,385.333=0.080
,386.000=0.120
,387.000=0.080
,387.667=0.040
,388.000=0.080
,388.667=0.080
,389.333=0.080
,390.000=0.120
,391.000=0.080
,391.667=0.040
,392.000=0.080
,392.667=0.080
,393.333=0.080
,394.000=0.120
,395.000=0.080
,395.667=0.040
,396.000=0.080
,396.667=0.080
,397.333=0.080
,483.333=1.080
,756.500=0.220
,757.000=0.040
,757.250=0.040
,757.500=0.040
,757.750=0.040
,758.000=0.220
,758.500=0.100
;
#BGCHANGES:16.000=BLACK FADE.PNG=0.100=1=0=1,
32.000=WHITE FADE.PNG=1.000=0=0=1,
32.125=yukari.PNG=1.000=1=0=1,
48.000=WHITE FADE.PNG=1.000=0=0=1,
48.125=yukari.PNG=1.000=1=0=1,
52.000=WHITE FADE.PNG=1.000=0=0=1,
52.125=yukari.PNG=1.000=1=0=1,
56.000=WHITE FADE.PNG=1.000=0=0=1,
56.125=yukari.PNG=1.000=1=0=1,
58.000=WHITE FADE.PNG=1.000=0=0=1,
58.125=yukari.PNG=1.000=1=0=1,
60.000=WHITE FADE.PNG=1.000=0=0=1,
60.125=yukari.PNG=1.000=1=0=1,
62.000=WHITE FADE.PNG=1.000=0=0=1,
62.250=Yukari Attack 1.PNG=1.000=0=0=1,
63.000=Yukari Spell 1.PNG=1.000=0=0=1,
63.500=Yukari Attack 1.PNG=1.000=0=0=1,
64.000=Yukari Spell 2.PNG=1.000=0=0=1,
64.500=Yukari Attack 2.PNG=1.000=0=0=1,
65.000=Yukari Spell 3.PNG=1.000=0=0=1,
65.500=Yukari Attack 2.PNG=1.000=0=0=1,
66.000=Yukari Spell 4.PNG=1.000=0=0=1,
66.500=Yukari attack 3.PNG=1.000=0=0=1,
67.000=Yukari Spell 4.PNG=1.000=0=0=1,
67.500=Yukari Attack 4.PNG=1.000=0=0=1,
68.000=Yukari Spell 6a.PNG=1.000=0=0=1,
68.500=Yukari Spell 6b.PNG=1.000=0=0=1,
69.000=WHITE FADE.PNG=1.000=0=0=1,
69.125=Yukari Yakumo.bmp=1.000=1=0=1,
97.250=WHITE FADE.PNG=1.000=0=0=1,
97.500=Yukari Yakumo.bmp=1.000=0=0=1,
101.000=WHITE FADE.PNG=1.000=0=0=1,
101.125=Yukari Yakumo.bmp=1.000=1=0=1,
129.000=WHITE FADE.PNG=1.000=0=0=1,
129.125=Yukari Yakumo.bmp=1.000=0=0=1,
130.000=WHITE FADE.PNG=1.000=0=0=1,
130.125=Yukari Yakumo.bmp=1.000=0=0=1,
131.000=WHITE FADE.PNG=1.000=0=0=1,
131.250=Yukari Yakumo.bmp=1.000=0=0=1,
133.000=WHITE FADE.PNG=1.000=0=0=1,
133.250=Yukari Yakumo.bmp=1.000=0=0=1,
133.500=WHITE FADE.PNG=1.000=0=0=1,
133.750=Yukari Yakumo.bmp=1.000=0=0=1,
134.000=WHITE FADE.PNG=1.000=0=0=1,
134.250=Yukari Yakumo.bmp=1.000=0=0=1,
134.500=WHITE FADE.PNG=1.000=0=0=1,
134.750=Yukari Yakumo.bmp=1.000=0=0=1,
135.000=WHITE FADE.PNG=1.000=0=0=1,
135.250=Yukari Yakumo.bmp=1.000=0=0=1,
135.500=WHITE FADE.PNG=1.000=0=0=1,
135.750=Yukari Yakumo.bmp=1.000=0=0=1,
136.000=WHITE FADE.PNG=1.000=0=0=1,
136.250=Yukari Yakumo.bmp=1.000=0=0=1,
136.500=WHITE FADE.PNG=1.000=0=0=1,
136.750=Yukari Yakumo.bmp=1.000=0=0=1,
137.000=WHITE FADE.PNG=1.000=0=0=1,
137.125=fanart___yukari_yakumo_by_miku0hatsune-d2xjcky.jpg=1.000=1=0=1,
169.000=WHITE FADE.PNG=1.000=0=0=1,
169.125=fanart___yukari_yakumo_by_miku0hatsune-d2xjcky.jpg=1.000=1=0=1,
185.000=WHITE FADE.PNG=1.000=0=0=1,
185.125=fanart___yukari_yakumo_by_miku0hatsune-d2xjcky.jpg=1.000=1=0=1,
189.000=WHITE FADE.PNG=1.000=0=0=1,
189.125=fanart___yukari_yakumo_by_miku0hatsune-d2xjcky.jpg=1.000=1=0=1,
193.000=WHITE FADE.PNG=1.000=0=0=1,
193.125=fanart___yukari_yakumo_by_miku0hatsune-d2xjcky.jpg=1.000=1=0=1,
195.000=WHITE FADE.PNG=1.000=0=0=1,
195.125=fanart___yukari_yakumo_by_miku0hatsune-d2xjcky.jpg=1.000=1=0=1,
197.000=WHITE FADE.PNG=1.000=0=0=1,
197.125=fanart___yukari_yakumo_by_miku0hatsune-d2xjcky.jpg=1.000=1=0=1,
199.000=WHITE FADE.PNG=1.000=0=0=1,
199.250=fanart___yukari_yakumo_by_miku0hatsune-d2xjcky.jpg=1.000=0=0=1,
200.000=WHITE FADE.PNG=1.000=0=0=1,
200.500=fanart___yukari_yakumo_by_miku0hatsune-d2xjcky.jpg=1.000=0=0=1,
201.000=WHITE FADE.PNG=1.000=0=0=1,
201.500=fanart___yukari_yakumo_by_miku0hatsune-d2xjcky.jpg=1.000=0=0=1,
202.000=WHITE FADE.PNG=1.000=0=0=1,
202.500=fanart___yukari_yakumo_by_miku0hatsune-d2xjcky.jpg=1.000=0=0=1,
203.000=WHITE FADE.PNG=1.000=0=0=1,
203.500=fanart___yukari_yakumo_by_miku0hatsune-d2xjcky.jpg=1.000=0=0=1,
204.000=WHITE FADE.PNG=1.000=0=0=1,
204.500=fanart___yukari_yakumo_by_miku0hatsune-d2xjcky.jpg=1.000=0=0=1,
205.000=WHITE FADE.PNG=1.000=0=0=1,
205.500=fanart___yukari_yakumo_by_miku0hatsune-d2xjcky.jpg=1.000=0=0=1,
206.000=WHITE FADE.PNG=1.000=0=0=1,
206.125=Touhou__Yukari_Yakumo_by_Alet_Maon.jpg=1.000=1=0=1,
234.250=WHITE FADE.PNG=1.000=0=0=1,
234.500=Touhou__Yukari_Yakumo_by_Alet_Maon.jpg=1.000=0=0=1,
238.000=WHITE FADE.PNG=1.000=0=0=1,
238.125=Touhou__Yukari_Yakumo_by_Alet_Maon.jpg=1.000=1=0=1,
270.000=WHITE FADE.PNG=1.000=0=0=1,
270.125=Yukari_Yakumo_by_kumatori123.jpg=1.000=0=0=1,
302.000=WHITE FADE.PNG=1.000=0=0=1,
302.125=Yukari_Yakumo_by_kumatori123.jpg=1.000=1=0=1,
318.000=WHITE FADE.PNG=1.000=0=0=1,
318.125=Yukari_Yakumo_by_kumatori123.jpg=1.000=1=0=1,
322.000=WHITE FADE.PNG=1.000=0=0=1,
322.125=Yukari_Yakumo_by_kumatori123.jpg=1.000=1=0=1,
326.000=WHITE FADE.PNG=1.000=0=0=1,
326.125=Yukari_Yakumo_by_kumatori123.jpg=1.000=1=0=1,
328.000=WHITE FADE.PNG=1.000=0=0=1,
328.125=Yukari_Yakumo_by_kumatori123.jpg=1.000=1=0=1,
330.000=WHITE FADE.PNG=1.000=0=0=1,
330.125=Yukari_Yakumo_by_kumatori123.jpg=1.000=1=0=1,
334.000=WHITE FADE.PNG=1.000=0=0=1,
334.167=Flandre Scarlet.bmp=1.000=1=0=1,
338.000=WHITE FADE.PNG=1.000=0=0=1,
338.167=Flandre Scarlet.bmp=1.000=1=0=1,
342.000=WHITE FADE.PNG=1.000=0=0=1,
342.167=Flandre Scarlet.bmp=1.000=1=0=1,
346.000=WHITE FADE.PNG=1.000=0=0=1,
346.167=Flandre Scarlet.bmp=1.000=1=0=1,
350.000=WHITE FADE.PNG=1.000=0=0=1,
350.167=Flandre Scarlet.bmp=1.000=1=0=1,
354.000=WHITE FADE.PNG=1.000=0=0=1,
354.167=Flandre Scarlet.bmp=1.000=1=0=1,
358.000=WHITE FADE.PNG=1.000=0=0=1,
358.167=Flandre Scarlet.bmp=1.000=1=0=1,
362.000=WHITE FADE.PNG=1.000=0=0=1,
362.167=Flandre Scarlet.bmp=1.000=1=0=1,
366.000=WHITE FADE.PNG=1.000=0=0=1,
366.167=Flandre-Scarlet-tohou-15747240-1280-800.jpg=1.000=0=0=1,
370.000=WHITE FADE.PNG=1.000=0=0=1,
370.167=Flandre-Scarlet-tohou-15747240-1280-800.jpg=1.000=1=0=1,
374.000=WHITE FADE.PNG=1.000=0=0=1,
374.167=Flandre-Scarlet-tohou-15747240-1280-800.jpg=1.000=1=0=1,
378.000=WHITE FADE.PNG=1.000=0=0=1,
378.167=Flandre-Scarlet-tohou-15747240-1280-800.jpg=1.000=1=0=1,
382.000=WHITE FADE.PNG=1.000=0=0=1,
382.167=Flandre-Scarlet-tohou-15747240-1280-800.jpg=1.000=1=0=1,
386.000=WHITE FADE.PNG=1.000=0=0=1,
386.167=Flandre-Scarlet-tohou-15747240-1280-800.jpg=1.000=0=0=1,
390.000=WHITE FADE.PNG=1.000=0=0=1,
390.167=Flandre-Scarlet-tohou-15747240-1280-800.jpg=1.000=1=0=1,
394.000=WHITE FADE.PNG=1.000=0=0=1,
394.167=Flandre-Scarlet-tohou-15747240-1280-800.jpg=1.000=1=0=1,
398.000=WHITE FADE.PNG=1.000=0=0=1,
398.063=BLACK FADE.PNG=1.000=1=0=1,
406.000=Reality Compromised.jpg=1.000=1=0=1,
414.000=WHITE FADE.PNG=1.000=0=0=1,
414.250=Reality Compromised.jpg=1.000=0=0=1,
430.000=Sakuya.jpg=1.000=1=0=1,
451.333=WHITE FADE.PNG=1.000=0=0=1,
451.438=Sakuya.jpg=1.000=1=0=1,
458.333=WHITE FADE.PNG=1.000=0=0=1,
458.375=Sakuya.jpg=1.000=1=0=1,
488.000=WHITE FADE.PNG=1.000=0=0=1,
488.500=Sakuya.jpg=1.000=0=0=1,
489.000=WHITE FADE.PNG=1.000=0=0=1,
489.250=Sakuya.jpg=1.000=0=0=1,
489.500=WHITE FADE.PNG=1.000=0=0=1,
489.750=Sakuya.jpg=1.000=0=0=1,
490.000=WHITE FADE.PNG=1.000=0=0=1,
490.250=Sakuya.jpg=1.000=0=0=1,
490.500=WHITE FADE.PNG=1.000=0=0=1,
490.750=Sakuya.jpg=1.000=0=0=1,
491.000=WHITE FADE.PNG=1.000=0=0=1,
491.250=Sakuya.jpg=1.000=0=0=1,
491.500=WHITE FADE.PNG=1.000=0=0=1,
491.750=Sakuya.jpg=1.000=0=0=1,
492.000=WHITE FADE.PNG=1.000=0=0=1,
492.250=Sakuya.jpg=1.000=0=0=1,
492.500=WHITE FADE.PNG=1.000=0=0=1,
492.750=Sakuya.jpg=1.000=0=0=1,
493.000=WHITE FADE.PNG=1.000=0=0=1,
493.250=Sakuya.jpg=1.000=0=0=1,
493.500=WHITE FADE.PNG=1.000=0=0=1,
493.750=Sakuya.jpg=1.000=0=0=1,
494.000=WHITE FADE.PNG=1.000=0=0=1,
494.250=Sakuya.jpg=1.000=0=0=1,
494.500=WHITE FADE.PNG=1.000=0=0=1,
494.750=Sakuya.jpg=1.000=0=0=1,
495.000=WHITE FADE.PNG=1.000=0=0=1,
495.125=sakuya_izayoi_red_eyes.jpg=1.000=1=0=1,
527.000=Touhou_-_Run_Meiling!_Run!!_MMD_{1080p}.avi=1.200=1=0=1,
659.000=WHITE FADE.PNG=1.000=0=0=1,
659.125=Sakuya Insane.jpg=1.000=1=0=1,
691.000=WHITE FADE.PNG=1.000=0=0=1,
691.125=Sakuya Insane.jpg=1.000=1=0=1,
707.000=WHITE FADE.PNG=1.000=0=0=1,
707.125=Sakuya Insane.jpg=1.000=1=0=1,
711.000=WHITE FADE.PNG=1.000=0=0=1,
711.125=Sakuya Insane.jpg=1.000=1=0=1,
715.000=WHITE FADE.PNG=1.000=0=0=1,
715.125=Sakuya Insane.jpg=1.000=1=0=1,
717.000=WHITE FADE.PNG=1.000=0=0=1,
717.125=Sakuya Insane.jpg=1.000=1=0=1,
719.000=WHITE FADE.PNG=1.000=0=0=1,
719.125=Sakuya Insane.jpg=1.000=1=0=1,
721.000=WHITE FADE.PNG=1.000=0=0=1,
721.250=Sakuya Insane.jpg=1.000=0=0=1,
722.000=WHITE FADE.PNG=1.000=0=0=1,
722.250=Sakuya Insane.jpg=1.000=0=0=1,
722.500=WHITE FADE.PNG=1.000=0=0=1,
722.750=Sakuya Insane.jpg=1.000=0=0=1,
723.000=WHITE FADE.PNG=1.000=0=0=1,
723.250=Sakuya Insane.jpg=1.000=0=0=1,
723.500=WHITE FADE.PNG=1.000=0=0=1,
723.750=Sakuya Insane.jpg=1.000=0=0=1,
724.000=WHITE FADE.PNG=1.000=0=0=1,
724.250=Sakuya Insane.jpg=1.000=0=0=1,
724.500=WHITE FADE.PNG=1.000=0=0=1,
724.750=Sakuya Insane.jpg=1.000=0=0=1,
725.000=WHITE FADE.PNG=1.000=0=0=1,
725.250=Sakuya Insane.jpg=1.000=0=0=1,
725.500=WHITE FADE.PNG=1.000=0=0=1,
725.750=Sakuya Insane.jpg=1.000=0=0=1,
726.000=WHITE FADE.PNG=1.000=0=0=1,
726.250=Sakuya Insane.jpg=1.000=0=0=1,
726.500=WHITE FADE.PNG=1.000=0=0=1,
726.750=Sakuya Insane.jpg=1.000=0=0=1,
727.000=WHITE FADE.PNG=1.000=0=0=1,
727.250=Sakuya Insane.jpg=1.000=0=0=1,
727.500=WHITE FADE.PNG=1.000=0=0=1,
727.750=Sakuya Insane.jpg=1.000=0=0=1,
728.000=WHITE FADE.PNG=1.000=0=0=1,
728.125=Discord.jpg=1.000=1=0=1,
756.250=WHITE FADE.PNG=1.000=0=0=1,
756.500=Discord.jpg=1.000=0=0=1,
760.000=WHITE FADE.PNG=1.000=0=0=1,
760.125=Discord.jpg=1.000=1=0=1,
792.000=WHITE FADE.PNG=1.000=0=0=1,
792.125=discord-20227.jpg=1.000=1=0=1,
824.000=WHITE FADE.PNG=1.000=0=0=1,
824.125=discord-20227.jpg=1.000=1=0=1,
840.000=WHITE FADE.PNG=1.000=0=0=1,
840.125=discord-20227.jpg=1.000=1=0=1,
844.000=WHITE FADE.PNG=1.000=0=0=1,
844.125=discord-20227.jpg=1.000=1=0=1,
848.000=WHITE FADE.PNG=1.000=0=0=1,
848.125=discord-20227.jpg=1.000=1=0=1,
850.000=WHITE FADE.PNG=1.000=0=0=1,
850.125=discord-20227.jpg=1.000=1=0=1,
852.000=WHITE FADE.PNG=1.000=0=0=1,
852.125=discord-20227.jpg=1.000=1=0=1,
854.000=WHITE FADE.PNG=1.000=0=0=1,
854.125=discord-20227.jpg=1.000=0=0=1,
854.500=WHITE FADE.PNG=1.000=0=0=1,
854.563=discord-20227.jpg=1.000=0=0=1,
854.625=WHITE FADE.PNG=1.000=0=0=1,
854.688=discord-20227.jpg=1.000=0=0=1,
854.750=WHITE FADE.PNG=1.000=0=0=1,
854.813=discord-20227.jpg=1.000=0=0=1,
854.875=WHITE FADE.PNG=1.000=0=0=1,
854.938=discord-20227.jpg=1.000=0=0=1,
855.000=WHITE FADE.PNG=1.000=0=0=1,
855.063=discord-20227.jpg=1.000=0=0=1,
855.125=WHITE FADE.PNG=1.000=0=0=1,
855.188=discord-20227.jpg=1.000=0=0=1,
855.250=WHITE FADE.PNG=1.000=0=0=1,
855.313=discord-20227.jpg=1.000=0=0=1,
855.375=WHITE FADE.PNG=1.000=0=0=1,
855.438=discord-20227.jpg=1.000=0=0=1,
855.500=WHITE FADE.PNG=1.000=0=0=1,
855.563=discord-20227.jpg=1.000=0=0=1,
855.625=WHITE FADE.PNG=1.000=0=0=1,
855.688=discord-20227.jpg=1.000=0=0=1,
855.750=WHITE FADE.PNG=1.000=0=0=1,
855.813=discord-20227.jpg=1.000=0=0=1,
855.875=WHITE FADE.PNG=1.000=0=0=1,
855.938=discord-20227.jpg=1.000=0=0=1,
856.000=WHITE FADE.PNG=1.000=0=0=1,
856.125=Inverted Discord.PNG=1.000=1=0=1,
888.000=WHITE FADE.PNG=1.000=0=0=1,
888.125=Inverted Discord.PNG=1.000=1=0=1,
904.000=WHITE FADE.PNG=1.000=0=0=1,
904.125=Inverted Discord.PNG=1.000=1=0=1,
908.000=WHITE FADE.PNG=1.000=0=0=1,
908.125=Inverted Discord.PNG=1.000=1=0=1,
912.000=WHITE FADE.PNG=1.000=0=0=1,
912.125=Inverted Discord.PNG=1.000=1=0=1,
914.000=WHITE FADE.PNG=1.000=0=0=1,
914.125=Inverted Discord.PNG=1.000=1=0=1,
916.000=WHITE FADE.PNG=1.000=0=0=1,
916.125=Inverted Discord.PNG=1.000=0=0=1,
917.000=WHITE FADE.PNG=1.000=0=0=1,
917.125=Inverted Discord.PNG=1.000=0=0=1,
918.000=WHITE FADE.PNG=1.000=0=0=1,
918.125=BLACK FADE.PNG=1.000=1=0=1,
920.000=WHITE FADE.PNG=1.000=0=0=1,
920.125=Discord Final.png=1.000=1=0=1,
984.000=WHITE FADE.PNG=1.000=0=0=1,
984.063=discordthetrollest.png=1.000=1=0=1,
988.000=Terror to Terror-bg.PNG=1.000=1=0=1,
99999=-nosongbg-=1.000=0=0=0 // don't automatically add -songbackground-
;

//---------------dance-single - ----------------
#NOTES:
     dance-single:
     :
     Hard:
     11:
     1.000,1.000,0.679,0.270,1.000: // measure 1
0000
0000
0000
0000
,  // measure 2
0000
0000
0000
0000
,  // measure 3
0000
0000
0000
0000
,  // measure 4
0000
0000
0000
0000
,  // measure 5
0000
0000
0000
0000
,  // measure 6
0000
0000
0000
0000
,  // measure 7
0000
0000
0000
0000
,  // measure 8
0000
0000
0000
0000
,  // measure 9
0001
0010
0100
1000
0010
1000
0100
0010
,  // measure 10
0001
0010
0100
1000
0010
1000
0100
0010
,  // measure 11
0001
1000
0100
0010
0001
0010
0100
1000
,  // measure 12
0010
0100
0010
1000
0100
0010
0100
1000
,  // measure 13
0110
0000
1000
0000
0100
0000
0010
0000
0100
1000
0100
0000
0010
0000
0001
0000
,  // measure 14
0011
0000
0001
0000
0100
0000
0010
0000
1000
0100
1000
0000
0001
0000
0010
0000
,  // measure 15
0110
0100
0010
0100
1001
0010
0100
1000
,  // measure 16
0110
0000
0000
0001
0000
0000
0010
0000
0000
0001
0000
0000
2000
0000
0000
0000
0000
0000
3001
0000
0000
0000
0100
0000
,  // measure 17
0000
0001
0000
0100
0000
0001
0000
0100
0000
0001
0000
0100
,  // measure 18
0000
0000
0000
0000
0001
0000
0000
0000
0000
0000
0000
0000
0100
0000
0000
0000
0000
0000
0100
0000
0000
0010
0000
0000
0000
0000
0000
1000
0000
0000
0100
0000
0000
1000
0000
0000
0200
0000
0000
0000
0000
0000
0010
0000
0000
0000
0000
0000
,  // measure 19
0010
0000
0001
0000
0301
0000
0010
0001
0000
0010
0100
1000
0002
0000
0100
0000
,  // measure 20
0100
0000
0010
0000
0103
0000
1000
0100
0000
0100
1000
0001
0020
0000
0100
0000
,  // measure 21
0100
0000
1000
0000
0130
0000
0001
1000
0000
0001
0010
0100
0020
0000
0100
0000
,  // measure 22
1000
0000
0130
0000
1000
0000
0000
0100
0000
0010
0001
0000
2000
0000
0100
0000
,  // measure 23
0100
0000
0010
0000
3001
0000
0000
0010
0000
0100
1000
0000
0002
0000
0010
0000
,  // measure 24
0010
0000
0103
0000
0011
0000
1000
0100
0010
0001
0010
0100
2000
0000
0010
0000
,  // measure 25
0100
0000
3010
0000
0000
0000
0110
0000
1000
0001
1000
0001
1000
0000
0010
0000
,  // measure 26
1000
0000
0000
0000
0100
0000
0000
0000
0010
0000
0000
0000
0001
0000
0000
0000
0000
0000
1000
0000
0000
0100
0000
0000
0000
0000
0000
1000
0000
0000
0100
0000
0000
1000
0000
0000
0200
0000
0000
0000
0000
0000
1000
0000
0000
0000
0000
0000
,  // measure 27
1000
0000
1300
0000
0001
0000
0001
0010
0000
0010
0001
0010
0002
0000
0010
0000
,  // measure 28
0010
0000
0103
0000
0110
0000
0100
0010
0000
1000
0100
0000
0200
0000
0001
0000
,  // measure 29
0001
0000
0301
0000
0011
0000
0010
0001
0000
0010
0001
0000
2100
0000
0010
0000
,  // measure 30
0100
0000
3010
0000
1000
0000
0100
0010
0100
0010
0100
0000
2000
0000
0100
0000
,  // measure 31
0001
0000
0010
0000
3001
0000
0010
0001
0100
0010
1000
0000
0200
0000
0001
0000
,  // measure 32
0010
0000
0001
0000
0310
0000
1000
0100
0000
0010
0001
0000
0002
0000
0100
0000
,  // measure 33
1000
0000
0103
0000
0001
0000
0100
0010
0000
0100
0010
0000
0001
0000
0010
0000
,  // measure 34
0100
0000
0000
1000
0000
0000
0001
0000
0000
0000
1000
0000
0000
0000
0001
0000
0000
0000
1000
0000
0000
0000
0001
0000
,  // measure 35
0000
0000
0000
0000
1000
0000
0000
0000
0000
0000
0000
0000
1001
0000
0000
0000
0000
0000
0100
0000
0000
0010
0000
0000
1000
0000
0000
0100
0000
0000
1000
0000
0000
0010
0000
0000
0100
0000
0000
0000
0000
0000
0001
0000
0000
0010
0000
0000
,  // measure 36
0100
0000
0110
0000
1000
0100
1000
0001
0010
0001
1000
0100
2000
0000
0100
0000
,  // measure 37
0100
0000
3100
0000
0001
0010
0001
0000
1000
0100
1000
0000
0010
0000
0100
0010
,  // measure 38
0100
0001
2000
0000
3001
0010
0100
0000
1000
0100
0010
0000
0001
0000
1000
0001
,  // measure 39
0010
0100
2000
0000
3001
0010
0001
0100
0010
1000
0100
1000
0001
0000
0101
0000
,  // measure 40
0101
0000
0101
0000
1000
0100
0010
0001
0010
0100
0010
0100
1000
0000
1100
0000
,  // measure 41
1100
0000
1100
0000
0010
0100
0000
0010
0100
0000
0001
0000
1000
0010
0100
0001
,  // measure 42
0020
0000
0001
0000
1030
0000
0001
0000
0100
0000
0100
0000
0001
0010
0100
1000
,  // measure 43
0001
0000
0001
0000
1001
0000
0100
0010
0100
0000
0110
0000
1000
0100
0010
0001
,  // measure 44
0020
0100
1030
1000
0001
0001
0010
0010
,  // measure 45
0100
0000
0100
0000
0110
0010
0100
0000
1000
0100
0010
0000
0001
0000
0101
0000
,  // measure 46
1010
0000
0101
0000
1100
1000
0100
0000
0001
0010
0100
0000
1010
0000
0110
0000
,  // measure 47
0101
0000
1001
0000
0012
0000
0100
0000
0013
0001
0010
0100
1000
0000
0010
0000
,  // measure 48
1000
0000
0010
0000
2100
0000
0100
0000
3001
0010
0100
0010
0001
0000
1001
0000
,  // measure 49
0110
1001
0012
0103
0100
0100
1002
1000
,  // measure 50
1000
1003
0020
0130
0100
0100
0020
0000
,  // measure 51
1030
0000
0100
0000
1000
0000
0100
0000
1000
0000
0100
0000
,  // measure 52
1000
0000
0000
0000
0000
0000
0000
0000
0100
0000
0000
0000
0000
0000
0000
0000
1000
0000
0000
0000
0000
0000
0000
0000
0010
0000
0000
0000
0000
0000
0000
0000
0000
0110
0000
0000
0000
0000
0000
0100
0000
0000
0001
0000
0000
0100
0000
0000
,  // measure 53
0002
0000
1000
0000
1000
0000
1003
0000
0100
0000
0000
0101
0000
1000
0100
1000
,  // measure 54
0002
0000
1000
0000
1000
0000
1003
0000
1001
0000
0000
0110
0000
0001
0100
0010
,  // measure 55
2000
0000
0010
0000
0010
0000
3010
0000
0110
0000
0000
0101
0000
0010
0100
0010
,  // measure 56
2000
0000
0001
0000
0001
0000
3001
0000
1010
0000
0000
0101
0000
0001
0010
0001
,  // measure 57
0200
0000
0010
0000
0010
0000
0310
0000
0101
0000
0000
1100
0000
0100
1000
0100
,  // measure 58
2000
0000
0001
0000
0010
0000
0100
0000
3010
0000
0000
0110
0000
1000
0001
1000
,  // measure 59
0002
0000
0100
0000
0010
0000
0103
0000
0000
0000
1001
0000
1000
0001
1000
0001
,  // measure 60
1000
0000
0000
0000
0000
0000
0100
0000
0000
0000
0000
0000
0001
0000
0000
0000
0010
0000
0000
0000
0100
0000
0000
0000
1000
0000
0000
0000
0000
0000
0000
0000
0000
0100
0000
0000
0000
0000
0000
0010
0000
0000
0001
0000
0000
0000
0000
0000
,  // measure 61
1000
0000
0100
0000
0010
0000
0001
0000
0110
0000
0000
0101
0000
0010
0001
0010
,  // measure 62
0100
0000
0100
0000
0100
0000
0100
0000
1000
0100
0000
0100
0000
0100
1000
0001
,  // measure 63
0010
0000
0200
0000
0010
0000
0310
0000
0001
0010
0000
0100
0000
1000
0100
0010
,  // measure 64
0001
0000
0001
0000
0001
0000
0010
0000
0001
1000
0000
0001
0000
1000
0010
0100
,  // measure 65
0002
0000
0010
0000
0100
0000
1003
0000
1000
0010
0000
0100
0000
0010
1000
0001
,  // measure 66
0020
0000
0100
0000
1000
0000
0130
0000
1000
0001
0000
0100
0000
0010
1000
0100
,  // measure 67
0010
0001
0010
0100
1001
0001
1001
0001
,  // measure 68
0001
0000
0000
1000
0000
0000
0001
0000
0000
1000
0000
0000
0001
0000
1000
0000
0001
0000
1000
0000
0001
0000
1000
0000
0001
0000
0000
0000
0000
0000
0001
0000
0000
0000
0000
0000
1000
0000
0000
0100
0000
0000
0001
0000
0000
0100
0000
0000
,  // measure 69
1000
0000
0010
0000
0001
0000
0010
0000
0100
0010
0000
0100
0010
0000
1000
0000
,  // measure 70
0010
0000
0100
0001
0010
0001
0100
0000
2000
0000
0000
0000
3010
0100
0010
0100
,  // measure 71
0002
0000
0000
0000
1003
0100
1000
0000
0001
0000
0001
0000
0000
1000
0100
1000
,  // measure 72
0100
0000
0000
0000
0000
0000
1000
0000
0000
0000
0000
0000
0001
0000
0010
0000
0100
0000
1000
0000
0100
0000
0010
0000
0002
0000
0000
0000
0000
0000
0000
0000
0000
0000
0000
0000
1003
0000
0000
0100
0000
0000
1000
0000
0000
0100
0000
0000
,  // measure 73
1000
0000
1000
0000
1000
0000
0100
0000
0010
1000
0000
0100
0010
0001
0000
1000
,  // measure 74
0001
0000
0001
0000
0010
1000
0001
0000
0200
0000
0000
0000
1300
0100
1000
0100
,  // measure 75
0002
0000
0000
0000
0013
0100
1000
0000
0001
0000
1100
0000
0000
1100
0000
0100
,  // measure 76
0010
0000
0000
0000
0000
0000
0001
0000
0000
0000
0000
0000
1000
0000
0100
0000
0010
0000
0001
0000
1000
0000
0100
0000
0020
0000
0000
0000
0000
0000
0031
0000
0000
0000
0000
0000
0100
0000
0000
0001
0000
0000
0010
0000
0000
0001
0000
0000
,  // measure 77
0100
0000
1000
0000
0010
0000
1000
0000
0001
1000
0000
0001
1000
0000
0100
0000
,  // measure 78
1000
0000
0001
0010
1000
0010
0001
0000
0200
0000
0000
0000
1300
0001
1000
0001
,  // measure 79
0020
0000
0000
0000
0130
0001
0100
0000
0010
0000
0010
0000
0000
0100
0001
0100
,  // measure 80
0001
0000
0000
0000
0000
0000
0100
0000
0000
0000
0000
0000
1000
0000
0100
0000
0010
0000
0001
0000
0010
0000
0100
0000
2000
0000
0000
0000
0000
0000
0000
0000
0000
0000
0000
0000
3100
0000
0000
0001
0000
0000
0100
0000
0000
0001
0000
0000
,  // measure 81
0100
0000
0100
0000
0100
0000
0001
0000
1000
0100
0000
0100
1000
0010
0000
0100
,  // measure 82
0010
0000
0010
0000
1000
0100
0010
0000
0002
0000
0000
0000
0103
0001
0100
0001
,  // measure 83
0020
0000
0000
0000
1030
0001
0100
0000
0010
0000
0101
0000
0000
0101
0000
0001
,  // measure 84
1000
0000
0000
0010
0000
0000
0100
0001
1000
0010
0100
0001
1000
0000
0000
0000
0000
0000
0110
0000
0000
0000
1000
0000
,  // measure 85
0001
0000
0100
0000
0010
0000
0101
0000
0000
1010
0000
1000
,  // measure 86
0010
0000
0011
0000
1100
0000
0101
0000
0000
1001
0000
0010
,  // measure 87
0100
0000
1100
0000
1010
0000
0101
0000
0000
1001
0000
1000
,  // measure 88
0001
0000
1001
0000
1001
0000
0011
0000
0000
0011
0000
0001
,  // measure 89
0001
0000
1000
0000
1000
0000
1010
0000
0000
1010
0000
0001
,  // measure 90
0010
0000
0101
0000
1010
0000
0110
0000
0000
0110
0000
1000
,  // measure 91
0001
0000
0001
0000
1000
0000
0101
0000
0000
0101
0000
0010
,  // measure 92
0100
0000
0110
0000
1010
0000
1001
0000
0000
1001
0000
1000
,  // measure 93
0100
0000
0100
0000
0100
0000
0011
0000
0000
0011
0000
1000
,  // measure 94
0010
0000
1010
0000
1100
0000
0101
0000
0000
1001
0000
0100
,  // measure 95
1000
0000
0100
0000
1000
0000
1100
0000
0000
1100
0000
0100
,  // measure 96
1000
0000
1001
0000
1001
0000
0110
0000
0000
0110
0000
0100
,  // measure 97
0010
0000
1100
0000
1100
0000
0011
0000
0000
0011
0000
1000
,  // measure 98
0100
0000
0101
0000
1010
0000
0110
0000
0000
1010
0000
0100
,  // measure 99
0010
0000
0001
0000
0001
0000
1010
0000
0000
1010
0000
1000
,  // measure 100
1000
0000
0000
0000
0000
0000
0000
0000
0000
0000
0000
0000
0000
0000
0000
0000
0000
0000
0000
0000
0000
0000
0000
0000
0000
0000
0000
0000
0000
0000
0000
0000
1100
0000
0000
0000
0000
0000
0000
0000
0000
0000
0000
0000
0000
0000
0000
0000
0000
0000
0000
0000
0000
0000
0000
0000
0000
0000
0000
0000
0000
0000
0000
0000
1100
0000
0000
0000
0000
0000
0000
0000
0000
0000
0000
0000
0000
0000
0000
0000
0000
0000
0000
0000
0000
0000
0000
0000
0000
0000
0000
0000
0000
0000
0000
0000
1001
0000
0000
0000
0000
0000
0000
0000
0000
0000
0000
0000
00M0
0000
0000
0000
0000
0000
0000
0000
0000
0000
0000
0000
MM00
0000
0000
0000
0000
0000
0000
0000
00MM
0000
0000
0000
0000
0000
0000
0000
0000
0000
0000
0000
0000
MM00
0000
0000
0000
0000
0000
0000
0000
0000
000M
0000
0000
0000
0000
0000
0M00
0000
0000
0MM0
M000
0000
0000
0000
0MM0
0000
0000
0000
0000
0000
0000
0000
0000
0000
0000
0000
000M
0000
0000
0000
0000
0000
0000
0000
0000
0000
0000
0000
0000
0000
0000
0000
,  // measure 101
0000
0000
0000
0000
0000
0000
0000
0000
0000
0000
0000
0000
0000
0000
0000
0000
MM00
0000
0000
0000
00M0
0000
0000
0000
0000
0000
0000
0000
0000
0000
0000
0000
0000
0000
0000
0000
0M00
0000
0000
0000
00M0
0000
0000
0000
MM00
0000
0000
0000
0000
0000
0000
0000
0000
0000
M000
0000
0000
0000
0000
0000
0M00
0000
0000
0000
0000
0000
0M00
0000
0000
0000
0000
0000
MM00
0000
0000
0000
0000
0000
M000
0000
0000
0000
0000
0000
M000
0000
0000
0000
0000
0000
0M00
0000
0000
0000
0000
0000
M000
0000
0000
0000
0000
0000
0M00
0000
0000
0000
0000
0000
0M00
0000
0000
0000
0000
0000
0M00
0000
0000
0000
0000
0000
0M00
0000
0000
0000
0000
0000
0000
0000
0000
0000
0000
0000
0000
0000
0000
0000
0000
0000
0000
0000
0000
0000
0000
0000
00M0
0000
0000
0000
0000
0000
0000
0000
000M
0000
0000
0000
0000
0000
0000
0000
00M0
0000
0000
0000
0000
0000
0000
0000
000M
0000
0000
0000
000M
0000
0000
0000
00M0
0000
0000
0000
0000
0000
0000
0000
0000
0000
0000
0000
0000
0000
0000
0000
,  // measure 102
0M00
0000
0000
0000
M000
0000
0000
0000
00M0
0000
0000
0000
0M00
0000
0000
0000
0M00
0000
0000
0000
0000
0000
0000
0000
M000
0000
0000
0000
000M
0000
0000
0000
0MM0
0000
0000
0000
0000
0000
0000
0000
000M
0000
0000
0000
00M0
0000
0000
0000
0000
0000
0000
0000
0000
0000
0000
0000
0000
0000
0000
0000
0000
0000
0000
0000
0000
0000
0000
0000
0000
0000
0000
0000
0000
0000
0000
0000
0000
0000
0000
0000
0000
0000
0000
0000
0000
0000
0000
0000
0000
0000
0000
0000
0000
0000
0000
0000
0000
0000
0000
000M
0000
0000
00M0
0000
0000
0M00
0000
0000
M000
0000
0000
000M
0000
0000
00M0
0000
0000
0M00
0000
0000
M000
0000
0000
0M00
0000
0000
00M0
0000
0000
000M
0000
0000
00M0
0000
0000
0MM0
0000
0000
0MM0
0000
0000
M000
0000
0000
00MM
0000
0000
0000
0M00
0000
0000
0000
M000
0000
0000
0000
00M0
0000
0000
0000
0000
0000
0000
0000
0M00
0000
0000
0000
00M0
0000
0000
0000
0M00
0000
0000
0000
0M00
0000
0000
0000
0M00
0000
0000
0000
M000
0000
0000
0000
0000
0000
0000
0000
,  // measure 103
0M00
00M0
0000
0000
0M00
0000
0000
0M00
0000
0000
0000
0000
M000
0000
0M00
0000
0000
0000
00M0
0000
0000
0000
0M00
0000
0000
0000
M000
0000
0000
0000
0000
0000
0MM0
0000
0000
0000
0MM0
0000
0000
0000
M000
0000
00M0
0000
0000
0000
000M
0000
,  // measure 104
0000
00M0
0MM0
M000
0000
00MM
0000
0000
0000
0000
0000
0000
0100
0000
0000
0000
0000
0000
0000
0000
0000
0000
0000
0000
,  // measure 105
1000
0000
1000
0000
0000
0000
0000
0000
0001
0000
0000
0100
0001
0000
0000
0100
,  // measure 106
0000
0000
0000
0000
0000
0000
0000
0000
0100
1000
0100
0010
0001
0010
0100
1000
,  // measure 107
0100
1000
0100
0010
0001
0010
0100
1000
0100
1000
0100
0010
0001
0010
0100
1000
,  // measure 108
0100
0000
0000
1000
0000
0000
0100
0000
0000
0010
0000
0000
0001
0000
0000
0010
0000
0000
0100
0000
0000
1000
0000
0000
0100
0000
0000
0000
1000
0000
0000
0000
0100
0000
0000
0000
1000
0000
0100
0000
0010
0000
0100
0000
1000
0000
0001
0000
,  // measure 109
0010
0100
1000
0010
0100
0000
0100
0000
0100
0000
1000
0001
0100
0010
0100
0001
0010
0001
0100
0010
0100
0000
0001
0000
,  // measure 110
1000
0001
0010
0001
0100
0010
1000
0100
0010
0001
0010
0100
0010
0100
0010
0100
1000
0001
1000
0001
0100
0010
1000
0010
,  // measure 111
0100
0001
0010
0100
1000
0100
1000
0000
1000
0000
0100
0010
0001
0010
0100
1000
0001
0010
0100
1000
0001
0000
0001
0000
,  // measure 112
1000
0000
0100
1000
0010
0100
0010
1000
0100
0010
0001
0010
0100
0000
0100
0000
0100
0000
0001
1000
0001
1000
0001
1000
,  // measure 113
0010
0000
0100
0000
0010
0000
0100
0000
0010
0000
1000
0000
0100
0000
0010
0000
0001
0000
1000
0000
0100
0000
0010
0000
0001
0000
0010
0000
0100
0000
1000
0000
0001
0000
0010
0000
0100
0000
1000
0000
0100
0000
0000
1000
0000
0000
0100
0000
,  // measure 114
0000
0000
0000
0000
0100
0000
0000
0000
0000
0000
1000
0000
0000
0100
0000
0000
0010
0000
0000
0001
0000
0000
0010
0000
0000
0100
0000
0000
1000
0000
0000
0001
0000
0000
0010
0000
0000
0100
0000
0000
1000
0000
0000
0010
0000
0000
0100
0000
,  // measure 115
0000
0000
0000
0000
0100
0000
0000
0000
0000
0000
0010
0000
0000
1000
0000
0000
0001
0000
0000
0100
0000
0000
0010
0000
0000
1000
0000
0000
0001
0000
0010
0000
0100
0000
1000
0000
0100
0000
0010
0000
0001
0000
0000
0010
0000
0000
0001
0000
,  // measure 116
0000
0000
0000
0000
0001
0000
0000
0000
0000
0000
1000
0000
0000
0100
0000
0000
0010
0000
0000
0100
0000
0000
1000
0000
0000
0001
0000
0000
0100
0000
0000
0010
0000
0000
0100
0000
0000
0001
0000
0000
1000
0000
0000
0000
0000
0000
1100
0000
,  // measure 117
0000
0000
0000
0000
1100
0000
0000
0000
0000
0000
0001
0000
0000
0100
0000
0000
0001
0000
0000
0100
0000
0000
0001
0000
0000
0010
0000
0000
0100
0000
0000
1000
0000
0000
0010
0000
0000
0100
0000
0000
0001
0000
0000
0000
0000
0000
0001
0000
,  // measure 118
0000
0000
0000
0000
0001
0000
0000
0000
0000
0000
1000
0000
0000
0001
0000
0000
0100
0000
0000
0010
0000
0000
1000
0000
0000
0100
0000
0000
0010
0000
0000
0001
0000
0000
0010
0000
0000
0100
0000
0000
0010
0000
0000
0000
0000
0000
0001
0000
,  // measure 119
0000
0000
0000
0000
0001
0000
0000
0000
0000
0000
1000
0000
0000
0100
0000
0000
1000
0000
0000
0001
0000
0000
0010
0000
0000
0100
0000
0000
1000
0000
0000
0100
0000
0000
0010
0000
0000
0001
0000
0000
0100
0000
0000
0000
0000
0000
0100
0000
,  // measure 120
0000
0000
0000
0000
0100
0000
0000
0000
0000
0000
0001
0000
0000
0010
0000
0000
0001
0000
0000
1000
0000
0000
0100
0000
0000
0010
0000
0000
0001
0000
0000
0010
0000
0000
0100
0000
0000
1000
0000
0000
0010
0000
0000
0100
0000
0000
0010
0000
,  // measure 121
0000
0000
0000
0000
0000
0000
0000
0000
0000
0000
0000
0000
0000
0000
0000
0000
1000
0000
0000
0000
0000
0000
0000
0000
0000
0000
0000
0000
0000
0000
0000
0000
0000
0000
0000
0000
0000
0000
0000
0000
0100
0000
0000
0000
0000
0000
0000
0000
0000
0000
0000
0000
1000
0000
0000
0000
0000
0000
0000
0000
0000
0000
0000
0000
0001
0000
0000
0000
0000
0000
0000
0000
0000
0000
0000
0000
0010
0000
0000
0000
0000
0000
0000
0000
0000
0000
0000
0000
0100
0000
0000
0000
0000
0000
0000
0000
0000
0000
0000
0000
0010
0000
0000
0000
0000
0000
0000
0000
0000
0000
0000
0000
0001
0000
0000
0000
0000
0000
0000
0000
0000
0000
0000
0000
0010
0000
0000
0000
0000
0000
0000
0000
0000
0000
0000
0000
0100
0000
0000
0000
0000
0000
0000
0000
0000
0000
0000
0000
0010
0000
0000
0000
0000
0000
0000
0000
0000
0000
0000
0001
0000
0000
0000
0000
0000
0000
0000
0000
0000
0000
0000
0000
0000
0000
0000
0000
0000
0000
0000
0000
0000
0000
0000
0000
0000
0000
0000
0000
0000
0000
0000
0000
,  // measure 122
1001
0000
0100
0010
0100
0000
1001
1000
,  // measure 123
0110
0000
0000
0001
0000
0100
0000
0001
0000
0100
0000
0001
,  // measure 124
0000
0000
0100
0000
0000
0000
0001
0000
0000
0000
0100
0000
0000
0000
0001
0000
0000
0000
0100
0000
0000
0110
0000
0000
,  // measure 125
1100
0000
0100
1000
0010
0100
0001
0010
0100
1000
0010
0100
0001
0000
1001
0000
,  // measure 126
1001
0000
0100
0010
0001
0010
0100
1000
0001
0010
0100
0010
0001
0000
1000
0000
,  // measure 127
1000
0000
0010
0100
0010
1000
0100
0010
0001
0010
0100
0010
0100
1000
0010
0100
,  // measure 128
0001
1000
0100
0010
0100
1000
0010
0100
0001
0000
0001
0000
1000
0100
1000
0000
,  // measure 129
0010
0000
0100
0001
1000
0001
0100
0010
0100
0001
0010
0100
1000
0001
1000
0000
,  // measure 130
1000
0000
1000
0001
0010
0100
1000
0100
0010
0001
0100
0010
0100
0001
0010
0000
,  // measure 131
0110
0000
1000
0100
1000
0010
0100
0001
0010
0001
1000
0100
0010
0001
0100
0010
,  // measure 132
1000
0100
0010
0001
1000
0100
0010
0001
0010
0100
1000
0001
0100
0010
0100
0000
,  // measure 133
0110
0000
0010
1000
0001
0100
0001
0100
0010
1000
0010
1000
0100
0010
0100
0000
,  // measure 134
0110
0000
0100
0001
0010
0100
1000
0100
0010
0001
0010
0100
1000
0001
0100
0000
,  // measure 135
0101
0000
0001
0100
0010
1000
0100
0010
0100
0010
0100
1000
0100
1000
0100
0010
,  // measure 136
0001
1000
0100
0010
0001
0010
0100
1000
0001
0010
0100
1000
0010
0100
0010
0000
,  // measure 137
0110
0000
0001
0010
0100
1000
0001
0100
0010
1000
0100
0010
0001
0100
0001
0000
,  // measure 138
0110
0000
1000
0100
0010
0001
0010
0100
1000
0001
0100
0010
1000
0100
1000
0000
,  // measure 139
0101
0000
0100
0001
0010
0100
1000
0010
0100
0001
0100
0001
0100
0010
1000
0010
,  // measure 140
0100
0001
0010
0100
0010
0001
0100
0010
1000
0100
0010
0001
1001
1000
0100
0000
,  // measure 141
0110
0000
0010
1000
0010
0001
0010
1000
0010
0100
0010
1000
0001
0100
0010
0000
,  // measure 142
0110
0000
1000
0100
0001
0100
1000
0010
0100
0001
0010
1000
0010
0001
0100
0000
,  // measure 143
1010
0000
0001
0100
0010
1000
0010
0100
0010
1000
0100
0010
0001
0100
0010
1000
,  // measure 144
0001
0000
0100
0000
0001
0000
0100
0000
0001
0000
0100
0000
0001
0010
0100
1000
,  // measure 145
0002
0000
0000
0000
1003
0100
1000
0000
0110
0000
1000
0001
0100
0010
0100
0001
,  // measure 146
0010
0100
1000
0100
0010
0001
0010
0000
0110
0000
1000
0100
0010
0001
0010
0100
,  // measure 147
1000
0100
0010
0001
0010
0100
0001
0000
0110
0000
0001
1000
0100
1000
0001
0010
,  // measure 148
0100
1000
0001
1000
0010
0100
0001
0100
0010
1000
0100
0010
0001
1000
0001
1000
,  // measure 149
0001
0000
0100
0000
0001
0000
0100
0000
0001
0000
0100
0000
0010
0000
0000
0100
0000
0000
0010
0000
0000
0000
0000
0000
0110
0000
0000
0000
0000
0000
1000
0000
0000
0100
0000
0000
1000
0000
0000
0100
0000
0000
1000
0000
0000
0100
0000
0000
,  // measure 150
0010
0001
0010
0001
0100
0010
0100
0000
0110
0000
0001
1000
0010
0100
0010
0100
,  // measure 151
0001
1000
0001
1000
0001
0010
0100
0000
1100
0000
1000
0100
0010
0001
0010
0100
,  // measure 152
1000
0010
0100
0010
1000
0010
0100
0000
1000
0000
0001
0000
1000
0000
0001
0000
,  // measure 153
1000
0000
0001
0000
1000
0100
0010
0001
1000
0000
1100
0000
0100
1000
0100
0000
,  // measure 154
1100
0000
0010
0100
0001
0010
0100
0010
0001
1000
0100
0010
0001
0100
0010
0000
,  // measure 155
0110
0000
0001
0100
0010
1000
0001
0100
0010
1000
0001
1000
0010
0100
0010
0000
,  // measure 156
0110
0000
0010
1000
0100
0010
0100
1000
0001
0010
0100
0010
0001
1000
0100
0010
,  // measure 157
0001
0010
0100
1000
0010
0100
0010
0100
0001
0010
0100
1000
000M
00M0
000M
0000
,  // measure 158
M000
M000
M000
M000
M000
M000
M000
M000
MM00
M000
M000
M000
M000
M000
M000
M000
MM00
0000
0000
0000
M000
0000
0000
0000
0M00
0000
0000
0000
M000
0000
0000
0000
0M00
0000
0000
0000
0000
0000
0000
0000
0MM0
0000
0000
0000
0000
0000
0000
0000
0000
0000
0000
0000
0000
0000
0000
0000
0000
0000
0000
0000
0000
0000
0000
0000
,  // measure 159
0000
0000
0000
0000
,  // measure 160
0000
0000
0000
0000
,  // measure 161
0000
0000
0000
0000
,  // measure 162
0000
0000
0000
0000
,  // measure 163
0000
0000
0000
0000
,  // measure 164
0000
0000
0000
0000
,  // measure 165
0000
0000
0000
0000
0000
0000
0000
0000
0000
0000
0000
0000
0001
0010
0001
0000
,  // measure 166
2000
0000
0100
0000
3100
1000
0100
1000
0100
0000
0110
0000
1000
0100
0010
0100
,  // measure 167
1000
0000
1100
0000
0001
0010
0100
1000
0010
0000
1000
0100
1000
0000
0001
0010
,  // measure 168
0001
0100
0010
0000
1000
0100
0000
0100
1000
0000
0100
0010
0001
0000
0100
0010
,  // measure 169
1000
0100
1000
0010
0100
0000
0001
0010
0100
1000
0100
0010
0001
0000
0110
0000
,  // measure 170
1100
0000
0001
0100
0010
0100
0001
0000
1000
0100
0010
0100
1000
0000
0002
0000
,  // measure 171
0100
0000
0010
0000
1000
0000
0103
0000
1000
0001
0010
0001
1000
0000
0110
0000
,  // measure 172
1001
0000
0110
0000
1000
0001
0010
0100
1000
0100
0010
0001
1000
0001
0010
0100
,  // measure 173
1000
0100
0010
0001
1000
0001
0010
0100
1000
0100
0010
0001
2000
0000
0010
0000
,  // measure 174
3100
0100
1000
1000
0001
0001
0100
0100
,  // measure 175
0010
0000
0010
0000
1000
0000
1000
0000
0001
0010
0100
0010
0001
0000
0100
0010
,  // measure 176
0000
0010
0000
0010
0000
0100
0010
0000
1000
0001
0010
0100
1000
0000
0010
0100
,  // measure 177
0010
0100
0010
0000
1000
0100
0010
0001
0010
0000
0100
1000
0002
0000
0100
0000
,  // measure 178
0103
0001
0100
0010
0100
0000
1000
0100
0010
0000
0110
0000
2001
0000
0001
0000
,  // measure 179
3001
0010
0100
1000
0010
0000
0100
0010
0100
0001
0010
0100
2000
0000
3010
0100
,  // measure 180
0010
0000
1010
0000
0102
0000
0103
0010
0100
0000
1001
0000
2100
0000
3100
1000
,  // measure 181
0100
0000
0000
0110
0000
0000
1001
0000
0000
0000
0000
0000
0001
0000
0000
0000
1000
0000
0000
0000
0001
0000
0000
0000
,  // measure 182
1000
0000
0001
0000
1000
0000
0001
0000
1000
0000
0001
0000
,  // measure 183
1000
0000
0000
1100
0000
1000
0010
0100
0002
0000
0100
0000
0100
0000
0103
0000
,  // measure 184
0101
0000
0010
0100
0000
0100
0010
1000
0002
0000
0100
0000
0010
0000
0103
0000
,  // measure 185
1100
0000
0100
0010
0000
1000
0001
0010
0100
0000
0110
0000
0110
0000
1100
0000
,  // measure 186
0101
0000
0100
0010
0000
0100
0010
0100
0001
0000
1001
0000
1001
0000
0101
0000
,  // measure 187
1001
0000
0100
0010
0000
1000
0001
0010
0100
0000
1000
0000
0100
0000
0010
0000
,  // measure 188
0101
0000
0010
0001
0000
0010
0001
0100
0020
0000
1000
0000
1000
0000
0130
0000
,  // measure 189
1100
0000
0010
0001
0000
1000
0100
0010
0001
0000
1001
0000
0101
0000
0110
0000
,  // measure 190
0000
0000
0000
0000
0000
0000
0010
0000
0000
0000
0000
0000
0100
0000
0000
0010
0000
0000
1000
0000
0000
0100
0000
0000
0010
0000
0000
0000
0000
0000
0001
0000
0000
0000
0000
0000
0010
0000
0000
0000
0100
0000
0000
0000
0010
0000
0000
0000
,  // measure 191
0100
0000
0000
0101
0000
0001
1000
0001
2000
0000
0100
0000
0100
3000
0100
0000
,  // measure 192
0011
0000
0100
0010
0000
1000
0001
0100
0001
0000
0001
0000
0001
0000
0100
0000
,  // measure 193
0110
0000
1000
0100
0000
1000
0001
0010
0100
0000
1100
0000
0110
0000
1100
0000
,  // measure 194
1002
0000
0103
0010
0000
0100
0010
0100
0020
0000
1000
0000
1000
0000
0100
0000
,  // measure 195
1030
0000
0100
1000
0000
0100
1000
0100
2000
0000
0100
0000
3100
0000
0010
0000
,  // measure 196
0001
0000
0010
0001
0000
0010
0001
0010
0002
0000
0010
0000
0010
0000
0103
0000
,  // measure 197
0010
0000
0100
0010
0000
0100
0010
0100
0020
0000
0100
0000
1000
0000
0130
0000
,  // measure 198
0010
0000
0000
0100
0000
0000
0010
0000
0000
0100
0000
0000
0010
0000
0000
0000
0000
0000
0010
0000
0000
0000
0000
0000
0110
0000
0000
0000
0000
0000
0000
0000
0000
0000
0000
0000
1000
0000
0001
0000
1000
0000
0001
0000
1000
0000
0001
0000
,  // measure 199
0010
0000
0001
0000
0010
0001
0100
0001
0010
0000
0100
0000
0010
0000
0100
0000
,  // measure 200
1000
0100
0000
1000
0100
0000
0010
0000
0100
0000
1000
0001
0100
0001
1000
0000
,  // measure 201
0020
0000
0000
0000
0130
1000
0100
1000
0002
0000
0000
0000
0013
1000
0010
0000
,  // measure 202
0001
0000
0000
0000
0000
0000
0001
0000
0000
0000
0000
0000
0000
0000
0000
0010
0000
0000
1000
0000
0000
0010
0000
0000
1000
0000
0000
0000
0000
0000
0010
0000
0000
0000
0000
0000
0001
0000
0100
0000
1000
0000
0010
0000
1000
0000
0100
0000
,  // measure 203
0002
0000
0000
0000
0013
1000
0010
1000
0010
0000
0010
0000
0010
0000
1000
0000
,  // measure 204
0100
0010
0000
1000
0100
0001
0000
0010
0001
0000
0001
0000
0100
0010
0001
0000
,  // measure 205
2000
0000
0000
0000
3010
1000
0010
1000
0002
0000
0000
0000
0103
1000
0010
0000
,  // measure 206
0001
0000
0000
0000
0000
0000
1010
0000
0000
0000
0000
0000
0000
0000
0000
1010
0000
0000
0000
0000
0000
1000
0000
0000
0100
0000
0000
0000
0000
0000
0001
0000
0000
0000
0000
0000
0010
0000
1000
0000
0100
0000
0001
0000
0010
0000
1000
0000
,  // measure 207
0200
0000
0301
0000
1000
0001
0100
0001
1000
0000
0010
0000
0100
0000
0010
0000
,  // measure 208
0001
0010
0000
0001
0010
0000
1000
0000
0010
0000
0001
0100
0010
0100
0001
0000
,  // measure 209
2000
0000
0000
0000
3010
0001
0010
0001
0200
0000
0000
0000
1300
0001
1000
0000
,  // measure 210
0100
0000
0000
0000
0000
0000
0100
0000
0000
0000
0000
0000
0000
0000
0000
1000
0000
0000
0001
0000
0000
1000
0000
0000
0001
0000
0000
0000
0000
0000
1000
0000
0000
0000
0000
0000
0010
0000
1000
0000
0100
0000
0001
0000
0100
0000
1000
0000
,  // measure 211
0020
0000
0000
0000
1030
0001
1000
0001
1000
0000
1000
0000
1000
0000
0001
0000
,  // measure 212
0010
1000
0000
1000
0010
0100
0000
1000
0100
0000
0100
0000
0010
1000
0100
0000
,  // measure 213
0002
0000
0000
0000
1003
0001
1000
0001
0200
0000
0000
0000
0310
0001
1000
0000
,  // measure 214
0100
0000
0000
0000
0000
0000
0101
0000
0000
0000
0000
0000
0000
0000
0000
0101
0000
0000
0000
0000
0000
0001
0000
0000
1000
0000
0000
0000
0000
0000
0100
0000
0001
0000
0100
0000
0001
0000
0100
0000
0001
0000
0100
0000
0001
0000
0100
0000
,  // measure 215
0001
0000
1000
0000
0010
0000
0100
0000
0010
0000
1000
0100
1000
0100
1000
0000
,  // measure 216
0010
0000
0100
0000
0010
0000
1000
0000
0100
0000
0010
0100
0010
0100
0010
0000
,  // measure 217
0001
0000
0010
0000
0100
0000
0010
0000
0001
0000
0010
0100
0010
0001
0010
0000
,  // measure 218
0100
1000
0100
1000
0100
0000
0110
0000
0101
0000
0010
0001
0010
0001
0100
0010
,  // measure 219
1000
0000
0100
1000
0100
0000
1000
0000
1100
0000
0001
0100
0001
0000
0101
0000
,  // measure 220
0011
0000
0100
0010
0100
0000
0110
0000
0110
0000
1000
0001
1000
0000
1000
0000
,  // measure 221
1001
0000
0010
0100
0010
0000
0110
0000
0101
0000
0001
0010
0100
0000
1100
0000
,  // measure 222
1100
0000
0100
0010
0001
0000
0100
0000
0001
0010
0100
1000
0010
0000
0100
0000
,  // measure 223
0102
0000
1003
0000
0100
0010
0100
0010
1000
0000
0100
0010
0001
0010
0100
0000
,  // measure 224
1000
0100
0000
0010
0001
0000
0010
0000
0100
0001
0010
0000
1000
0001
0100
0010
,  // measure 225
1000
0000
0100
0010
0100
0000
0001
0010
0000
0010
0000
0010
0000
0010
0000
0010
,  // measure 226
0001
0000
1000
0100
0010
0100
1000
0000
0010
0100
0010
0000
1000
0010
0100
0000
,  // measure 227
0101
0000
0010
0000
0001
0010
0001
1000
0100
0000
1100
0000
0101
0000
1100
0000
,  // measure 228
1002
0000
0103
0000
0010
0100
0010
0100
0010
0000
1000
0000
1000
0000
1000
0000
,  // measure 229
0102
0100
0100
0003
1002
1000
1000
1003
,  // measure 230
1002
0003
1002
0003
1002
0003
0000
0110
,  // measure 231
1001
0100
0010
0100
1000
0100
0010
0001
,  // measure 232
0100
0010
0100
0001
0010
0100
0010
0001
,  // measure 233
0100
0010
0100
0010
1000
0010
0100
0001
,  // measure 234
0010
0001
0100
0010
1000
0100
0010
0001
,  // measure 235
0010
1000
0010
0001
0010
0100
1000
0100
,  // measure 236
0010
0100
1000
0100
0001
0100
1000
0100
,  // measure 237
0010
0100
1000
0010
0001
0010
1000
0100
,  // measure 238
0010
0001
0010
0100
1000
0001
0010
0001
,  // measure 239
1001
1000
0010
0100
0010
1000
0100
0010
,  // measure 240
0001
0100
1000
0100
0001
0010
1000
0010
,  // measure 241
0001
0100
0010
1000
0100
0010
0100
1000
,  // measure 242
0010
0100
0010
1000
0100
0010
0001
0100
,  // measure 243
0101
0001
0010
0100
0010
0001
0010
0100
,  // measure 244
0101
0010
0100
0001
0010
0100
0010
0001
,  // measure 245
1010
0100
0010
0100
0110
1000
0100
0010
,  // measure 246
1001
0000
0000
0100
0010
0000
0110
0000
0000
0100
0010
0000
0010
0000
0100
0000
,  // measure 247
2002
0000
0000
0000
,  // measure 248
0000
0000
0000
0000
,  // measure 249
3003
0000
0000
0000
;
