#TITLE:Solid Feast;
#SUBTITLE:;
#ARTIST:LILY;
#TITLETRANSLIT:;
#SUBTITLETRANSLIT:;
#ARTISTTRANSLIT:;
#CREDIT:;
#BANNER:Solid Feast.PNG;
#BACKGROUND:Solid Feast-bg.PNG;
#LYRICSPATH:;
#CDTITLE:cooltext595710085-cdtitle.png;
#MUSIC:Solid Feast.mp3;
#OFFSET:-1.131;
#SAMPLESTART:58.170;
#SAMPLELENGTH:25.200;
#SELECTABLE:YES;
#BPMS:0.000=83.920,16.000=199.000,20.000=200.000,408.000=100.000,440.000=200.000,600.000=100.000,604.000=199.980;
#STOPS:;
#BGCHANGES:;

//---------------dance-single - ----------------
#NOTES:
     dance-single:
     :
     Hard:
     1:
     1.000,1.000,1.000,0.000,1.000: // measure 1
1001
0000
0000
0000
0000
0000
0100
0100
1001
0000
0000
0000
0001
0010
0100
0010
,  // measure 2
1100
0000
0000
0000
0000
0000
0000
0000
0000
0000
0000
0000
0001
0000
0001
0000
1100
0000
0000
0000
0000
0000
0000
0000
0001
0010
0100
0010
0100
0001
0010
0100
,  // measure 3
1001
0000
0000
0000
0000
0000
0100
0100
1001
0000
0000
0000
0001
0010
0100
0010
,  // measure 4
1100
0000
0000
0000
0000
0000
0000
0000
0000
0000
0000
0000
0001
0000
0001
0000
1100
0000
1000
0100
0010
0100
0001
0010
0101
0010
0100
1000
0011
0100
1000
0100
,  // measure 5
0011
0000
0000
0000
,  // measure 6
1100
0010
0001
0010
0001
0000
0001
0000
1100
0000
0001
0001
0001
0000
0001
0000
,  // measure 7
0111
0000
1000
0100
1000
0000
1000
0000
0110
0000
1000
0100
1000
0000
1000
0000
,  // measure 8
0110
0000
1000
0100
1000
0000
1000
0000
0011
1000
0110
0000
1100
0001
0110
0000
,  // measure 9
1100
0000
0010
0001
0010
0000
0010
0000
1100
0000
0010
0001
0010
0000
0010
0000
,  // measure 10
1100
0000
0010
0001
0010
0000
0010
0000
1100
0010
0100
0011
0100
0000
0101
0000
,  // measure 11
0111
0000
1000
0100
1000
0000
1000
0000
0110
0000
1000
0100
1000
0000
1000
0000
,  // measure 12
0110
0000
1000
0100
1000
0000
1000
0000
0011
1000
0110
0000
1100
0001
0110
0000
,  // measure 13
1100
0000
0010
0001
0010
0000
0010
0000
1100
0000
0010
0001
0010
0000
0010
0000
,  // measure 14
1100
0000
0010
0001
0010
0000
0010
0000
1100
0010
0100
0011
0100
0000
0101
0000
,  // measure 15
0111
0000
1000
0100
1000
0000
1000
0000
0110
0000
1000
0100
1000
0000
1000
0000
,  // measure 16
0110
0000
1000
0100
1000
0000
1000
0000
0011
1000
0110
0000
1100
0001
0110
0000
,  // measure 17
1100
0000
0010
0001
0010
0000
0010
0000
1100
0000
0010
0001
0010
0000
0010
0000
,  // measure 18
1100
0000
0010
0001
0010
0000
0010
0000
1100
0010
0100
0011
0100
0000
0101
0000
,  // measure 19
0111
0000
1000
0100
1000
0000
1000
0000
0110
0000
1000
0100
1000
0000
1000
0000
,  // measure 20
0110
0000
1000
0100
1000
0000
1000
0000
0011
1000
0110
0000
1100
0001
0110
0000
,  // measure 21
1100
0000
0010
0001
0010
0000
0010
0000
1100
0000
0010
0001
0010
0000
0010
0000
,  // measure 22
1100
0000
0010
0001
0010
0000
0010
0000
1100
0010
0100
0011
0100
0000
0101
0000
,  // measure 23
1011
0000
0001
1000
0011
1000
0110
1000
0011
1000
0110
0001
1100
0010
1100
0010
,  // measure 24
1101
0000
0110
0010
1100
1000
0111
0000
0100
0010
1100
1000
0110
0000
0001
0001
,  // measure 25
1010
0000
1000
0010
1000
0010
1100
0010
1100
0010
1100
0010
1100
0010
1100
0010
,  // measure 26
1101
0000
0101
1000
0110
0000
0111
0000
0110
0000
1000
1000
0110
0000
0011
0000
,  // measure 27
1110
0001
0100
0001
0110
0001
1010
0100
1010
0001
1100
0010
0101
1000
0011
1000
,  // measure 28
0111
1000
0001
0010
0101
1000
0111
1000
0110
0001
1100
1000
0111
1000
0010
0001
,  // measure 29
1110
0001
0100
0001
0110
0001
0110
0001
0100
0010
1001
0100
1010
0100
1001
0100
,  // measure 30
1011
0100
1000
0100
0011
0100
1011
0100
0001
0100
0001
0010
1101
0010
0001
0010
,  // measure 31
1101
0000
0100
0001
0110
1000
0100
1000
0011
0100
1010
0100
0011
1000
0100
1000
,  // measure 32
0111
0000
0011
0001
1010
1000
0111
0000
0011
0001
1100
1000
0111
0000
0001
0001
,  // measure 33
0100
0010
0100
0010
0101
1000
0110
1000
0100
1000
0100
1000
0110
1000
0011
1100
,  // measure 34
0011
0000
1000
1000
0110
1000
0111
0000
1000
0100
1000
0100
0011
0000
1000
1000
,  // measure 35
0101
0010
0100
0001
0110
0001
1100
0010
0101
0010
1100
0001
0110
1000
0100
1000
,  // measure 36
0101
1000
0011
0100
1001
0100
1011
0100
1001
0010
0101
1000
0111
1000
0100
0010
,  // measure 37
0100
0010
0100
0010
0101
0010
0100
0001
0110
0001
1100
0001
0110
0001
1100
0001
,  // measure 38
1110
0001
0010
0001
1010
0100
1011
0100
0001
0010
0001
0010
1101
0010
0001
0100
,  // measure 39
1011
0100
0110
0100
0011
0000
1100
0000
0110
0000
1100
1000
1010
0000
1000
0000
,  // measure 40
0011
0000
0111
0000
1010
0000
1101
0000
0110
0000
1000
1000
1010
0000
1000
0000
,  // measure 41
0011
0000
0111
0000
1010
0000
0110
0000
0101
0000
1000
1000
1100
0000
0100
0000
,  // measure 42
0011
0000
1000
0000
0101
0000
1000
0000
0110
0000
1000
1000
1010
0000
0100
0000
,  // measure 43
1011
0000
0011
0000
0010
0000
0101
0000
1110
0000
0110
0100
1001
0000
0100
0000
,  // measure 44
1011
0000
0011
0000
1010
0000
0101
0000
1101
0000
0110
0100
0011
0000
1100
0000
,  // measure 45
0111
0000
0011
0000
0110
0000
0101
0000
1101
0000
0110
0100
1010
0000
0010
0000
,  // measure 46
0111
0000
1010
0000
0111
0000
0100
0000
1110
0000
0010
0010
0010
0000
0010
0000
,  // measure 47
1111
0110
1000
1011
0110
1001
1010
1110
,  // measure 48
0101
0101
0101
1001
1100
1010
1100
0110
,  // measure 49
0100
0110
1100
1011
0100
1101
1100
1110
,  // measure 50
1100
0101
1010
1101
0110
1011
1100
0110
,  // measure 51
1101
0110
0110
1010
1100
1001
0101
0110
,  // measure 52
1001
0101
1010
1001
0110
1010
1100
0111
,  // measure 53
0100
0110
0101
1010
0110
1001
0100
0110
,  // measure 54
0110
1101
0011
1101
0100
1010
0100
0110
,  // measure 55
1111
0111
0010
1011
0101
1001
0011
1110
,  // measure 56
1000
1101
0011
1011
0110
1010
1000
0110
,  // measure 57
0001
0110
1001
1011
0110
1101
1010
1110
,  // measure 58
0011
1101
0100
1011
0001
1010
0100
0110
,  // measure 59
0111
0110
1010
1010
0101
1001
0110
0110
,  // measure 60
1010
0101
0011
1001
0110
1010
1100
0111
,  // measure 61
0100
1110
0110
1011
0110
1101
1100
0111
,  // measure 62
1000
0100
1000
0100
1000
0000
1000
0000
0011
0000
1010
0000
0100
0000
0110
0000
,  // measure 63
1000
0001
1000
0001
1100
0001
0110
0000
1000
0000
0000
0000
1010
0000
0000
0000
,  // measure 64
1000
0010
1000
0010
1100
0010
0101
0000
1000
0000
0000
0000
0111
0000
0000
0000
,  // measure 65
1000
0001
1000
0001
1100
0001
0110
0000
1000
0000
0000
0000
1010
0000
0000
0000
,  // measure 66
0100
0010
0100
0010
1100
0010
0101
0000
1000
0000
0000
0000
1011
0000
0000
0000
,  // measure 67
1000
0001
1000
0001
1100
0001
0110
0000
1000
0000
0000
0000
1010
0000
0000
0000
,  // measure 68
1000
0010
1000
0010
1100
0010
0101
0000
1000
0000
0000
0000
0111
0000
0000
0000
,  // measure 69
1000
0001
1000
0001
1100
0001
0110
0000
1000
0000
0000
0000
1010
0000
0000
0000
,  // measure 70
0100
0010
0100
0010
1100
0010
0101
0000
0001
0010
0100
1000
0111
0000
0001
0000
,  // measure 71
1110
0000
0001
0010
1001
0010
0101
0010
1100
0001
0110
1000
0011
1000
0100
0001
,  // measure 72
1110
0000
0110
0001
0010
0001
1110
0000
0101
0000
1100
0001
1110
0000
0011
0100
,  // measure 73
1011
0000
0010
0001
1100
0010
1100
0010
0101
1000
0101
1000
0011
0100
0011
0100
,  // measure 74
1011
0000
0011
1000
0100
1000
0111
0000
0011
1000
0100
1000
0111
0000
1000
0100
,  // measure 75
1011
0000
0100
1000
0011
0100
0011
0100
1010
0001
1100
0001
1010
0100
0011
1000
,  // measure 76
0111
1000
0110
1000
0011
0100
1011
0100
1010
0100
0011
0100
1011
0100
0011
0100
,  // measure 77
1011
0100
0011
1000
0110
1000
0011
1000
0100
1000
0010
0100
0011
0100
0010
1000
,  // measure 78
0111
1000
0011
0100
0011
1000
0111
1000
0100
0010
0100
1000
0111
1000
0001
0010
,  // measure 79
1101
0000
0011
0100
1010
0100
0011
1000
0110
1000
0011
0100
0010
0100
0010
0100
,  // measure 80
1011
0000
1100
0010
0101
0010
1101
0000
0101
1000
0110
1000
0111
0000
1010
0100
,  // measure 81
1011
0000
0100
0010
1100
0001
0110
1000
0110
0001
1010
0100
1010
0001
0010
0100
,  // measure 82
1011
0000
0110
0001
1010
0001
1110
0000
1010
0001
0010
0001
1110
0000
0001
0010
,  // measure 83
1101
0000
0010
1000
0110
0001
1010
0100
0011
1000
0110
1000
0110
0001
0010
0100
,  // measure 84
1011
0100
1010
0001
0110
1000
0111
1000
0110
0001
1100
0010
1101
0010
0101
0010
,  // measure 85
1101
0010
0001
0010
1100
0001
0110
1000
0110
0001
1100
0010
1100
0001
0010
0000
,  // measure 86
0111
1000
0100
1000
0110
0001
1010
0100
1000
0000
0000
0000
0110
0000
0000
0000
,  // measure 87
1111
1110
0001
1010
1100
0101
1001
1110
,  // measure 88
0100
1011
0110
0111
0001
1010
0101
0110
,  // measure 89
0001
0110
1100
1011
1010
0101
1010
0111
,  // measure 90
1100
0111
1000
0111
0100
1010
0001
0110
,  // measure 91
1001
0110
0101
1010
1010
0101
1100
0110
,  // measure 92
1010
0011
1100
0101
0110
1011
0100
0111
,  // measure 93
1000
0110
1100
1010
0101
1101
1010
0111
,  // measure 94
0110
1011
0101
0111
0100
1010
0001
0110
,  // measure 95
1111
1110
0100
1110
1010
0101
1010
0111
,  // measure 96
1000
0011
1100
0111
1000
1010
0101
1110
,  // measure 97
0001
1110
0101
1110
0011
1101
0110
1110
,  // measure 98
0110
1011
0011
1101
0001
1010
1000
0110
,  // measure 99
0111
0110
0101
1010
1010
0101
1010
0110
,  // measure 100
0110
0011
0011
0101
1010
1010
0101
0110
,  // measure 101
0001
1110
0101
1011
0110
1101
0110
1110
,  // measure 102
0001
0010
0001
0010
0001
0000
0001
0000
1100
0000
0101
0000
0010
0000
0110
0000
,  // measure 103
1000
0100
1000
0000
1000
0000
1000
0000
0110
0000
0000
0000
0000
0000
0000
0000
1000
0100
1000
0000
1000
0000
1000
0000
0110
0000
0001
0000
0010
0000
0100
0000
,  // measure 104
1000
0100
1000
0000
1000
0000
1000
0000
0110
0000
0000
0000
0000
0000
0000
0000
1000
0100
1000
0000
1000
0000
1000
0000
0011
0000
0100
0000
0001
0000
0010
0000
,  // measure 105
1000
0100
1000
0000
1000
0000
1000
0000
0110
0000
0000
0000
0000
0000
0000
0000
1000
0100
1000
0000
1000
0000
1000
0000
0110
0000
0001
0000
0010
0000
0100
0000
,  // measure 106
1000
0100
1000
0000
1000
0000
1000
0000
0110
0000
0000
0000
0000
0000
0000
0000
1000
0100
1000
0000
1000
0000
1000
0000
0011
0000
0100
0000
0001
0000
0010
0000
,  // measure 107
1001
0100
1000
0000
1000
0000
1000
0000
0110
0000
0000
0000
0000
0000
0000
0000
1000
0100
1000
0000
1000
0000
1000
0000
0110
0000
0011
0000
0110
0000
1100
0000
,  // measure 108
1000
0100
1000
0000
1000
0000
1000
0000
1100
0000
0000
0000
0000
0000
0000
0000
1000
0100
1000
0000
1000
0000
1000
0000
0110
0000
1100
0000
0011
0000
0110
0000
,  // measure 109
1001
0100
1000
0000
1000
0000
1000
0000
1101
0000
0000
0000
0000
0000
0000
0000
1001
0100
1000
0000
1000
0000
1000
0000
1101
0000
0011
0000
0110
0000
1100
0000
,  // measure 110
1001
0100
1000
0000
1001
0000
1000
0000
1101
0000
0000
0000
0001
0000
0000
0000
1001
0100
1000
0000
1001
0000
1000
0000
1001
0100
0010
0001
1010
0100
0010
0001
,  // measure 111
0010
0001
1010
0001
0010
0001
1010
0001
1000
0100
1010
0100
1000
0100
1010
0100
,  // measure 112
1011
0100
0011
0100
0001
0100
1011
0100
1010
0100
1010
0100
1011
0100
1001
0100
,  // measure 113
0101
0010
0101
0010
0100
0010
0101
0010
0100
1000
0110
1000
0100
1000
0110
1000
,  // measure 114
1011
0100
0011
0100
0001
1000
0111
1000
0010
1000
0110
1000
0111
1000
0100
1000
,  // measure 115
0100
0010
0101
0010
1000
0100
1010
0100
0010
0001
0110
1000
0010
0100
1010
0001
,  // measure 116
1110
0001
0110
0001
1000
0100
1011
0100
1000
0010
0101
0010
1101
0010
1001
0100
,  // measure 117
1011
0100
1010
0100
0001
0010
0101
0010
0001
1000
0110
1000
0100
1000
0101
1000
,  // measure 118
0111
1000
0101
0010
1100
0001
1110
0001
1100
0010
0101
0010
1101
0010
0101
0010
,  // measure 119
1100
0010
1100
0010
1000
0010
1100
0010
1000
0001
1010
0001
1000
0001
1010
0001
,  // measure 120
1110
0001
1010
0001
0100
0001
1110
0001
0010
0001
0110
0001
1110
0001
0110
0001
,  // measure 121
1010
0100
1010
0100
0010
0001
1010
0001
0100
0001
1100
0001
1010
0001
1100
0001
,  // measure 122
1110
0010
1100
0010
1000
0001
1110
0001
0100
0010
1100
0010
1101
0010
1001
0010
,  // measure 123
1100
0010
0101
0010
1000
0100
1010
0100
1000
0001
0110
0001
0100
0001
1010
0100
,  // measure 124
1011
0100
0011
0100
1010
0100
1011
0100
1000
0001
0110
0001
1110
0001
0110
1000
,  // measure 125
0111
1000
0101
0010
1000
0010
0101
0010
1000
0010
0101
0010
1000
0100
0011
0100
,  // measure 126
1011
0100
0011
0100
1000
0100
0011
1000
0011
1100
0011
1100
0011
0100
0010
0100
,  // measure 127
1011
0100
0110
0100
0011
0000
1100
0000
0110
0000
1100
1000
1010
0000
1000
0000
,  // measure 128
0011
0000
0111
0000
1010
0000
1101
0000
0110
0000
1000
1000
1010
0000
1000
0000
,  // measure 129
0011
0000
0111
0000
1010
0000
0110
0000
0101
0000
1000
1000
1100
0000
0100
0000
,  // measure 130
0011
0000
1000
0000
0101
0000
1000
0000
0110
0000
1000
1000
1010
0000
0100
0000
,  // measure 131
1011
0000
0011
0000
0010
0000
0101
0000
1110
0000
0110
0100
1001
0000
0100
0000
,  // measure 132
1011
0000
0011
0000
1010
0000
0101
0000
1101
0000
0110
0100
0011
0000
1100
0000
,  // measure 133
0111
0000
0011
0000
0110
0000
0101
0000
1101
0000
0110
0100
1010
0000
0010
0000
,  // measure 134
0111
0000
1011
0000
0111
0000
0110
0000
1110
0000
1010
0010
0010
0000
0110
0000
,  // measure 135
1111
1110
0100
1011
0101
0101
1010
0111
,  // measure 136
0100
0111
1010
1101
0010
1010
0001
0110
,  // measure 137
0100
0110
0101
1011
0100
0101
1100
0111
,  // measure 138
1000
0011
0100
1101
0110
1011
1100
0110
,  // measure 139
1011
0110
0011
1010
1100
0101
0110
0110
,  // measure 140
0110
0011
1100
0101
0110
1010
0011
0111
,  // measure 141
1000
0110
0101
1010
0110
0101
1010
0110
,  // measure 142
0110
0111
1010
0111
0010
1010
0001
0110
,  // measure 143
1111
0111
0100
1110
0011
0101
1100
1110
,  // measure 144
0001
1011
0110
0111
0010
1010
0100
0110
,  // measure 145
0010
0110
0011
1011
0100
1101
1001
1110
,  // measure 146
1010
0111
1010
0111
0001
1010
0100
0110
,  // measure 147
0111
0110
1100
1010
0011
0101
1001
0110
,  // measure 148
0110
0011
1100
0101
1100
1011
0001
0110
,  // measure 149
0100
0110
0110
1011
1100
0111
0011
0110
,  // measure 150
1100
0001
0010
0100
1000
0000
0100
0000
0111
0000
1010
0000
0111
0000
0110
0000
,  // measure 151
1111
0000
0000
0000
0000
0000
0000
0000
0000
0000
0000
0000
0000
0000
0000
0000
1100
0010
0001
0010
0001
0000
0001
0000
1010
0000
0001
0010
0101
0001
0001
0001
,  // measure 152
0111
0000
1000
0100
1000
0000
1000
0000
0110
0000
1000
0100
1000
0000
1000
0000
,  // measure 153
0110
0000
1000
0100
1000
0000
1000
0000
0011
1000
0110
0000
1100
0001
0110
0000
,  // measure 154
1100
0000
0010
0001
0010
0000
0010
0000
1100
0000
0010
0001
0010
0000
0010
0000
,  // measure 155
1100
0000
0010
0001
0010
0000
0010
0000
1100
0010
0100
0011
0100
0000
0101
0000
,  // measure 156
0111
0000
1000
0100
1000
0000
1000
0000
0110
0000
1000
0100
1000
0000
1000
0000
,  // measure 157
0110
0000
1000
0100
1000
0000
1000
0000
0011
1000
0110
0000
1100
0001
0110
0000
,  // measure 158
1100
0000
0010
0001
0010
0000
0010
0000
1100
0000
0010
0001
0010
0000
0010
0000
,  // measure 159
1100
0000
0010
0001
0010
0000
0010
0000
1100
0010
0100
0011
0100
0000
0101
0000
,  // measure 160
0111
0000
1000
0100
1000
0000
1000
0000
0110
0000
1000
0100
1000
0000
1000
0000
,  // measure 161
0110
0000
1000
0100
1000
0000
1000
0000
0011
1000
0110
0000
1100
0001
0110
0000
,  // measure 162
1100
0000
0010
0001
0010
0000
0010
0000
1100
0000
0010
0001
0010
0000
0010
0000
,  // measure 163
1100
0000
0010
0001
0010
0000
0010
0000
1100
0010
0100
0011
0100
0000
0101
0000
,  // measure 164
0111
0000
1000
0100
1000
0000
1000
0000
0110
0000
1000
0100
1000
0000
1000
0000
,  // measure 165
0110
0000
1000
0100
1000
0000
1000
0000
0011
1000
0110
0000
1100
0001
0110
0000
,  // measure 166
1100
0000
0010
0001
0010
0000
0010
0000
1100
0000
0010
0001
0010
0000
0010
0000
,  // measure 167
1100
0000
0010
0001
0010
0000
0010
0000
1100
0010
0100
0011
0100
0000
0101
0000
,  // measure 168
1011
0000
0000
0000
;
