#TITLE:HELL SCAPER;
#SUBTITLE:~Last Escape Remix~;
#ARTIST:L.E.D. LIGHT-G;
#TITLETRANSLIT:;
#SUBTITLETRANSLIT:;
#ARTISTTRANSLIT:;
#CREDIT:;
#BANNER:Hell Scaper.PNG;
#BACKGROUND:Hell Scaper-bg.PNG;
#LYRICSPATH:HELL SCAPER Last Escape Remix.lrc;
#CDTITLE:cooltext595710085-cdtitle.png;
#MUSIC:L.E.D._LIGHT-G_-_HELL_SCAPER_-Last_Escape_Remix-.mp3;
#OFFSET:-0.233;
#SAMPLESTART:53.560;
#SAMPLELENGTH:21.320;
#SELECTABLE:YES;
#BPMS:0.000=90.000,32.000=180.000,312.000=90.000,344.000=180.000;
#STOPS:;
#BGCHANGES:;

//---------------dance-single - ----------------
#NOTES:
     dance-single:
     :
     Hard:
     11:
     1.000,1.000,1.000,0.125,0.907: // measure 1
2000
0000
0000
0000
,  // measure 2
0000
0000
0000
0000
,  // measure 3
3200
0000
0000
0000
0000
0000
0000
0000
0302
0000
0000
0023
0000
0000
0000
0000
,  // measure 4
0230
0000
0000
0000
0000
0000
0000
0000
0302
0000
0000
0023
0000
0000
0000
0000
,  // measure 5
0230
0000
0000
0000
0000
0000
0000
0000
0302
0000
0000
0023
0000
0000
0000
0000
,  // measure 6
0230
0000
0000
0000
0000
0000
0000
0000
0302
0000
0000
0023
0000
0000
0000
0000
,  // measure 7
1030
0000
0000
1000
0000
0000
1000
0000
0000
0000
0001
0000
0001
0000
0100
0000
0010
0000
0000
0010
0000
0000
0100
0000
0000
0000
0100
0000
0100
0000
0000
0000
,  // measure 8
1000
0000
0000
0000
0000
0000
0000
0000
0000
0000
0000
0000
0000
0000
0000
0000
0000
0000
1000
0000
0000
0000
0000
0000
0000
0000
0000
0000
0000
0000
0000
0000
0000
0000
0000
0000
1000
0000
0000
0000
0000
0000
0000
0000
0000
0000
0000
0000
0000
0000
0000
0000
0000
0000
0000
0000
0000
0000
0000
0000
0001
0000
0000
0000
0000
0000
0000
0000
0000
0000
0000
0000
0001
0000
0000
0000
0000
0000
0000
0000
0000
0000
0000
0000
0100
0000
0000
0000
0000
0000
0000
0000
0000
0000
0000
0000
0010
0000
0000
0000
0000
0000
0000
0000
0000
0000
0000
0000
0000
0000
0000
0000
0000
0000
0000
0000
0000
0000
0000
0000
0000
0000
0000
0000
1000
0000
0000
0000
0000
0000
0000
0000
1000
0000
0000
0000
0000
0000
0000
0000
0000
0000
0000
0000
0000
0000
0000
1000
0000
0000
0000
0000
0000
0000
0000
0000
0000
0000
0000
0000
0000
0000
0000
0000
0000
0000
0000
0000
0000
0000
0000
0000
0000
0000
0000
0000
0000
0000
0000
0000
0000
0000
0000
0000
0000
0000
0000
0000
0000
0000
0000
0000
,  // measure 9
1100
0010
1100
0010
1100
0010
1100
0010
,  // measure 10
1010
0100
1010
0100
1010
0100
1010
0100
,  // measure 11
1100
0001
1100
0001
1100
0001
1100
0001
,  // measure 12
1010
0100
1010
0100
1010
0100
1010
0100
,  // measure 13
0101
0010
0101
0010
0101
0010
0101
0010
,  // measure 14
0011
0100
0011
0100
0011
0100
0011
0100
,  // measure 15
0101
1000
0101
1000
0101
1000
0101
1000
,  // measure 16
0011
0000
0000
0000
0100
0000
0000
0000
0011
0000
0000
0000
0100
0000
0000
0000
0011
0000
0000
0000
1000
0100
0010
0001
1000
0000
0000
0000
0000
0000
0000
0000
,  // measure 17
1100
0100
0101
0001
1100
0100
0101
0001
,  // measure 18
0011
1000
1001
1000
0011
1000
1001
1000
,  // measure 19
0110
0001
0101
0001
0110
0001
0101
0001
,  // measure 20
1100
0100
0101
0010
1100
0100
0101
0010
,  // measure 21
0110
0100
1010
0100
0110
0100
1010
0100
,  // measure 22
1100
1000
1010
1000
1100
1000
1010
1000
,  // measure 23
0011
0100
1001
0100
0011
0100
1001
0100
,  // measure 24
0001
1000
0100
0010
0001
1000
0000
0011
0111
0000
0000
0000
0110
0000
0000
0000
,  // measure 25
1100
0010
0001
0010
1100
0001
0010
0001
1100
0010
0001
0010
1100
0001
0010
0100
,  // measure 26
0010
0000
1000
0100
1000
0100
1000
0100
0010
0000
0000
0000
0010
0000
0000
0000
,  // measure 27
1010
1010
1010
1010
,  // measure 28
1000
0000
1000
1000
0000
1000
0000
1000
0010
0000
0000
0000
0010
0000
0000
0000
,  // measure 29
1001
1001
1001
1001
,  // measure 30
0001
0010
0001
0010
0001
0000
0010
0000
0011
0000
0000
0000
0011
0000
0000
0000
,  // measure 31
0110
0110
0110
0110
,  // measure 32
0010
0100
0010
0100
0001
1000
0001
1000
0010
0001
1000
0100
0001
0100
0001
1000
,  // measure 33
0110
0100
0011
0001
0110
0100
1010
1000
,  // measure 34
0110
0000
1010
0010
0101
0000
0110
0000
1100
0000
1100
0100
0011
0000
0001
0000
,  // measure 35
1001
1000
1100
0100
0011
0010
0110
0100
,  // measure 36
1001
0000
0011
0000
1010
0100
0001
0100
1010
0100
0001
0010
0101
0000
0100
0000
,  // measure 37
1010
0010
0101
0100
0011
0001
1010
1000
,  // measure 38
0110
0000
0101
0100
1010
0000
0110
0000
0101
0000
0010
0010
1001
0000
0100
0000
,  // measure 39
1100
0100
1001
0001
0110
0100
1010
1000
,  // measure 40
0010
0000
0100
0000
0010
0001
0010
0001
0100
1000
0100
1000
0002
0000
0000
0000
,  // measure 41
1103
0100
1001
0001
1010
1000
0101
0100
,  // measure 42
0011
0000
0011
0010
1100
0000
1100
0000
0101
0000
0110
0010
0101
0000
0001
0000
,  // measure 43
1100
0100
1001
0001
0110
0100
1010
1000
,  // measure 44
0110
0000
0011
0000
1100
0010
0001
0010
1001
0100
1000
0100
0011
0000
0010
0000
,  // measure 45
0101
0100
0011
0010
1001
0001
1100
1000
,  // measure 46
0110
0000
0100
0100
1010
0000
0110
0000
0101
0000
0001
0001
0110
0000
0100
0000
,  // measure 47
1100
1000
0101
0100
1010
1000
0110
0100
,  // measure 48
0002
0000
0000
0000
0000
0000
1003
1000
,  // measure 49
1000
1010
1000
1010
1000
1010
1010
1010
,  // measure 50
1000
1010
1000
1010
1010
1100
1010
0101
,  // measure 51
0001
0101
0001
0101
0001
0101
0101
0101
,  // measure 52
0001
0101
0001
0101
0001
0101
0011
0101
,  // measure 53
1000
1010
1000
1010
1000
1010
1000
1010
,  // measure 54
1000
0000
1010
0000
1000
0000
1010
0000
1110
0000
0000
1110
0000
0000
0111
0000
,  // measure 55
1000
1100
1000
1100
1000
1100
1000
1100
,  // measure 56
0000
0101
0000
0101
0000
0101
0111
0011
,  // measure 57
1000
1010
1000
1010
1000
1010
1010
1010
,  // measure 58
1000
1010
1000
1010
1010
1100
1010
0101
,  // measure 59
0001
0101
0001
0101
0001
0101
0101
0101
,  // measure 60
0001
0101
0001
0101
0001
0101
0011
0101
,  // measure 61
1000
1010
1000
1010
1000
1010
1000
1010
,  // measure 62
1000
0000
1010
0000
1000
0000
1010
0000
1110
0000
0000
1110
0000
0000
0111
0000
,  // measure 63
1000
1100
1000
1100
1000
1100
1000
1100
,  // measure 64
1010
0101
0010
0101
0100
0101
1000
0011
,  // measure 65
1100
1100
1100
1100
1010
1010
1010
1010
,  // measure 66
0110
0110
0110
0110
0101
0101
0101
0101
,  // measure 67
0011
0011
0011
0011
1001
1001
1001
1001
,  // measure 68
1010
1010
1010
1010
0110
0110
0110
0110
,  // measure 69
1000
0000
1000
0100
0010
0000
1000
0100
0010
0000
1000
0100
0001
0000
1000
0100
,  // measure 70
0001
0000
1000
0010
0001
0000
1000
0010
0001
0000
0100
0010
0001
0000
0100
0010
,  // measure 71
0001
0001
0010
0010
0100
0100
1000
1000
0001
0001
0010
0010
0100
0100
1000
1000
,  // measure 72
0001
0001
0100
0100
0010
0010
1000
1000
0001
0100
0010
1000
0001
0100
0010
1000
,  // measure 73
0222
0000
0000
0000
,  // measure 74
0000
0000
0000
0000
,  // measure 75
0000
0000
0000
0000
,  // measure 76
0000
0000
0000
0333
,  // measure 77
0000
0000
1000
0000
0000
0000
0000
0000
0000
0000
0000
0000
0000
0000
0000
0010
0000
0000
0000
0000
0000
0000
0000
0000
0000
0000
0000
0000
0000
0000
0100
0000
0000
0000
0000
0000
0010
0000
0000
0000
0000
0000
0000
0000
0000
0000
0000
0000
0000
0000
0000
0000
0000
0000
0000
0000
0000
0000
0000
0000
0000
0001
0000
0000
,  // measure 78
0000
0000
0000
0000
0000
0000
0000
0000
0000
0000
0000
0000
0000
0000
0000
0000
0000
0000
0000
0000
0000
0000
0000
0001
0000
0000
0000
0000
0000
0000
0000
0000
0000
0000
0000
0000
0000
0000
0000
0000
0000
0000
0000
0000
0000
0000
0000
0000
0000
0000
0000
0000
0000
0000
0000
0001
0000
0000
0000
0000
0000
0000
0000
0000
0000
0000
0000
0000
0000
0000
0000
0000
0000
0000
0000
0000
0000
0000
0000
0000
0000
0001
0000
0000
0000
0000
0000
0000
0000
0000
0000
0000
0000
0000
0000
0000
0000
0000
0000
0000
0000
0000
0000
0000
0000
0000
0000
0000
0000
0000
0000
0000
0000
0000
0000
0000
0000
0000
0000
0000
0000
0000
0000
0000
0000
0000
0000
0000
0000
0000
0000
0000
0000
0000
0000
0000
0000
0000
0000
0000
0000
0000
0000
0000
0000
0000
0000
0000
0000
0000
0000
0000
0000
0000
0000
0000
0000
0000
0000
0000
0000
0000
0000
0000
0000
0000
0000
0000
0000
0000
0000
0000
0000
0000
0000
0000
0000
0000
0000
0000
0000
0000
0000
0000
0000
0000
0000
0000
0000
0000
0000
0000
,  // measure 79
2000
0000
0000
0000
,  // measure 80
0000
0000
0000
0000
,  // measure 81
3200
0000
0000
0000
0000
0000
0000
0000
0302
0000
0000
0023
0000
0000
0000
0000
,  // measure 82
0230
0000
0000
0000
0000
0000
0000
0000
0302
0000
0000
0023
0000
0000
0000
0000
,  // measure 83
0230
0000
0000
0000
0000
0000
0000
0000
0302
0000
0000
0023
0000
0000
0000
0000
,  // measure 84
0230
0000
0000
0000
0000
0000
0000
0000
0302
0000
0000
0023
0000
0000
0000
0000
,  // measure 85
1030
0000
0000
1000
0000
0000
1000
0000
0000
0000
0001
0000
0001
0000
0100
0000
0010
0000
0000
0010
0000
0000
0100
0000
0000
0000
0100
0000
0100
0000
0000
0000
,  // measure 86
1000
0000
0000
0000
0000
0000
0000
0000
0000
0000
0000
0000
0000
0000
0000
0000
0000
0000
1000
0000
0000
0000
0000
0000
0000
0000
0000
0000
0000
0000
0000
0000
0000
0000
0000
0000
1000
0000
0000
0000
0000
0000
0000
0000
0000
0000
0000
0000
0000
0000
0000
0000
0000
0000
0000
0000
0000
0000
0000
0000
0001
0000
0000
0000
0000
0000
0000
0000
0000
0000
0000
0000
0001
0000
0000
0000
0000
0000
0000
0000
0000
0000
0000
0000
0100
0000
0000
0000
0000
0000
0000
0000
0000
0000
0000
0000
0010
0000
0000
0000
0000
0000
0000
0000
0000
0000
0000
0000
0000
0000
0000
0000
0000
0000
0000
0000
0000
0000
0000
0000
0000
0000
0000
0000
1000
0000
0000
0000
0000
0000
0000
0000
1000
0000
0000
0000
0000
0000
0000
0000
0000
0000
0000
0000
0000
0000
0000
1000
0000
0000
0000
0000
0000
0000
0000
0000
0000
0000
0000
0000
0000
0000
0000
0000
0000
0000
0000
0000
0000
0000
0000
0000
0000
0000
0000
0000
0000
0000
0000
0000
0000
0000
0000
0000
0000
0000
0000
0000
0000
0000
0000
0000
,  // measure 87
1000
0000
1000
0000
1000
0000
1000
0000
1000
0001
0000
1000
0001
0000
0100
0000
,  // measure 88
0010
0000
0010
0000
0010
0000
0100
0000
0000
0100
0000
0000
0100
0000
0000
0000
,  // measure 89
1000
0000
1000
0000
1000
0000
1000
0000
1000
0001
0000
1000
0001
0000
0100
0000
,  // measure 90
0010
0000
0010
0000
0010
0000
0100
0000
0000
0100
0000
0000
0100
0000
0000
0000
,  // measure 91
1000
0000
1000
0000
1000
0000
1000
0000
1000
0001
0000
1000
0001
0000
0100
0000
,  // measure 92
0010
0000
0010
0000
0010
0000
0100
0000
0000
0100
0000
0000
0100
0000
0000
0000
,  // measure 93
1000
0000
1000
0000
1000
0000
1000
0000
1000
0001
0000
1000
0001
0000
0100
0000
,  // measure 94
0010
0000
0010
0000
0010
0000
0100
0000
0000
0100
0000
0000
0100
0000
0000
0000
,  // measure 95
1100
0000
1000
0000
1100
0000
1000
0000
1100
0001
0000
1000
0101
0000
0100
0000
,  // measure 96
0011
0000
0010
0000
0011
0000
0100
0000
1010
0100
0000
0000
0110
0000
0000
0000
,  // measure 97
1100
0000
1000
0000
1100
0000
1000
0000
1100
0001
0000
1000
0101
0000
0100
0000
,  // measure 98
0011
0000
0010
0000
0011
0000
0100
0000
1010
0100
0000
0000
0110
0000
0000
0000
,  // measure 99
1100
0000
1100
0000
1100
0000
1100
0000
1100
0001
0110
1000
0011
0000
1100
0000
,  // measure 100
0010
0000
0010
0000
0010
0000
0100
0000
1000
0100
0010
0000
0100
0000
0100
0000
,  // measure 101
0001
0010
0001
0010
0001
0010
0001
0010
0100
1000
0100
1000
0100
1000
0100
1000
,  // measure 102
0001
0001
0001
0001
0000
0000
0110
0000
,  // measure 103
1100
0000
0100
0000
1100
0000
0100
0000
1100
0001
0000
0100
1001
0000
1000
0000
,  // measure 104
0011
0000
0010
0000
0011
0000
1000
0000
0110
1000
0000
0000
1010
0000
0000
0000
,  // measure 105
1100
0000
0100
0000
1100
0000
0100
0000
1100
0001
0000
0100
1001
0000
1000
0000
,  // measure 106
0011
0000
0010
0000
0011
0000
1000
0000
0110
1000
0000
0000
1010
0000
0000
0000
,  // measure 107
1010
0000
1000
0000
1010
0000
1000
0000
1010
0100
0000
1000
0110
0000
0010
0000
,  // measure 108
0101
0000
0001
0000
0101
0000
0010
0000
1001
0010
0000
0000
0011
0000
0000
0000
,  // measure 109
1100
0000
0100
0000
1100
0000
0100
0000
1100
0001
0000
0100
1001
0000
1000
0000
,  // measure 110
0011
0000
0000
0000
0010
0000
0000
0000
0011
0000
0000
0000
1000
0000
0000
0000
0110
0000
1000
0000
0001
1000
0100
0010
1000
0000
0000
0000
0000
0000
0000
0000
,  // measure 111
0011
0000
0010
0000
0011
0000
0010
0000
0011
1000
0000
0010
1001
0000
0001
0000
,  // measure 112
1100
0000
0100
0000
1100
0000
0001
0000
0110
0001
0000
0000
0101
0000
0000
0000
,  // measure 113
0101
0000
0001
0000
0101
0000
0001
0000
0101
0010
0000
0001
0110
0000
0100
0000
,  // measure 114
1010
0000
1000
0000
1010
0000
0100
0000
1001
0100
0000
0000
1100
0000
0000
0000
,  // measure 115
1100
0000
1000
0000
1100
0000
1000
0000
1100
0001
0000
1000
0101
0000
0100
0000
,  // measure 116
0011
0000
0010
0000
0011
0000
0100
0000
1010
0100
0000
0000
0110
0000
0000
0000
,  // measure 117
0101
0000
0100
0000
0101
0000
0100
0000
0101
0010
0000
0100
0011
0000
1000
0000
,  // measure 118
0010
0000
0100
0000
0010
0000
0100
0000
0010
0000
0100
0000
1000
0000
0010
0000
1000
0000
0010
0000
1000
0100
0010
0001
1000
0000
0010
0000
1000
0000
0010
0000
,  // measure 119
1100
0001
0100
0001
1100
0001
0100
0001
1100
0010
0001
0100
1010
0100
1000
0100
,  // measure 120
0011
1000
0001
1000
0011
1000
0100
1000
0011
0100
0010
1000
0110
1000
0100
1000
,  // measure 121
0011
0100
0010
0100
0011
0100
0010
0100
0011
1000
0010
0100
1010
0100
0001
0100
,  // measure 122
1010
0001
0010
0001
1010
0001
0100
0001
1010
0100
0001
0010
1100
0010
0001
0010
,  // measure 123
1001
0100
0010
0100
1001
0100
0010
0100
1001
0010
0001
0100
1010
0100
0010
0100
,  // measure 124
0011
1000
0100
1000
0011
1000
0010
1000
0101
0010
1000
0100
0011
1000
0001
0010
,  // measure 125
1100
0010
0100
0010
1100
0010
0100
0010
1100
0001
0100
0010
0101
1000
0010
1000
,  // measure 126
0011
0100
0010
0100
0010
0100
0001
1000
0011
1000
0001
1100
0001
1000
0011
1000
,  // measure 127
0110
1000
0100
1000
0110
1000
0100
1000
0110
0001
0100
1000
0011
0100
0010
0100
,  // measure 128
1010
0100
1000
0100
1010
0100
0001
0100
1010
0001
0100
0010
1001
0010
0100
0010
,  // measure 129
0101
0010
0001
0010
0101
0010
0001
0010
0101
1000
0010
0100
1001
0010
0100
1000
,  // measure 130
0110
0001
0010
0001
0110
0001
0100
1000
0011
0100
1000
0001
0110
1000
0100
0010
,  // measure 131
1001
0010
0100
0010
1001
0010
0100
0010
1001
0100
0010
0001
1100
0010
0100
0010
,  // measure 132
1001
0010
1000
0010
1001
0010
0100
0010
1001
0100
0010
0001
1100
0010
0100
0001
,  // measure 133
1010
0100
0001
0100
1010
0100
0001
0100
1010
0001
0010
0100
1001
0100
1000
0100
,  // measure 134
0011
1000
0001
1000
0111
1000
0010
1000
0111
0000
0000
0000
0000
0000
0000
0000
,  // measure 135
1101
1101
1101
1101
1101
0000
0000
1110
,  // measure 136
0000
1110
0000
1110
0111
1110
0111
1110
,  // measure 137
1011
1011
1011
1011
1011
0000
1011
1011
,  // measure 138
0000
1011
0000
1011
1011
1101
1011
1101
,  // measure 139
1101
0010
1101
0010
,  // measure 140
1000
0000
0000
0000
1000
0000
0000
0000
1000
0000
0000
0000
1000
0000
0000
0000
1000
0000
0010
0000
1000
0000
0010
0000
1000
0100
0010
0001
1000
0100
0010
0001
,  // measure 141
1100
0010
1000
0010
1100
0010
1000
0010
1100
0001
0010
1000
0011
1000
0100
1000
,  // measure 142
0110
0001
0010
0001
1010
0001
0100
0001
1010
0100
0010
1000
0110
1000
0001
1000
,  // measure 143
0101
0010
0100
0010
0101
0010
0100
0010
0101
1000
0001
0100
1010
0100
0010
0100
,  // measure 144
0011
0100
0001
0100
0011
0100
0010
0100
1001
0010
0100
0001
0110
1000
0001
0100
,  // measure 145
1010
0100
0010
0100
1010
0100
0010
0100
1010
0100
0001
0010
1100
0010
0001
0010
,  // measure 146
1100
0010
1000
0010
1100
0010
0001
0010
1100
0001
0010
0100
1001
0010
0100
0010
,  // measure 147
0101
1000
0001
1000
0101
1000
0001
1000
0101
0010
1000
0001
0110
0001
1000
0010
,  // measure 148
1100
0000
0010
0000
0100
0000
0010
0000
1100
0000
0010
0000
1000
0000
0001
0000
0110
0000
1000
0000
0010
0100
0001
0010
1000
0000
0100
0000
1000
0000
0100
0000
,  // measure 149
0011
0100
0001
0100
0011
0100
0001
0100
1001
0100
0010
0001
1100
0010
0001
0010
,  // measure 150
1001
0100
1000
0100
1001
0100
0010
0100
1001
0010
0100
1000
0011
0100
0010
0100
,  // measure 151
1010
0001
0100
0001
1010
0001
0100
0001
1010
0100
0010
0001
1100
0010
1000
0010
,  // measure 152
1001
0100
0001
0100
0011
0100
0010
0100
1001
0010
0001
0100
0011
0100
0010
1000
,  // measure 153
0101
0010
0100
0010
0101
0010
0100
0010
0101
1000
0001
0100
1010
0001
0010
1000
,  // measure 154
0110
0001
0100
0001
0110
0001
0010
0001
1100
0010
0001
1000
0110
0001
0010
0001
,  // measure 155
1000
0100
1000
0100
1000
0100
1000
0100
1000
0001
0100
1000
0001
1000
0100
1000
,  // measure 156
0011
0000
0010
0000
0010
0000
0100
0000
0000
0100
0000
0000
0100
0000
0000
0000
,  // measure 157
1100
0000
0100
0000
1100
0000
0100
0000
1100
0001
0000
0100
1001
0000
0100
0000
,  // measure 158
0011
0000
0010
0000
0011
0000
1000
0000
0011
1000
0000
0000
1010
0000
0000
0000
,  // measure 159
0101
0000
0001
0000
0101
0000
0001
0000
0101
1000
0000
0001
1100
0000
0010
0000
,  // measure 160
0101
0000
0100
0000
0101
0000
0010
0000
0101
0010
0000
0000
0110
0000
0000
0000
,  // measure 161
0110
0000
0100
0000
0110
0000
0100
0000
0110
0001
0000
0100
0011
0000
1000
0000
,  // measure 162
1010
0000
0010
0000
1010
0000
0100
0000
1010
0100
0000
0000
1100
0000
0000
0000
,  // measure 163
0011
0000
0010
0000
0011
0000
0010
0000
0011
0100
0000
0010
0101
0000
0001
0000
,  // measure 164
1010
0000
1000
0000
1000
0000
0010
0000
1001
0010
0000
1001
0010
0000
1001
0000
,  // measure 165
0110
0000
0010
0000
0110
0000
0010
0000
0110
0001
0000
0010
0101
0000
1000
0000
,  // measure 166
0110
0000
0100
0000
0110
0000
1000
0000
0101
1000
0000
0000
1100
0000
0000
0000
,  // measure 167
0101
0000
0100
0000
0101
0000
0100
0000
0101
1000
0000
0100
1001
0000
0001
0000
,  // measure 168
1010
0000
0010
0000
1010
0000
0001
0000
1010
0001
0000
0000
1001
0000
0000
0000
,  // measure 169
1001
0000
1000
0000
1001
0000
1000
0000
1001
0010
0000
1000
0011
0000
0100
0000
,  // measure 170
0011
0000
0001
0000
0011
0000
0100
0000
0011
0100
0000
0000
0110
0000
0000
0000
,  // measure 171
1100
0000
1100
0000
1100
0000
1100
0000
1100
0011
1100
0011
1100
0000
0100
0100
,  // measure 172
1100
0000
0000
0000
1110
0000
0000
0000
1110
0000
0000
0000
1110
0000
0000
0000
0000
0000
1110
0000
0000
0000
0000
0000
1000
0100
0010
0001
1000
0100
0010
0001
,  // measure 173
1000
0000
0000
0000
0000
0000
0000
0000
0000
0000
0000
0000
0000
0000
0000
0000
0000
0000
0000
0000
0000
0000
0000
0000
0000
0000
0000
0000
0000
0000
0000
0000
0000
0000
0000
0000
0000
0000
0000
0000
0000
0000
0000
0000
0000
0000
0000
0000
0000
0000
0000
0000
0000
0000
0000
0000
0000
0000
0000
0000
0000
0000
0000
0000
0000
0000
0000
0000
0000
0000
0000
0000
0000
0000
0000
0000
0000
0000
0000
0000
0000
0000
0000
0000
0000
0000
0000
0000
0000
0000
0000
0000
0000
0000
0000
0000
0000
0000
0000
0000
0000
0000
0000
0000
0000
0000
0000
0000
0000
0000
0000
1000
0000
0000
0000
0000
0000
0000
0000
0000
0000
0000
0000
0000
0000
0000
0000
0000
0000
0000
0000
0000
0000
0000
0000
0000
0000
0000
0000
0000
0000
0000
0000
0000
0000
0000
0000
0000
0000
0000
0000
0000
0000
0000
0000
0000
0000
0000
0000
0000
0000
0000
0000
0000
0010
0000
0000
0000
0000
0000
0000
0000
0000
0000
0000
0000
0000
0000
0000
0000
0000
0000
0000
0000
0000
0000
0000
0000
0000
0000
0000
0000
,  // measure 174
0000
0000
0000
0000
0000
0000
0000
0000
0000
0000
0000
0000
0000
0000
0000
0000
0000
0000
0000
0000
0000
0000
0000
0000
0000
0000
0000
0000
0000
0000
0000
0000
0000
0000
0000
0000
0000
0000
0000
0000
0000
0000
0000
0000
0000
0000
0000
0000
0000
0000
0000
0000
0000
0000
0000
0000
0000
0000
0000
0000
0000
0000
0000
0000
0000
0000
0000
0000
0000
0000
0000
0000
0000
0000
0000
0000
0000
0000
0000
0000
1000
0000
0000
0000
0000
0000
0000
0000
0000
0000
0000
0000
0000
0000
0000
0000
0000
0000
0000
0000
0000
0000
0000
0000
0000
0000
0000
0000
0000
0000
0000
0000
0000
0000
0000
0000
0000
0001
0000
0000
0000
0000
0000
0000
0000
0000
0000
0000
0000
0000
0000
0000
0000
0000
0000
0000
0000
0000
0000
0000
0000
0000
0000
0000
0000
0000
0000
0000
0000
0000
0000
0000
0000
0000
0000
0000
0000
0000
0000
0000
0000
0000
0001
0000
0000
0000
0000
0000
0000
0000
0000
0000
0000
0000
0000
0000
0000
0000
0000
0000
0000
0000
0000
0000
0000
0000
0000
0000
0000
0000
0000
0000
,  // measure 175
0000
0000
0000
0000
0000
0000
0000
0000
0000
0000
0000
0000
0000
0000
0000
1010
0000
0000
0000
0000
0000
0000
0000
0000
1010
0000
0000
0000
0000
0000
0000
0000
,  // measure 176
0000
0000
0000
0000
,  // measure 177
2002
0000
0000
0000
,  // measure 178
0000
0000
0000
0000
,  // measure 179
0000
0000
0000
0000
,  // measure 180
3003
0000
0000
0000
;
