#TITLE:DA MANCO;
#SUBTITLE:DJ CHUCKY REMIX;
#ARTIST:DJ Sharpnel (guhroovey);
#TITLETRANSLIT:;
#SUBTITLETRANSLIT:;
#ARTISTTRANSLIT:;
#CREDIT:;
#BANNER:DA MANCO Japanese.PNG;
#BACKGROUND:DA MANCO Japanese-bg.PNG;
#LYRICSPATH:;
#CDTITLE:;
#MUSIC:DA MANCO (DJ CHUCKY REMIX).MP3;
#OFFSET:-1.219;
#SAMPLESTART:53.150;
#SAMPLELENGTH:12.974;
#SELECTABLE:YES;
#BPMS:0.000=148.000;
#STOPS:;
#BGCHANGES:;

//---------------dance-single - ----------------
#NOTES:
     dance-single:
     :
     Hard:
     11:
     0.971,1.000,0.808,0.347,0.725:
0001
1000
0001
0100
0010
1000
0100
0010
,
0101
1001
0101
1001
,
1000
0100
1000
0001
1000
0010
1000
0001
,
1010
0110
0101
1100
,
0001
0100
1000
0100
0001
0010
0100
1000
,
0021
0001
0001
0001
,
1030
0001
0100
1000
0001
1000
0100
0001
,
1020
0100
1000
0100
,
1030
1100
0000
0101
,
0000
0011
0000
1010
,
0000
0110
0000
1001
,
0000
0011
0000
1100
,
1000
0100
1000
0000
0001
0010
0001
0000
1000
0010
1000
0000
0001
0100
0001
0000
,
1000
0100
0010
0000
0001
0100
0010
0000
0100
1000
0010
0000
0100
0001
0010
0000
,
0001
0100
1000
0000
1000
0100
0001
0000
0010
1000
0001
0000
0100
0001
1000
0000
,
0001
1000
0001
1000
0001
1000
0001
1000
0001
0000
0100
0010
0200
0000
0000
0000
,
0301
0000
1000
0100
1000
0010
0100
0002
0000
0000
0013
0001
0010
0001
0010
0002
,
0000
0000
0103
1000
0100
1000
0100
2000
0000
0000
3001
0010
0100
1000
0010
0200
,
0000
0000
0301
0100
1000
0100
0001
0020
0000
0000
1030
0001
0010
0100
0001
2000
,
0000
0000
3010
0100
0001
0010
1000
0002
0000
0000
0103
1000
0001
0100
0001
0100
,
0011
0000
0001
0010
0100
1000
0100
0020
0000
0000
1030
0100
0010
0001
0100
0002
,
0000
0000
1003
0100
0010
0100
0001
0020
0000
0000
1030
0001
0100
0010
1000
0002
,
0000
0000
0013
0100
0010
1000
0001
2000
0000
0000
3001
0100
1000
0100
0001
0200
,
0000
0000
0301
0100
0010
1000
0100
0020
0000
0000
0130
1000
0010
0100
0001
0010
,
0101
0100
0001
0100
0001
0100
0001
0100
0001
0100
0001
0100
0001
0100
0001
0100
,
0010
1000
0010
1000
0010
1000
0010
1000
0010
1000
0010
1000
0010
1000
0010
1000
,
0100
0010
0100
0010
0100
0010
0100
0010
0100
0010
0100
0010
0100
0010
0100
0010
,
0001
0010
0001
0010
0001
0010
0001
0010
0001
0010
0001
0010
0001
0010
0001
0010
,
0001
1000
0001
0100
0001
0010
0100
0010
0100
1000
0100
0010
0100
1000
0010
0100
,
0001
0010
0001
0010
0100
1000
0100
0010
0001
0100
0010
1000
0001
0010
0100
1000
,
0001
1000
0001
1000
0001
1000
0100
0010
0001
1000
0001
0100
0010
0100
1000
0010
,
0001
0010
0100
0010
0001
0010
0100
0010
0001
0000
1000
0100
0020
0000
0000
0030
,
1010
1001
0101
1001
,
0011
0110
0011
0011
,
1010
0101
1010
0101
,
1001
0110
0101
1100
,
2100
0100
0100
3100
,
0102
1000
0100
1003
,
0201
0001
1000
0310
,
1020
0100
0001
0130
,
0011
0000
0001
0010
0011
0000
0010
0000
1010
0000
1000
0000
1001
0000
0001
0000
,
0101
0000
1000
0001
0110
0000
0100
0000
1100
0000
0100
0000
0011
0000
0100
0000
,
1001
0000
0010
0100
1001
0000
0100
0000
1001
0000
0010
0000
1001
0000
0100
0000
,
1100
0000
1000
0100
1100
0000
0100
0000
0101
0000
0100
0000
1100
0000
0100
0000
,
1010
0000
1000
0010
0101
0000
1000
0000
0110
0000
0001
0000
1010
0000
0100
0000
,
1001
0000
0100
0010
1001
0000
0010
0000
1100
0000
0010
0000
0101
0000
0010
0000
,
0011
0000
0100
1000
1100
0000
0001
0000
0011
0000
0010
0000
1100
0000
0100
0000
,
1001
0000
1000
0001
1001
0000
0100
0000
0110
0000
1000
0000
0101
0000
1000
0000
,
1200
0000
1000
0000
0000
0000
0001
0000
0300
0000
1000
0000
0001
0100
0002
0000
,
2103
0100
0000
0001
0000
0100
0000
3001
,
0011
0000
0002
0000
0000
0000
0103
0000
0000
0000
0000
0001
0010
0000
0100
0000
,
1001
0000
2002
3003
0000
0000
1001
0000
0010
0000
1000
0010
0200
0000
0000
0000
,
1300
0010
1000
0100
0010
0001
0100
0010
1000
0100
0010
0100
0010
0001
0010
0100
,
0010
0100
1000
0001
0010
0100
1000
0001
0010
0100
1000
0001
0010
0100
1000
0001
,
1000
0100
0010
0001
1000
0010
0100
0001
0010
0001
0100
0010
1000
0010
0100
0001
,
1000
0001
1000
0001
1000
0001
1000
0001
0100
0000
0010
1000
0002
0000
0000
0003
,
0012
1003
0100
0001
,
2010
3001
1000
0100
,
2100
3001
0010
1000
,
0210
1300
0001
1000
,
0120
1030
0110
0101
,
1200
1300
1100
1001
,
0201
0301
1100
0101
,
1020
0130
0021
0130
,
1000
0100
0001
0100
1000
0010
0001
0010
,
0100
1000
0100
0001
0010
1000
0010
0001
,
0010
0100
1000
0010
0001
1000
0100
0001
,
0001
0001
0100
0100
1000
1000
0010
0010
,
0001
0010
0100
0010
1000
0100
0010
0100
,
1000
0010
0100
0021
0030
0100
1000
0010
,
0100
0001
0010
0001
0100
0010
1000
0100
,
0001
0010
0001
0100
1000
0001
0010
0100
,
0110
0000
1000
1000
0020
0000
1030
0000
0020
0000
1030
0000
0020
0000
1030
0000
,
1100
0000
0001
0001
2000
0000
3001
0000
2000
0000
3001
0000
2000
0000
3001
0000
,
0101
0000
0100
0100
0020
0000
1030
0000
0020
0000
1030
0000
0020
0000
1030
0000
,
1001
0000
1000
1000
0200
0000
0301
0000
0200
0000
0301
0000
0200
0000
0301
0000
,
0011
0000
0001
0001
2000
0000
3100
0000
2000
0000
3100
0000
2000
0000
3100
0000
,
1100
0000
0010
0010
0002
0000
1003
0000
0002
0000
1003
0000
0002
0000
1003
0000
,
0110
0000
0001
0001
0200
0000
0301
0000
0200
0000
0301
0000
0200
0000
0301
0000
,
1001
0000
0010
0010
2000
0000
3010
0000
2000
0000
3010
0000
2002
0000
0000
3003
,
1010
0000
0001
1000
1010
0000
0010
0000
0110
0000
0100
0000
0101
0000
0001
0000
,
0011
0000
0100
0001
1001
0000
1000
0000
1001
0000
0001
0000
1001
0000
1000
0000
,
1001
0000
0010
0100
0101
0000
0001
0000
0011
0000
0010
0000
1010
0000
0010
0000
,
1100
0000
0100
1000
1001
0000
1000
0000
1100
0000
1000
0000
1001
0000
1000
0000
,
0101
0000
0010
0100
0101
0000
0100
0000
0110
0000
0001
0000
1010
0000
0100
0000
,
1001
0000
1000
0010
1100
0000
0001
0000
1010
0000
0100
0000
0011
0000
1000
0000
,
0110
0000
0001
0100
1001
0000
0100
0000
1001
0000
0100
0000
1001
0000
0100
0000
,
1100
0000
1000
0001
1100
0000
0001
0000
1010
0000
0100
0000
1001
0000
1000
0000
,
0100
0010
0001
1000
0001
0010
0100
1000
0100
0010
0001
0010
0100
1000
0100
0010
,
0001
0010
0100
1000
0010
0100
0001
1000
0100
0010
0001
0100
0010
1000
0001
0100
,
0010
0100
0001
0010
0001
0100
0010
1000
0001
0010
0100
1000
0100
1000
0010
0100
,
0001
1000
0010
1000
0100
0010
0001
0100
0010
1000
0100
0001
0100
1000
0100
0010
,
0100
0010
0100
0010
0100
0010
0001
1000
0010
0100
0010
0100
0010
0100
0001
1000
,
0010
1000
0010
0100
0001
0100
0010
0100
0010
1000
0100
0010
0001
0010
0100
1000
,
0001
0100
0010
1000
0001
0010
0100
1000
0001
0100
0010
1000
0001
0010
0100
1000
,
2002
0000
0000
3003
,
1000
0001
0010
0100
1000
0010
0100
0001
,
0010
0001
0100
0010
1000
0100
0001
1000
,
0100
1000
0010
1000
0100
0010
0001
0100
,
0001
0010
1000
0100
0010
0001
0100
1000
,
0100
0001
1000
0100
0010
0001
0010
0001
,
1000
0010
0001
0010
1000
0100
0001
0100
,
0010
0100
0001
1000
0001
1000
0010
0100
,
2000
0000
0001
0000
0001
0000
0001
0000
3001
0000
0010
0100
0020
0000
0000
0000
,
1030
0100
1000
0100
1000
0001
1000
0001
,
0010
0001
0010
0100
1000
0100
0010
0001
,
1000
0010
1000
0010
0100
0001
0100
0001
,
0100
0100
0001
0001
1000
1000
0001
0001
,
1000
0010
0100
1000
0001
0100
0010
0001
,
0100
0001
0010
0100
1000
0001
0010
0100
,
1010
0100
1010
0001
1010
0100
1010
0001
,
0011
0000
0011
0000
1001
0000
1001
0000
0110
0000
0100
0010
0200
0000
0000
0300
,
1100
0010
1001
0010
1100
0010
1001
0010
,
1010
0001
0010
0100
0001
0100
0010
0001
,
0011
1000
0110
1000
0011
1000
0110
1000
,
0101
0010
0100
1000
0001
0010
0100
1000
,
1010
0100
1001
0100
1010
0100
1001
0100
,
0011
1000
0001
1000
0001
1000
0001
1000
,
1001
0010
0101
0010
1001
0010
0101
0010
,
1100
0000
1100
0000
1010
0000
1010
0000
1001
0000
1000
0001
2000
0000
0000
0000
,
3010
1000
0001
0010
0100
1000
0100
0010
0001
1000
0010
0100
0001
0010
0100
1000
,
0001
0100
0001
0100
1000
0100
1000
0100
0001
0010
0001
0010
1000
0010
1000
0010
,
0100
1000
0010
0100
0001
0010
0001
0100
0010
1000
0100
0010
0100
1000
0010
0100
,
0010
1000
0010
0100
0001
1000
0100
0010
0001
1000
0001
1000
0001
0100
0001
0100
,
0010
0100
0010
1000
0100
0010
0100
0010
0001
1000
0001
0010
0100
1000
0100
0010
,
0001
0100
0001
0010
0001
0100
0010
1000
0100
1000
0010
0100
0001
0010
0001
0100
,
0010
1000
0100
0010
0001
0010
0100
1000
0010
1000
0100
0010
0100
1000
0010
0001
,
0010
0100
0001
1000
0010
0100
0001
1000
0001
0010
0100
1000
0001
0100
0010
1000
,
2002
0000
0000
0000
,
3003
0000
0000
0000
;
