#TITLE:Annihilation 999;
#SUBTITLE:;
#ARTIST:KyvoX;
#TITLETRANSLIT:;
#SUBTITLETRANSLIT:;
#ARTISTTRANSLIT:;
#CREDIT:;
#BANNER:Annihilation 999.PNG;
#BACKGROUND:Annihilation 999-bg.PNG;
#LYRICSPATH:;
#CDTITLE:;
#MUSIC:KyvoX_-_Annihilation_999_(Dubstep).mp3;
#OFFSET:-0.023;
#SAMPLESTART:78.280;
#SAMPLELENGTH:12.040;
#SELECTABLE:YES;
#BPMS:0.000=159.480;
#STOPS:;
#BGCHANGES:24.000=Clockwork wormhole.avi=0.500=1=0=1,
60.000=Clockwork wormhole.avi=0.000=0=0=1,
64.000=Soul Mirror.avi=1.000=0=0=1,
124.000=Soul Mirror.avi=0.000=0=0=1,
128.000=Great Clock.avi=1.000=0=0=1,
192.000=Pulsar.avi=0.500=1=0=1,
204.000=Pulsar.avi=0.000=0=0=1,
208.000=Golden Mechanism.avi=1.000=0=0=1,
240.000=Fibers of Reality.avi=1.000=0=1=1,
270.000=Fibers of Reality.avi=0.000=0=0=1,
272.000=Cogs of Destiny.avi=1.000=0=0=1,
320.000=Blue_Tunnel_of_Rings.avi=1.000=0=0=1,
324.000=Fire_Tunnel.avi=1.000=0=0=1,
328.000=Lightning1.avi=1.000=0=0=1,
332.000=Blue_Tunnel_of_Rings.avi=0.500=0=0=1,
336.000=Celestial Knitters.avi=0.500=0=0=1,
350.000=Celestial Knitters.avi=0.000=0=0=1,
352.000=Centipedes.avi=1.000=0=0=1,
384.000=winamp_visualization.avi=1.000=0=0=1,
416.000=Fibers of Reality.avi=1.000=0=0=1,
448.000=Clockwork wormhole.avi=1.000=0=0=1,
480.000=Digital Night.avi=1.000=0=0=1,
540.000=Black Back.PNG=1.000=1=0=1,
544.000=Bamboo.avi=0.500=1=0=1,
608.000=Black Back.PNG=1.000=1=0=1,
652.000=Annihilation 999-bg.PNG=1.000=1=0=1,
99999=-nosongbg-=1.000=0=0=0 // don't automatically add -songbackground-
;

//---------------dance-single - ----------------
#NOTES:
     dance-single:
     :
     Hard:
     10:
     0.728,1.000,0.588,0.250,0.679: // measure 1
0001
0001
0001
0001
,  // measure 2
0001
0001
0001
0001
,  // measure 3
0001
0001
0001
0001
,  // measure 4
0001
0001
0001
0001
,  // measure 5
1000
1000
1000
1000
,  // measure 6
1000
1000
1000
1000
,  // measure 7
1000
1000
1000
1000
,  // measure 8
1000
1000
0010
0010
,  // measure 9
0010
0010
0010
0010
,  // measure 10
2000
0000
3020
0000
,  // measure 11
0030
0000
0000
0000
0000
0000
0000
0200
0000
0000
0000
0000
0000
0000
0000
0000
,  // measure 12
2000
0000
0000
0300
0000
0000
0000
0000
0000
0000
0000
0000
0000
0000
0000
0000
0000
0000
0100
0000
3000
0000
0000
0000
0000
0000
0020
0000
0000
0000
0000
0000
0000
0000
0000
0000
0000
0000
0002
0000
0030
0000
0000
0000
0000
0000
0000
0000
,  // measure 13
0000
0000
0000
0000
0000
0000
0000
0000
0000
0000
0000
0000
0000
0200
0000
0003
0000
0000
0000
0000
0000
0000
0000
0000
0000
0000
0000
0000
0000
0320
0000
0000
0000
0000
0000
0000
0000
0000
0000
0000
0000
0000
0000
0030
2000
0000
0000
0000
,  // measure 14
0000
0000
0000
0000
0000
0000
0000
0000
0000
0000
0000
0000
0000
3000
0000
0020
0000
0000
0000
0000
0000
0000
0000
0000
,  // measure 15
0000
0000
0000
0000
0000
0000
0000
0000
0000
0000
0000
0000
0000
0000
0000
0000
0000
0000
0000
0000
0000
0000
0000
0000
0000
0000
0000
0000
0000
0000
0000
0000
0000
0000
0000
0000
0000
0000
0000
0000
0000
0000
0000
0000
0000
0000
0000
0002
,  // measure 16
0030
0000
0000
0000
0000
0000
0000
0000
0000
0000
0000
0000
0000
0000
0000
0003
,  // measure 17
0100
1000
0100
1000
0100
0000
0100
0000
1100
0000
0100
0000
0010
0000
0010
0000
,  // measure 18
0001
0001
0010
0100
1000
0100
1000
0100
,  // measure 19
0001
0010
0100
1000
0000
0000
1000
0100
0010
1000
0100
0010
,  // measure 20
1000
0100
0010
0001
1000
0100
0001
1000
0010
0001
0100
0010
,  // measure 21
1000
0001
1000
0001
1000
0000
0100
0000
0011
0000
1000
0000
1000
0000
1000
0000
,  // measure 22
0010
0010
0100
0100
0001
0001
1000
1000
,  // measure 23
0001
0100
0010
1000
0000
0010
1000
0001
1000
0001
0100
0010
,  // measure 24
0001
1000
0010
0100
0010
0001
1000
0100
0010
0001
0100
0010
,  // measure 25
1000
0001
1000
0001
1000
0001
1000
0001
0100
0010
0100
0010
0100
0010
0100
0010
,  // measure 26
1000
0000
0000
0000
0000
0000
0000
0000
1000
0000
0000
0000
0000
0000
0000
0000
0001
0000
0000
0000
0010
0000
0000
0000
0000
0000
0000
0000
0010
0000
0000
0000
0001
0000
0000
0000
0000
0000
0000
0000
0001
0010
0100
1000
0000
0000
0000
0000
0000
0000
0000
0000
0000
0000
0000
0000
0110
0000
0000
0000
0000
0000
0000
0000
,  // measure 27
0010
0100
0010
0100
0010
0100
0010
0100
0001
1000
0001
1000
0001
1000
0001
1000
,  // measure 28
0001
0000
0000
0000
0100
0000
0000
0000
0010
0000
0000
0000
1000
0000
0000
0000
0000
0100
0000
0000
0000
0000
0010
0000
0001
0000
0000
0000
1000
0000
0000
0000
0100
0000
0000
0000
0010
0000
0000
0000
0000
0000
0000
0000
0000
0000
0000
0000
,  // measure 29
1000
0100
1000
0100
1000
0100
1000
0100
0001
0100
0001
0100
0001
0100
0001
0100
,  // measure 30
0010
0000
0010
0000
0010
1000
0000
0010
1000
0000
2000
0000
3000
0000
0110
0000
,  // measure 31
0001
1000
0001
1000
0001
1000
0001
1000
0001
1000
0001
1000
0001
1000
0001
1000
,  // measure 32
0010
0000
0000
0100
0000
0000
0010
0000
0000
0100
0000
0000
0010
0000
0000
0000
,  // measure 33
1000
0000
0100
0000
0010
0000
0001
0010
0100
0000
0000
0000
1000
0000
0000
0000
1100
0000
0000
0000
0100
0000
0000
0000
0100
0000
0000
0000
0100
0000
0000
0000
,  // measure 34
0002
0003
0002
0003
2000
3000
2000
3000
0020
0030
0020
0030
0200
0300
0200
0300
,  // measure 35
0002
0000
0000
0023
0000
0000
0032
0000
0000
2003
0000
0000
3200
0000
0000
0300
0000
0000
0010
0000
0000
0000
0000
0000
1000
0000
0000
0000
1000
0000
0000
0000
0100
0000
0000
0000
0100
0000
0000
0000
0010
0000
0000
0000
1000
0000
0000
0000
,  // measure 36
0100
0100
0010
0010
1000
0100
0010
0010
0001
0001
0100
0010
,  // measure 37
2000
3200
2300
3200
2300
3000
0100
0000
0001
0000
1000
0000
0100
0000
1000
0000
,  // measure 38
0001
0100
0001
1000
0100
1000
0100
1000
,  // measure 39
0001
0000
0010
0000
0100
0000
1000
0000
0000
0001
0000
0000
0010
0000
0000
0000
0100
0000
0000
0000
1000
0000
0000
0000
0001
0000
0000
0000
1000
0000
0000
0000
0100
0000
0000
0000
0010
0000
0000
0000
0001
0000
0000
0000
0100
0000
0000
0000
,  // measure 40
0010
1000
0100
0010
0001
1000
0100
0010
0001
1000
0100
0010
,  // measure 41
1000
0100
1000
0100
1000
0100
1000
0100
1000
0100
1000
0100
1000
0100
1000
0100
,  // measure 42
0011
0000
0011
0000
0011
2200
0000
3300
0011
0000
0011
0000
1001
0000
0000
0000
,  // measure 43
0010
0100
0010
0100
0010
0100
0010
0100
0010
0100
0010
0100
0010
0100
0010
0100
,  // measure 44
0010
0000
0000
0000
1000
0000
0000
0000
0100
0000
0000
0000
0010
0000
0000
0000
0000
1000
0000
0000
0000
0000
0100
0000
0010
0000
0000
0000
1000
0000
0000
0000
0010
0000
0000
0000
0001
0000
0000
0000
0000
0000
0000
0000
0000
0000
0000
0000
,  // measure 45
1000
0100
0010
0100
1000
0000
0001
0000
1000
0000
0000
0000
1100
0000
1001
0000
,  // measure 46
0110
0000
0011
0000
0110
0000
0101
0110
,  // measure 47
1001
0000
1100
0000
1100
0000
0101
0011
,  // measure 48
1010
0000
1010
0000
1010
0000
1010
1010
,  // measure 49
1000
1000
1000
1000
0100
0100
0100
0100
,  // measure 50
0010
0010
0010
0010
0001
0001
0001
0001
,  // measure 51
0100
0100
0100
0100
0010
0010
0010
0010
,  // measure 52
0000
0000
0000
0000
,  // measure 53
1100
0000
1100
0000
0101
0101
0010
0000
,  // measure 54
0100
0100
0001
0001
1000
1000
1001
0000
,  // measure 55
0011
0000
0000
0011
0000
0000
1000
0100
0010
0000
0000
0000
,  // measure 56
1000
0100
0010
1000
0100
0001
1000
0010
0001
0000
0000
0000
,  // measure 57
0100
1000
0100
0000
1010
1010
0001
0000
,  // measure 58
1000
0100
1000
0100
1000
0100
1001
0000
,  // measure 59
0011
0000
0000
0110
0000
0000
0001
0100
0010
0000
0000
0000
,  // measure 60
0100
0010
1000
0100
1000
0010
0100
0001
0010
0000
0000
0000
,  // measure 61
1001
0000
0000
0000
1100
0000
0000
0000
0002
0003
0002
0003
1100
0000
0000
0000
,  // measure 62
0002
0003
0002
0003
0002
0003
0002
0003
0002
0003
0002
0003
1100
0000
0000
0000
,  // measure 63
0101
0000
0000
1010
0000
0000
1000
0010
0001
0000
0000
0000
,  // measure 64
0100
0010
0100
0010
1000
0001
0100
0010
0100
0000
0000
0000
,  // measure 65
0001
0100
0001
0100
0001
0100
0001
0100
0001
0100
0001
0100
2002
0000
3003
0000
,  // measure 66
0010
0000
0010
0000
0010
0010
0000
0010
0010
0000
0020
0000
0030
0000
0110
0000
,  // measure 67
1000
0001
1000
0001
1000
0001
1000
0001
1000
0001
1000
0001
0220
0000
0330
0000
,  // measure 68
1000
0000
0000
0000
0000
0000
0000
0000
0000
0000
0000
0000
0000
0000
0000
0000
0010
0000
0000
0000
0000
0000
0000
0000
0000
0000
0000
0000
0000
0000
0000
0000
0100
0000
0000
0000
0000
0000
0000
0000
0000
0000
0000
0000
0000
0000
0000
0000
0001
0000
0000
0000
0000
0000
0000
0000
0000
0000
0000
0000
0000
0000
0000
0000
0000
0000
0000
0000
0010
0000
0000
0000
0000
0000
0000
0000
0000
0000
0000
0000
0000
0000
0000
0000
0000
0000
0000
0100
0000
0000
0000
0000
0000
0000
0000
0000
1000
0000
0000
0000
0000
0000
0000
0000
0000
0000
0000
0000
0000
0000
0000
0000
0100
0000
0000
0000
0000
0000
0000
0000
0000
0000
0000
0000
0000
0000
0000
0000
0010
0000
0000
0000
0000
0000
0000
0000
0000
0000
0000
0000
0000
0000
0000
0000
0001
0000
0000
0000
0000
0000
0000
0000
0000
0000
0000
0000
0000
0000
0000
0000
0000
0000
0000
0000
0000
0000
0000
0000
0000
0000
0000
0000
0000
0000
0000
0000
0000
0000
0000
0000
0000
0000
0000
0000
0000
0000
0000
0000
0000
0000
0000
0000
,  // measure 69
1100
0000
1100
0000
1001
1001
0010
0000
,  // measure 70
0100
1000
0100
1000
0100
1000
0011
0000
,  // measure 71
1010
0000
0000
0101
0000
0000
1000
1000
1000
0010
0000
0000
,  // measure 72
0100
0100
0100
0010
0010
0010
0001
0001
0001
0000
0000
0000
,  // measure 73
0101
0000
0101
0000
1100
1100
0010
0000
,  // measure 74
0001
0010
0001
0001
1000
1000
0110
0000
,  // measure 75
1100
0000
0000
1001
0000
0000
0010
0010
0100
1000
0000
0000
,  // measure 76
1000
0001
0100
1000
0010
0100
0010
0001
1000
0000
0000
0000
,  // measure 77
1100
0000
0000
0000
1100
0000
0000
0000
0002
0003
0002
0003
1100
0000
0000
0000
,  // measure 78
2000
3000
2000
3000
2000
3000
2000
3000
2000
3000
2000
3000
0101
0000
0000
0000
,  // measure 79
0011
0000
0000
0200
0000
0000
1300
1000
0010
0101
0000
0000
,  // measure 80
1000
0100
0010
1000
0100
0010
0100
0010
0001
0000
0000
0000
,  // measure 81
1000
1000
1000
1000
1000
1000
0000
0000
,  // measure 82
0100
0100
0100
0100
0100
0100
0000
0000
,  // measure 83
0010
0010
0010
0010
0010
0010
0000
0000
,  // measure 84
0001
0001
0001
0001
0001
0001
0000
0000
,  // measure 85
2000
0000
0000
0000
,  // measure 86
3200
0000
0000
0000
,  // measure 87
0320
0000
0000
0000
,  // measure 88
0032
0000
0000
0000
,  // measure 89
1003
0100
1000
0000
1100
0000
0010
0000
0011
0000
0011
0000
1000
0000
0000
0000
,  // measure 90
0001
0010
0010
0100
1001
1100
0000
0000
,  // measure 91
0100
0000
0000
0010
0000
0000
0100
0000
0000
0000
0000
0000
0011
0000
0000
0000
0000
0000
1000
0000
0000
0000
0000
0000
0100
0000
0000
0000
0100
0000
0000
0000
0010
0000
0000
0000
0100
0000
0000
0000
0000
0000
0000
0000
0000
0000
0000
0000
,  // measure 92
1000
1000
1000
0100
0100
0100
0010
0010
0010
0000
0000
0000
,  // measure 93
0001
0010
0001
0000
1100
0000
1000
0000
0001
0000
0001
0000
1100
0000
0000
0000
,  // measure 94
0100
0100
0010
0010
1100
1100
0000
0000
,  // measure 95
0001
0000
0000
0010
0000
0000
1000
0000
0000
0000
0000
0000
0110
0000
0000
0000
0000
0000
1000
0000
0000
0000
0000
0000
0100
0000
0000
0000
0010
0000
0000
0000
0001
0000
0000
0000
0000
0000
0000
0000
0000
0000
0000
0000
0000
0000
0000
0000
,  // measure 96
1100
0000
0000
0110
0110
0000
1000
0000
,  // measure 97
0010
0100
0010
0100
0011
0000
1100
0000
0101
0000
0101
0000
1000
0000
0000
0000
,  // measure 98
0100
1000
0100
1000
0110
0110
0000
0000
,  // measure 99
0001
0000
0000
0010
0000
0000
0100
0000
0000
1000
0000
0000
0110
0000
0000
0000
0000
0000
1000
0000
0000
0000
0000
0000
0100
0000
0000
0000
1000
0000
0000
0000
0100
0000
0000
0000
0000
0000
0000
0000
0000
0000
0000
0000
0000
0000
0000
0000
,  // measure 100
0100
1000
0100
0010
0001
0010
0100
1000
0100
0000
0000
0000
,  // measure 101
0100
0010
1000
0100
1001
0000
0100
0000
0011
0000
0011
0000
1000
0000
0000
0000
,  // measure 102
1000
1000
0010
0010
0100
0100
0000
0000
,  // measure 103
1000
0000
0000
0001
0000
0000
1000
0000
0000
0100
0000
0000
0011
0000
0000
0000
0000
0000
0100
0000
0000
0000
0000
0000
0100
0000
0000
0000
0010
0000
0000
0000
0001
0000
0000
0000
0000
0000
0000
0000
0000
0000
0000
0000
0000
0000
0000
0000
,  // measure 104
1001
0000
0000
0110
1001
0000
0020
0000
,  // measure 105
0130
1000
0100
0000
1100
0000
0010
0000
0001
0000
0001
0000
1100
0000
0000
0000
,  // measure 106
0010
0010
0010
0010
0010
0010
1001
0000
,  // measure 107
0100
0000
0000
0010
0000
0000
0001
0000
0000
0000
0000
0000
1100
0000
0000
0000
0000
0000
0100
0000
0000
0000
0000
0000
1000
0000
0000
0000
0100
0000
0000
0000
0010
0000
0000
0000
0100
0000
0000
0000
0000
0000
0000
0000
0000
0000
0000
0000
,  // measure 108
0010
0001
0100
1000
0100
0001
0010
0001
0100
0000
0000
0000
,  // measure 109
1000
0100
0001
0000
1100
0000
0010
0000
0001
0000
0002
0000
1103
0000
0000
0000
,  // measure 110
0010
1000
1000
0010
0010
1100
0000
0000
,  // measure 111
0010
0000
0000
0100
0000
0000
0001
0000
0000
0000
0000
0000
1100
0000
0000
0000
0000
0000
0010
0000
0000
0000
0000
0000
0001
0000
0000
0000
0100
0000
0000
0000
0010
0000
0000
0000
0000
0000
0000
0000
0000
0000
0000
0000
0000
0000
0000
0000
,  // measure 112
1010
0000
0000
0101
1010
0000
1100
0000
,  // measure 113
1000
0010
1000
0010
1100
0000
0100
0000
0010
0000
0010
0000
1010
0000
0000
0000
,  // measure 114
0100
0010
1000
0010
0001
0010
1100
0000
,  // measure 115
0001
0000
0000
0010
0000
0000
0100
0000
0000
0010
0000
0000
1001
0000
0000
0000
0000
0000
0100
0000
0000
0000
0000
0000
1000
0000
0000
0000
0010
0000
0000
0000
0100
0000
0000
0000
1000
0000
0000
0000
0000
0000
0000
0000
0000
0000
0000
0000
,  // measure 116
0100
0001
0010
0100
0001
0010
0100
0001
0010
0000
0000
0000
,  // measure 117
0010
0100
0010
0100
0010
0000
1100
0000
0010
0000
0100
0000
1000
0000
0000
0000
,  // measure 118
0100
0010
0100
0010
0100
0010
0000
0000
,  // measure 119
0001
0000
0000
1000
0000
0000
0100
0000
0000
0010
0000
0000
1001
0000
0000
0000
0000
0000
0100
0000
0000
0000
0000
0000
0010
0000
0000
0000
0100
0000
0000
0000
0010
0000
0000
0000
0000
0000
0000
0000
0000
0000
0000
0000
0000
0000
0000
0000
,  // measure 120
1000
0100
0010
1000
0100
0001
1000
0010
0001
0200
0000
0000
,  // measure 121
0301
0010
0001
0010
0001
0000
1100
0000
1001
0000
0000
0000
0100
0000
0000
0000
,  // measure 122
1000
0000
0000
0100
0000
0000
1000
0000
0011
0000
0000
0000
0000
0000
0100
0000
,  // measure 123
0100
0000
0000
0100
0000
0000
0100
0000
0110
0000
0000
0000
0000
0000
0001
0000
,  // measure 124
0001
0000
0000
0001
0000
0000
0001
0000
1010
0000
0000
0000
0100
0000
0000
0000
,  // measure 125
1000
0100
1000
0100
1000
0000
0100
0000
1001
0000
0000
0000
0000
0000
0100
0000
,  // measure 126
0010
0000
0000
0010
0000
0000
0010
0000
0110
0000
0000
0000
0000
0000
1000
0000
,  // measure 127
1000
0000
0000
1000
0000
0000
1000
0000
1010
0000
0000
0000
0000
0000
0001
0000
,  // measure 128
0001
0000
0000
0001
0000
0000
0001
0000
0000
0001
0000
0000
0001
0000
1001
0000
,  // measure 129
0010
0100
0010
1000
0010
0000
0100
0000
1010
0000
0000
0000
0000
0000
0100
0000
,  // measure 130
0001
0000
0000
0100
0000
0000
0001
0000
1010
0000
0000
0000
0000
0000
0100
0000
,  // measure 131
1000
0000
0000
0010
0000
0000
0001
0000
1100
0000
0000
0000
0000
0000
1000
0000
,  // measure 132
0001
0000
0000
1000
0000
0000
0001
0000
1001
0000
0000
0000
0000
0000
0100
0000
,  // measure 133
0001
0010
0100
1000
0010
0000
0100
0000
0110
0000
0000
0000
0000
0000
0100
0000
,  // measure 134
1000
0000
0000
0100
0000
0000
1000
0000
0101
0000
0000
0000
0000
0000
0010
0000
,  // measure 135
0100
0000
0000
0010
0000
0000
0100
0000
1001
0000
0000
0000
0000
0000
0100
0000
,  // measure 136
M000
0000
0000
00M0
0000
0000
0000
0000
0000
0000
0000
0000
0000
0000
0000
0M00
0000
0000
0000
0000
0000
0000
0000
0000
00M0
0000
0000
0000
000M
0000
0000
0000
0000
0000
0000
0000
0000
0000
0000
00MM
M000
0000
0M00
0000
0000
0000
0000
0000
0M00
0000
0000
0000
0000
0000
0000
0000
0000
0000
0000
0000
M000
0000
0000
00M0
0000
0000
0000
0000
0000
0000
0000
0000
0000
0000
0000
0M0M
0000
0000
0000
0000
0MM0
0M00
0000
0000
0000
0000
0000
0000
0000
0000
0000
0000
0000
0000
0000
0000
MM00
0000
0000
0000
0000
0000
0000
0000
0000
0000
0000
0000
0000
0000
0000
0000
0000
0000
0000
0000
000M
0000
0000
0000
0000
0000
0000
0000
0000
0000
0000
0000
0MM0
0000
0000
0000
0000
0000
0000
0000
0000
0000
0000
0000
0000
0000
0000
0000
M000
0000
0000
0000
0000
0000
0000
0000
0000
0000
0000
0000
0000
0000
0000
0000
0000
0000
0000
0000
0000
0000
0000
0000
00M0
0000
0000
0000
0000
0000
0000
0000
0000
0000
0000
0000
0M00
0000
0000
0000
0000
0000
0000
0000
0000
0000
0000
0000
,  // measure 137
1000
0100
0010
0001
0100
0000
0010
0000
1010
0000
0000
0000
0000
0000
0100
0000
,  // measure 138
0010
0000
0000
0001
0000
0000
1000
0000
1100
0000
0000
0000
0000
0000
0001
0000
,  // measure 139
1000
0000
0000
0001
0000
0000
0100
0000
0110
0000
0000
0000
0000
0000
1000
0000
,  // measure 140
0010
0000
0000
0100
0000
0000
0001
0000
1010
0000
0000
0000
0000
0000
0100
0000
,  // measure 141
0010
0010
1000
1000
0010
0000
0010
0000
1001
0000
0000
0000
0000
0000
0100
0000
,  // measure 142
0010
0000
0000
0100
0000
0000
0001
0000
1100
0000
0000
0000
0000
0000
1000
0000
,  // measure 143
1000
0000
0000
0001
0000
0000
0001
0000
0110
0000
0000
0000
0000
0000
0010
0000
,  // measure 144
0100
0000
0000
0010
0000
0000
0001
0000
0000
0100
0000
0000
0010
0000
0110
0000
,  // measure 145
0100
0000
1000
0100
1000
0100
1000
0000
0110
0000
0000
0000
0000
0000
0100
0000
,  // measure 146
0010
0000
0000
0010
0000
0000
1000
0000
1001
0000
0000
0000
0000
0000
0100
0000
,  // measure 147
0010
0000
0000
0010
0000
0000
0100
0000
1001
0000
0000
0000
0000
0000
0010
0000
,  // measure 148
0001
0000
0000
0010
0000
0000
0100
0000
1100
0000
0000
0000
0000
0000
0010
0000
,  // measure 149
0100
0000
0001
0010
0100
0001
1000
0000
0110
0000
0000
0000
0000
0000
1000
0000
,  // measure 150
0100
0000
0000
0100
0000
0000
1000
0000
0110
0000
0000
0000
0000
0000
0001
0000
,  // measure 151
0010
0000
0000
0010
0000
0000
1000
0000
0110
0000
0000
0000
0000
0000
0010
0000
,  // measure 152
1000
0000
0000
1000
0000
0000
1000
0000
0000
1000
0000
0000
1000
0000
0220
0000
,  // measure 153
0000
0000
0000
0000
,  // measure 154
0000
0000
0000
0000
,  // measure 155
0000
0000
0000
0000
,  // measure 156
0000
0000
0000
0000
,  // measure 157
0000
0000
0000
0000
,  // measure 158
0000
0000
0000
0000
,  // measure 159
0000
0000
0000
0000
,  // measure 160
0000
0000
0000
0000
,  // measure 161
0000
0000
0000
0000
,  // measure 162
0000
0000
0000
0000
,  // measure 163
0000
0000
0000
0000
,  // measure 164
0000
0000
0000
0000
,  // measure 165
0000
0000
0000
0000
,  // measure 166
0000
0000
0000
0000
,  // measure 167
0330
0000
0000
0000
;

//---------------dance-single - ----------------
#NOTES:
     dance-single:
     :
     Medium:
     6:
     0.419,0.557,0.306,0.115,0.000: // measure 1
0000
0000
0000
0000
,  // measure 2
0000
0000
0000
0000
,  // measure 3
0000
0000
0000
0000
,  // measure 4
0000
0000
0000
0000
,  // measure 5
0000
0000
0000
0000
,  // measure 6
0000
0000
0000
0000
,  // measure 7
0000
0000
0000
0000
,  // measure 8
0000
0000
0000
0000
,  // measure 9
0000
0000
0000
0000
,  // measure 10
0000
0000
0000
0000
,  // measure 11
0000
0000
0000
0000
,  // measure 12
0000
0000
0000
0000
,  // measure 13
0000
0000
0000
0000
,  // measure 14
0000
0000
0000
0000
,  // measure 15
0000
0000
0000
0000
,  // measure 16
0002
0000
0000
0003
,  // measure 17
0100
1000
0010
0000
0010
0000
0100
0000
,  // measure 18
0100
0101
0100
1000
,  // measure 19
0010
0100
0001
0000
0100
0000
1000
0000
,  // measure 20
0100
1000
0010
0000
0100
0001
0010
0000
,  // measure 21
0100
0000
0100
0000
1000
0010
1000
0000
,  // measure 22
1010
0100
0101
0001
,  // measure 23
0010
0001
0010
0000
0100
0000
1000
0000
,  // measure 24
0001
0001
1000
0000
0000
0010
0010
0000
,  // measure 25
0100
0000
0001
0000
0001
0001
1000
0000
,  // measure 26
0010
1000
0100
0000
0100
0000
0000
0000
,  // measure 27
1100
0000
0102
0000
0020
0003
0031
0000
,  // measure 28
1100
1000
0100
0000
,  // measure 29
1000
0010
1000
0010
2000
0000
0010
0000
,  // measure 30
0010
0001
0100
3000
,  // measure 31
0010
0001
0010
0001
0200
0000
0310
0000
,  // measure 32
1100
0000
0000
0000
,  // measure 33
0001
0000
0001
1000
0010
0000
0010
0000
,  // measure 34
0010
0100
0001
1000
0100
0000
0000
0000
,  // measure 35
1100
0000
0000
0000
0001
0010
0100
0000
,  // measure 36
1000
0000
0100
0010
0001
0000
0100
0000
,  // measure 37
1000
0000
0010
0100
0001
0000
0010
0000
,  // measure 38
0101
0000
1100
0000
0001
0010
0100
0000
,  // measure 39
1100
0000
0101
0010
,  // measure 40
0101
0001
1000
0000
0010
0000
0000
0000
,  // measure 41
1100
1000
0100
0000
1010
0100
1000
0000
,  // measure 42
0001
0100
0010
0000
0000
0000
0101
0000
,  // measure 43
0100
0000
1000
0100
1000
0000
0001
0000
,  // measure 44
0010
0001
0010
0000
0100
0000
1000
0000
,  // measure 45
1010
0000
0101
0000
0100
1000
0100
0000
,  // measure 46
0100
1000
0100
0000
1100
0000
0100
1000
,  // measure 47
0001
0000
0110
0000
0001
0000
0010
0100
,  // measure 48
0101
0000
0100
0000
0010
0000
0001
1000
,  // measure 49
1000
1000
1000
1000
,  // measure 50
1000
1000
1000
0000
0100
0100
0100
0000
,  // measure 51
0010
0010
0010
0000
0001
0000
0001
0000
,  // measure 52
0001
0000
0000
0000
,  // measure 53
1100
0000
0101
0000
1001
1001
0000
0000
,  // measure 54
1000
0100
1000
0100
1000
0100
0000
0000
,  // measure 55
0110
0000
0001
0000
0001
0001
0000
0000
,  // measure 56
1000
1000
0100
0100
0010
0010
0000
0000
,  // measure 57
0100
0000
1010
0000
0101
0001
0000
0000
,  // measure 58
1000
1000
0010
0010
1000
0001
0000
0000
,  // measure 59
0100
0000
0010
0000
1100
0100
0000
0000
,  // measure 60
0010
0010
0001
0100
0010
0100
0000
0000
,  // measure 61
0001
0000
1100
0000
0001
0001
0010
0000
,  // measure 62
0100
1000
0010
1000
0010
1000
0000
0000
,  // measure 63
0001
0000
0110
0000
1000
0100
0000
0000
,  // measure 64
0001
0100
1000
0100
0001
0010
0000
0000
,  // measure 65
0100
0000
0100
0000
0100
1000
0100
0000
,  // measure 66
0001
0001
0000
0100
,  // measure 67
0011
0100
0100
1000
,  // measure 68
0010
0010
0100
0000
0001
0000
0000
0000
,  // measure 69
1000
0000
0001
0000
0101
0001
0000
0000
,  // measure 70
1000
1000
0001
0100
0010
0000
0001
0000
,  // measure 71
1000
0000
1000
0000
0010
0000
0010
0100
,  // measure 72
0001
0010
0100
0000
0001
0000
1000
0000
,  // measure 73
2000
0000
0020
3000
0230
0000
0302
0000
,  // measure 74
0020
0003
0230
0000
2300
0000
0020
3000
,  // measure 75
0230
0000
0301
0010
0200
0000
2300
0000
,  // measure 76
3010
0100
0001
0010
0100
0000
0001
0000
,  // measure 77
0100
0010
1000
0100
1000
1000
0000
0100
,  // measure 78
0010
0001
0001
0000
0100
0000
0000
0000
,  // measure 79
0010
1000
0100
0000
0001
0010
0100
0000
,  // measure 80
1000
0001
0100
0010
0100
0000
0001
0000
,  // measure 81
2000
0100
0100
3100
,  // measure 82
0002
0000
0010
0000
0010
0003
0101
0000
,  // measure 83
2000
0000
0100
0000
0100
3000
0110
0000
,  // measure 84
0002
0000
0010
0000
0010
0003
0100
0000
,  // measure 85
0001
0000
0001
0000
0001
0001
0000
0000
,  // measure 86
0001
0000
0000
0000
1000
1000
0000
0000
,  // measure 87
0100
0100
0000
0000
0010
0010
0000
0000
,  // measure 88
0001
0001
0000
0000
0100
0000
0000
0000
,  // measure 89
0010
1000
0100
0000
0001
0001
0000
0000
,  // measure 90
1000
1000
0100
0100
0010
0000
0001
0000
,  // measure 91
1000
0000
0010
0000
0100
0001
0000
0100
,  // measure 92
0010
0000
0001
0100
0010
0000
1100
0000
,  // measure 93
0001
0000
1100
0000
0001
0010
0100
0010
,  // measure 94
0001
0100
0010
1000
,  // measure 95
1000
0010
0010
0100
0001
0000
0001
0000
,  // measure 96
0100
0110
0001
1000
,  // measure 97
0010
0010
0100
0000
0001
0000
1000
0000
,  // measure 98
0100
0010
0001
0000
0010
0000
0100
0100
,  // measure 99
1000
0000
0010
0000
0100
0001
0100
0000
,  // measure 100
0010
0000
0010
1000
0100
0010
0001
0000
,  // measure 101
1100
0000
1100
0000
0001
0100
0010
0100
,  // measure 102
1000
0001
0100
0000
,  // measure 103
0011
1100
0010
0000
,  // measure 104
2000
0000
0000
0100
3002
0000
0000
0003
,  // measure 105
0100
0010
1000
0100
0010
0000
0000
0000
,  // measure 106
0001
0001
0100
0100
0010
0010
0000
0000
,  // measure 107
1100
0000
0000
0000
0001
0001
0000
0000
,  // measure 108
1000
1000
0010
0100
0001
0001
0000
0000
,  // measure 109
1100
0000
0011
0000
1100
1100
0000
0000
,  // measure 110
0010
0010
0010
0010
0010
0010
0000
0000
,  // measure 111
1100
0000
0001
0000
0010
0010
0000
0000
,  // measure 112
1001
0000
0000
0100
0010
0000
0101
0000
,  // measure 113
0100
1000
0010
0100
0001
1000
0000
0000
,  // measure 114
0201
0001
0001
0001
0001
0001
0300
0000
,  // measure 115
0100
1000
0001
0000
0200
0010
0300
0000
,  // measure 116
2000
0010
0010
0010
0100
3010
0000
0000
,  // measure 117
0001
0100
0010
0000
1200
0010
0300
0000
,  // measure 118
0001
1000
0010
0010
0100
0001
0000
0000
,  // measure 119
0100
1000
0010
0000
1100
0001
0000
0000
,  // measure 120
1001
0000
0000
0010
,  // measure 121
0102
0000
0003
1000
0100
0000
0001
0010
,  // measure 122
0100
0000
0000
1000
0010
0000
0100
0000
,  // measure 123
0001
0000
0100
1000
0010
0000
0101
0000
,  // measure 124
0011
0000
0100
1000
0100
0000
1010
0000
,  // measure 125
0001
0000
0001
0100
0011
0000
0100
0000
,  // measure 126
1000
0000
0010
1000
0101
0000
0010
0000
,  // measure 127
1000
0000
0100
0010
0011
0000
0100
1000
,  // measure 128
0001
0000
0010
0100
0001
1000
0100
0000
,  // measure 129
0011
0000
0100
1000
1110
0000
0100
0000
,  // measure 130
0010
0000
0001
0100
0101
0000
0010
0000
,  // measure 131
1000
0000
0010
0100
1001
0000
0100
0000
,  // measure 132
0010
0000
0100
1000
1001
0000
0010
0000
,  // measure 133
0100
0000
0001
0100
1010
0000
0100
0010
,  // measure 134
0001
0000
1100
0010
0100
0000
0001
1000
,  // measure 135
0010
0000
0100
0010
0011
0000
0100
1000
,  // measure 136
0001
0000
0000
0000
,  // measure 137
1000
0100
0010
0001
0010
0000
0100
0000
,  // measure 138
0100
0000
0000
1000
0001
0000
0001
0000
,  // measure 139
0110
0000
0000
0100
0010
0000
0001
0000
,  // measure 140
1100
0100
0001
0010
,  // measure 141
0100
0000
0000
1000
0010
0000
0000
0000
,  // measure 142
0101
0000
0000
1000
0000
1000
0000
0000
,  // measure 143
0001
0000
0000
1100
0010
0000
0000
0000
,  // measure 144
0001
0000
0100
0001
0000
0000
0010
0000
,  // measure 145
1000
0100
0010
0000
0001
0000
0000
0000
,  // measure 146
0010
0000
0000
0100
0001
0000
0000
0000
,  // measure 147
1100
0000
0000
0010
0000
0000
0000
0000
,  // measure 148
0001
0000
0000
0010
0100
0000
0001
0000
,  // measure 149
1100
0000
0000
0010
0001
0000
0100
0000
,  // measure 150
1010
0000
0000
0100
0010
0000
0001
0000
,  // measure 151
0010
0000
0000
1000
0100
0000
0000
0000
,  // measure 152
0100
0000
0100
0000
0100
0000
0100
2002
,  // measure 153
0000
0000
0000
0000
,  // measure 154
0000
0000
0000
0000
,  // measure 155
0000
0000
0000
0000
,  // measure 156
0000
0000
0000
0000
,  // measure 157
0000
0000
0000
0000
,  // measure 158
0000
0000
0000
0000
,  // measure 159
0000
0000
0000
0000
,  // measure 160
0000
0000
0000
0000
,  // measure 161
0000
0000
0000
0000
,  // measure 162
0000
0000
0000
0000
,  // measure 163
0000
0000
0000
0000
,  // measure 164
0000
0000
0000
0000
,  // measure 165
0000
0000
0000
0000
0000
0000
0000
3003
;

//---------------dance-single - ----------------
#NOTES:
     dance-single:
     :
     Easy:
     3:
     0.243,0.360,0.183,0.071,0.000: // measure 1
0000
0000
0000
0000
,  // measure 2
0000
0000
0000
0000
,  // measure 3
0000
0000
0000
0000
,  // measure 4
0000
0000
0000
0000
,  // measure 5
0000
0000
0000
0000
,  // measure 6
0000
0000
0000
0000
,  // measure 7
0000
0000
0000
0000
,  // measure 8
0000
0000
0000
0000
,  // measure 9
0000
0000
0000
0000
,  // measure 10
0000
0000
0000
0000
,  // measure 11
0000
0000
0000
0000
,  // measure 12
0000
0000
0000
0000
,  // measure 13
0000
0000
0000
0000
,  // measure 14
0000
0000
0000
0000
,  // measure 15
0000
0000
0000
0000
,  // measure 16
1001
0000
0000
0000
,  // measure 17
0100
0100
1000
1000
,  // measure 18
0010
0010
0100
0100
,  // measure 19
0001
0000
1000
0000
,  // measure 20
0100
0000
0010
0000
,  // measure 21
0101
0000
1000
1000
,  // measure 22
1000
0000
0101
0000
,  // measure 23
1001
0000
0010
0000
,  // measure 24
0100
0100
1000
0000
,  // measure 25
0010
0010
1000
0000
,  // measure 26
0100
1000
0010
0000
,  // measure 27
0101
0010
1000
0000
,  // measure 28
0100
0010
0001
0000
,  // measure 29
0100
0000
1000
0000
,  // measure 30
0010
0010
1000
0000
,  // measure 31
0100
0001
0010
0100
,  // measure 32
0001
0000
0000
0000
,  // measure 33
2000
0010
0010
3100
,  // measure 34
0001
0010
0100
0000
,  // measure 35
0002
0100
0100
0103
,  // measure 36
0010
0010
1000
0000
,  // measure 37
0100
0100
1000
0100
,  // measure 38
1001
0101
1001
0000
,  // measure 39
0010
1000
1100
0100
,  // measure 40
0010
0000
0001
0000
,  // measure 41
1100
0000
0110
0000
,  // measure 42
0101
0101
0000
1010
,  // measure 43
0100
1000
1000
1000
,  // measure 44
0001
0000
0100
0100
,  // measure 45
0010
0000
0010
0000
,  // measure 46
0010
0010
0010
0000
,  // measure 47
1000
1000
0100
0000
,  // measure 48
0001
0010
0100
0000
,  // measure 49
1000
1000
0000
0000
,  // measure 50
0100
0100
0000
0000
,  // measure 51
0010
0010
0000
0000
,  // measure 52
0001
0000
0000
0000
,  // measure 53
1100
1100
0001
0000
,  // measure 54
0001
0100
0100
0010
,  // measure 55
1000
0000
0010
0000
,  // measure 56
0101
1100
0001
0000
,  // measure 57
0101
0101
0010
0000
,  // measure 58
1000
1000
1000
0000
,  // measure 59
0002
0100
0103
0000
,  // measure 60
1200
1000
0300
0000
,  // measure 61
0010
0100
0001
0000
,  // measure 62
0100
0100
1000
0000
,  // measure 63
0010
0010
1100
0000
,  // measure 64
0001
0001
0101
0000
,  // measure 65
1000
1000
1000
1000
,  // measure 66
0010
0000
0010
0000
,  // measure 67
0101
0001
0001
0001
,  // measure 68
1000
0000
0010
0000
,  // measure 69
0100
0100
0010
0000
,  // measure 70
0001
0100
0010
0000
,  // measure 71
0100
0100
1000
0000
,  // measure 72
0010
0010
0100
0001
,  // measure 73
0010
0000
0100
0000
,  // measure 74
1100
1100
0001
0000
,  // measure 75
0010
0000
2000
0000
,  // measure 76
3002
0000
0000
0003
,  // measure 77
1000
1000
0020
0030
,  // measure 78
0200
0001
0301
0000
,  // measure 79
0100
0001
1000
0000
,  // measure 80
0020
2030
3200
0310
,  // measure 81
0001
1000
1000
1000
,  // measure 82
0010
0010
0010
0100
,  // measure 83
0001
0001
0001
0010
,  // measure 84
0100
0100
0100
0001
,  // measure 85
1000
0000
1000
0000
,  // measure 86
0100
0000
0100
0000
,  // measure 87
0010
0000
0010
0000
,  // measure 88
0010
0000
0000
0000
,  // measure 89
0100
0100
1100
0000
,  // measure 90
0002
1000
1000
0003
,  // measure 91
0010
0000
2100
3000
,  // measure 92
0001
0000
0000
0000
,  // measure 93
0020
0030
0100
0000
,  // measure 94
0001
1000
0100
0000
,  // measure 95
0010
0100
0001
0000
,  // measure 96
2000
0000
3000
0001
,  // measure 97
0010
0000
0010
0000
,  // measure 98
0101
1100
0010
0100
,  // measure 99
0001
0000
1100
0001
,  // measure 100
0010
0000
1001
0000
,  // measure 101
1001
0110
1001
0100
,  // measure 102
0010
0000
0100
0000
,  // measure 103
1010
0000
0100
0000
,  // measure 104
0001
0001
0001
0000
,  // measure 105
0010
0010
0100
0000
,  // measure 106
1000
0000
0001
0000
,  // measure 107
0010
0000
0001
0100
,  // measure 108
0010
0000
0100
0000
,  // measure 109
1000
0010
0100
0000
,  // measure 110
1000
0001
1000
0000
,  // measure 111
0001
0010
0100
0000
,  // measure 112
1000
0000
1000
0000
,  // measure 113
0200
0300
0001
0010
,  // measure 114
0100
0100
0100
0000
,  // measure 115
0010
0000
0001
0000
,  // measure 116
0010
0020
0030
0000
,  // measure 117
1000
0000
0100
0000
,  // measure 118
0100
0100
0100
0000
,  // measure 119
0001
0000
0010
0000
,  // measure 120
1001
0000
0000
0010
,  // measure 121
1001
0000
0010
0000
,  // measure 122
0100
0000
0001
0000
,  // measure 123
0100
1000
0000
0000
,  // measure 124
0001
0000
1000
0100
,  // measure 125
0001
0000
0010
0000
,  // measure 126
0001
0000
0100
0010
,  // measure 127
1000
0000
0100
0000
,  // measure 128
0001
0001
0001
1000
,  // measure 129
0100
0000
0010
0000
,  // measure 130
0001
0100
0010
0000
,  // measure 131
1100
0000
0101
0000
,  // measure 132
0010
0000
0100
0100
,  // measure 133
1000
0000
0001
0000
,  // measure 134
1000
0000
0010
0010
,  // measure 135
0100
0000
0001
0000
,  // measure 136
1000
1000
0000
0000
,  // measure 137
0001
1000
0010
0000
,  // measure 138
0100
0000
0100
0000
,  // measure 139
0010
0000
0001
0000
,  // measure 140
1000
0100
1000
0000
,  // measure 141
0001
0000
0010
0000
,  // measure 142
0100
0001
0001
0000
,  // measure 143
0000
0010
1000
0000
,  // measure 144
1001
0000
0000
0000
,  // measure 145
1001
0000
0110
0000
,  // measure 146
0000
1100
0000
0101
,  // measure 147
1010
0000
0100
0000
,  // measure 148
0010
0000
0001
0001
,  // measure 149
1000
0010
0100
0000
,  // measure 150
0001
0000
0100
0010
,  // measure 151
0100
0000
0100
0000
,  // measure 152
1000
1000
1000
0002
,  // measure 153
0000
0000
0000
0000
,  // measure 154
0000
0000
0000
0000
,  // measure 155
0000
0000
0000
0000
,  // measure 156
0000
0000
0000
0000
,  // measure 157
0000
0000
0000
0000
,  // measure 158
0000
0000
0000
0000
,  // measure 159
0000
0000
0000
0000
,  // measure 160
0000
0000
0000
0000
,  // measure 161
0000
0000
0000
0000
,  // measure 162
0000
0000
0000
0000
,  // measure 163
0000
0000
0000
0000
,  // measure 164
0000
0000
0000
0000
,  // measure 165
0000
0000
0000
0000
,  // measure 166
0003
0000
0000
0000
;

//---------------dance-single - Copied from----------------
#NOTES:
     dance-single:
     Copied from:
     Beginner:
     2:
     0.150,0.272,0.091,0.048,0.000: // measure 1
0000
0000
0000
0000
,  // measure 2
0000
0000
0000
0000
,  // measure 3
0000
0000
0000
0000
,  // measure 4
0000
0000
0000
0000
,  // measure 5
0000
0000
0000
0000
,  // measure 6
0000
0000
0000
0000
,  // measure 7
0000
0000
0000
0000
,  // measure 8
0000
0000
0000
0000
,  // measure 9
0000
0000
0000
0000
,  // measure 10
0000
0000
0000
0000
,  // measure 11
0000
0000
0000
0000
,  // measure 12
0000
0000
0000
0000
,  // measure 13
0000
0000
0000
0000
,  // measure 14
0000
0000
0000
0000
,  // measure 15
0000
0000
0000
0000
,  // measure 16
0000
0000
0000
0000
,  // measure 17
1000
0000
1000
0000
,  // measure 18
0001
0000
0001
0000
,  // measure 19
0010
0000
0000
0000
,  // measure 20
0100
0000
0000
0000
,  // measure 21
1001
0000
0000
0000
,  // measure 22
1000
0000
1000
0000
,  // measure 23
0010
0000
0000
0000
,  // measure 24
0100
0000
0000
0000
,  // measure 25
0001
0000
0000
0000
,  // measure 26
1000
1000
0000
0000
,  // measure 27
0010
0000
0000
0000
,  // measure 28
0010
0010
0000
0000
,  // measure 29
1000
0000
0000
0000
,  // measure 30
0100
0100
0000
0000
,  // measure 31
0001
0000
0000
0000
,  // measure 32
0010
0000
0000
0000
,  // measure 33
0100
0000
0000
0000
,  // measure 34
0100
0000
0000
0000
,  // measure 35
0001
0001
0000
0000
,  // measure 36
1000
0000
1000
0000
,  // measure 37
0010
0000
0000
0000
,  // measure 38
0010
0000
0010
0000
,  // measure 39
0100
0100
0000
0000
,  // measure 40
0001
0000
0001
0000
,  // measure 41
1000
0000
0000
0000
,  // measure 42
0010
0000
0000
0000
,  // measure 43
1000
0000
0000
0000
,  // measure 44
0010
0000
0000
1001
,  // measure 45
0000
0100
0000
0100
,  // measure 46
0100
0000
0000
0000
,  // measure 47
1000
0000
0000
0000
,  // measure 48
0010
0000
0000
0000
,  // measure 49
1000
0000
1000
0000
,  // measure 50
1000
0000
1000
0000
,  // measure 51
1000
0000
1000
0000
,  // measure 52
1000
0000
0000
0000
,  // measure 53
0002
0000
0003
0000
,  // measure 54
2000
0000
3000
0000
,  // measure 55
0002
0000
0003
0000
,  // measure 56
2000
0000
3000
0000
,  // measure 57
0020
0000
0030
0000
,  // measure 58
0200
0000
0300
0000
,  // measure 59
0020
0000
0030
0000
,  // measure 60
0200
0000
0300
0000
,  // measure 61
1000
1000
0000
0000
,  // measure 62
0001
0001
0001
0000
,  // measure 63
0100
0100
0000
0000
,  // measure 64
0010
0010
0010
0000
,  // measure 65
1001
0000
0000
0000
,  // measure 66
1000
1000
0000
1000
,  // measure 67
0001
0000
0000
0000
,  // measure 68
0001
0000
0001
0000
,  // measure 69
0001
0001
1000
0000
,  // measure 70
1000
0000
1000
0000
,  // measure 71
0010
0010
0100
0000
,  // measure 72
1000
0001
1000
0000
,  // measure 73
0100
0000
0010
0000
,  // measure 74
0100
0010
0001
0000
,  // measure 75
0010
0000
0100
0000
,  // measure 76
1000
0010
1000
0000
,  // measure 77
1000
0100
0001
0000
,  // measure 78
0001
0001
0001
0000
,  // measure 79
0001
0010
1000
0000
,  // measure 80
0100
0100
0100
0000
,  // measure 81
1000
1000
1000
0000
,  // measure 82
0001
0000
0001
0000
,  // measure 83
0010
0010
0010
0000
,  // measure 84
0101
0100
0100
0000
,  // measure 85
1000
0000
0000
0000
,  // measure 86
1000
0000
0000
0000
,  // measure 87
0001
0000
0000
0000
,  // measure 88
0000
0000
0000
0000
,  // measure 89
0001
0000
1000
0000
,  // measure 90
1000
1000
1000
0000
,  // measure 91
0010
0000
0100
0000
,  // measure 92
0100
0100
1000
0000
,  // measure 93
1000
0000
0010
0000
,  // measure 94
1000
0001
0100
0000
,  // measure 95
0010
0000
0001
0000
,  // measure 96
0100
0010
1000
0000
,  // measure 97
0100
0000
0001
0000
,  // measure 98
0100
0001
1000
0000
,  // measure 99
0100
0000
0010
0000
,  // measure 100
0100
1000
0010
0000
,  // measure 101
0001
0000
0100
0000
,  // measure 102
0010
0100
0001
0000
,  // measure 103
0010
0000
0100
0000
,  // measure 104
1001
0000
0000
0000
,  // measure 105
1001
0000
0110
0000
,  // measure 106
1010
0000
0001
0000
,  // measure 107
0010
0000
1000
0000
,  // measure 108
0100
0100
0100
0000
,  // measure 109
1010
0000
1001
0000
,  // measure 110
0101
0000
1001
0000
,  // measure 111
0010
0000
0110
0000
,  // measure 112
1001
0000
0000
0000
,  // measure 113
0010
0010
0010
0000
,  // measure 114
1000
1000
1000
0000
,  // measure 115
0010
0000
0200
0300
,  // measure 116
0002
0000
0003
0000
,  // measure 117
2000
0000
3000
0000
,  // measure 118
0010
0010
0010
0000
,  // measure 119
0002
0000
0003
0000
,  // measure 120
0010
0000
0000
0000
,  // measure 121
0001
0000
0001
0000
,  // measure 122
1000
0000
1001
0000
,  // measure 123
0000
0000
0110
0000
,  // measure 124
0000
0000
0110
0000
,  // measure 125
0000
0000
1001
0000
,  // measure 126
0000
0000
1001
0000
,  // measure 127
0000
0000
0110
0000
,  // measure 128
0000
0000
0000
0000
,  // measure 129
0001
0000
1000
0000
,  // measure 130
0000
0000
0000
0000
,  // measure 131
0010
0000
0000
0000
,  // measure 132
0000
0000
0000
0000
,  // measure 133
1000
1000
0000
0000
,  // measure 134
0000
0000
0000
0000
,  // measure 135
0001
0000
0000
0000
,  // measure 136
0010
0000
0000
0000
,  // measure 137
0100
0000
0000
0000
,  // measure 138
0010
0000
0000
0000
,  // measure 139
1000
0000
0000
0000
,  // measure 140
0001
0000
0000
0000
,  // measure 141
1001
0000
0000
0000
,  // measure 142
0100
0000
0000
0000
,  // measure 143
0010
0000
0000
0000
,  // measure 144
1001
0000
0000
0000
,  // measure 145
1000
0000
0010
0000
,  // measure 146
0100
0000
0000
0000
,  // measure 147
0001
0000
0000
0100
,  // measure 148
0010
0000
0100
0000
,  // measure 149
0010
0000
1000
0000
,  // measure 150
0000
0000
0000
0001
,  // measure 151
0100
0000
0010
0000
,  // measure 152
0000
0000
0000
0000
,  // measure 153
1001
0000
0000
0000
;

//---------------dance-single - Copied from----------------
#NOTES:
     dance-single:
     Copied from:
     Challenge:
     15:
     1.000,1.000,1.000,1.000,1.000: // measure 1
2000
0000
0000
0000
,  // measure 2
0000
0000
0000
0000
0000
0000
0000
0000
0000
0000
0000
0000
0000
0000
0000
0000
0000
0000
0000
0000
0000
0000
0000
0000
0000
0000
0000
0000
0000
3200
0000
0000
0000
0000
0000
0000
0000
0000
0000
0000
0000
0000
0000
0000
0000
0000
0000
0000
,  // measure 3
0000
0000
0000
0000
0000
0000
0000
0000
0000
0000
0000
0000
0000
0000
0000
0320
0000
0000
0000
0000
0000
0000
0000
0000
0000
0000
0000
0000
0000
0000
0000
0000
0000
0000
0000
0000
0000
0000
0000
0000
0000
0000
0000
0000
0000
0000
0032
0000
0000
0000
0000
0000
0000
0000
0000
0000
0000
0000
0000
0000
0000
0000
0000
0000
,  // measure 4
0000
0000
0000
0000
0000
0000
0000
0000
0000
0000
0000
0000
0000
0000
0000
0000
0000
0000
2000
0000
0000
0000
0000
0003
0000
0000
0000
0000
0000
0000
0000
0000
0000
0000
0000
0000
0000
0000
0000
0000
0000
0000
0000
0000
0000
0000
0000
0000
0000
0000
0000
0000
0000
0000
0000
0000
0000
0000
0000
0000
0000
0000
0000
0000
,  // measure 5
0000
0000
0000
0000
0000
0000
0000
0000
0000
0000
0000
0000
0000
0000
0000
0000
0000
0000
0000
0000
0000
0000
0000
0000
0000
0000
0000
0000
0000
0000
0000
0000
0000
0000
0000
0000
0000
0000
0000
0000
0000
0000
0000
0000
0000
0000
0000
0000
0000
0000
0000
0000
0000
0000
0000
0000
0000
0000
0000
0000
0000
0000
0000
0000
0000
0000
0000
0000
0000
0000
0000
0000
0000
0000
0000
0000
0000
0000
0000
0000
0000
0000
0000
0000
0000
0000
0000
0000
0000
0000
0000
0000
0000
0000
0000
0000
0000
0000
0000
0000
3000
0000
0000
0000
0020
0000
0000
0000
0000
0000
0000
0000
0000
0000
0000
0000
0000
0000
0000
0000
0000
0000
0000
0000
0000
0000
0000
0000
0000
0000
0000
0000
0030
0000
0000
0000
0200
0000
0000
0000
0000
0000
0000
0000
0000
0000
0000
0000
0000
0000
0000
0000
0000
0000
0000
0000
0000
0000
0000
0000
0000
0000
0000
0000
0000
0000
0000
0000
0000
0000
0000
0000
0000
0000
0000
0000
0000
0020
0000
0000
0000
0000
0000
0000
0000
0000
0000
0000
0300
0000
0000
0000
,  // measure 6
0000
0000
0000
0000
0000
0000
0000
0000
0000
0000
0000
0000
0000
0000
0000
0000
0000
0000
0000
0000
0000
0000
0000
0000
0000
0000
0000
0002
0000
0000
0000
0000
0000
0000
0000
0000
0000
0000
0000
0000
0030
0000
0000
0000
0000
0000
0000
0000
0000
0000
0000
0000
0000
0000
0000
0000
0000
0000
0000
0000
0000
0000
0000
0000
0000
0000
0000
0000
0000
0000
0000
0000
0000
0000
0000
0000
0000
0000
0000
0000
0000
0000
0000
0000
0000
0000
0000
0000
0000
0000
0000
0000
0000
0000
0000
0000
0003
0000
0000
0200
0000
0000
0000
0000
0000
0000
0000
0000
0000
0000
0000
0000
0000
0000
0000
0000
0000
0000
0000
0000
0000
0000
0000
0000
0000
0000
0000
0000
0000
0000
0000
0000
0000
0000
0000
0000
0000
0000
0000
0000
0000
0000
0000
0000
0000
0000
0000
0000
0000
0000
0000
0000
0000
0000
0000
0000
0000
0000
0000
0000
0000
0000
0000
0000
0000
0000
0000
0000
0000
0000
0000
0000
0000
0000
0000
0000
0000
0000
0000
0000
0000
0000
0000
0000
0000
0000
0000
0000
0000
0000
0000
0000
,  // measure 7
0000
0000
0000
0000
0000
0000
0000
0000
0000
0000
0000
0000
0000
0000
0000
0000
0000
0000
0000
0000
0000
0000
0000
0000
0000
0000
0000
0000
0000
0000
0000
0000
0000
0000
0000
0000
0000
0000
0000
0000
0000
0000
0000
0000
0000
0000
0000
0000
0320
0000
0000
0000
0000
0000
0000
0000
0000
0230
0000
0000
0000
0000
0000
0000
,  // measure 8
0000
0000
0320
0000
0000
0000
0000
0000
0000
0000
0000
0032
0000
0000
0000
0000
0000
0000
0000
0000
0023
0000
0000
0000
0000
0000
0000
0000
0000
0000
0000
0000
0000
0000
0000
0000
0000
0000
0000
0000
0000
0000
0000
0000
0000
0000
0000
0000
0000
0000
0000
0000
0000
0000
0000
0000
0000
0000
0000
0000
0000
0000
0000
0000
,  // measure 9
0000
0000
0000
0000
0000
0000
0000
0000
0000
0000
0000
0000
0000
0000
0000
0000
0000
0000
0000
0000
0000
0000
0000
0000
0000
0000
0000
0000
0000
2030
0000
0000
0000
0000
0000
0000
0000
0000
0000
0000
0000
0000
0000
0000
0000
0000
0000
0000
,  // measure 10
0000
0000
0000
0000
0000
0000
0000
0000
0000
0000
0000
0000
0000
0000
0000
0000
0000
0000
0000
0000
0000
0000
0000
0000
0000
0000
0000
0000
0000
0000
0000
0000
0000
0000
0000
0000
0000
3200
0000
0000
0000
0000
0000
0000
0000
0000
0000
0000
0000
0000
0000
0000
0000
0000
0000
0000
0000
0000
0000
0000
0000
0000
0000
0000
,  // measure 11
0000
0000
0000
0000
0000
0000
0000
0000
0000
0000
0000
0000
0000
0000
0000
0000
0000
0000
0000
0000
0000
0000
0000
0000
0000
0000
0000
0000
0000
0000
0000
0000
0000
0000
0000
0000
0000
0000
0000
0000
2300
0000
0000
0000
0000
0000
0000
0000
0000
0000
0000
0000
0000
0000
0000
0000
0000
0000
0000
3200
0000
0000
0000
0000
,  // measure 12
0000
0000
0000
0000
0000
0000
0000
0000
0000
0000
0000
0000
2300
0000
0000
0000
0000
0000
0000
0000
0000
0000
0000
0000
0000
0000
0000
0000
0000
0000
0000
3020
0000
0000
0000
0000
0000
0000
0000
0000
0000
0000
0000
0000
0000
0000
0000
0000
0000
0000
0000
0000
0000
0000
0000
0000
0000
0000
0000
0000
0000
0000
0000
0000
,  // measure 13
0000
0000
0000
0000
,  // measure 14
0230
0000
0000
0000
0000
0302
0000
0000
,  // measure 15
0000
0000
0000
0000
,  // measure 16
1013
0000
0000
0000
0000
0000
0000
0000
0000
0000
0000
0000
0000
0000
0000
0000
0000
0000
0000
0000
0000
0M00
0000
0000
0000
0000
0000
M0M0
0000
0000
0000
0000
0000
0000
0000
0000
0M00
0000
0000
0000
0000
0000
0000
0000
0000
000M
0000
0000
0000
0000
0000
0000
0000
0000
0000
0000
0000
0000
0000
0000
0000
0000
0000
0000
0000
0000
0000
0000
0000
MM00
0000
0000
00MM
0000
0000
0000
0000
0000
0000
0000
0000
0000
0000
0000
0M00
0000
0000
0000
0000
0000
0000
0000
0000
0000
0000
0000
0MM0
0000
0000
0000
0000
0000
0000
0000
0000
0000
0000
0000
000M
0000
0000
00M0
MMM0
0000
0000
0000
0000
0000
0000
0000
0000
0000
0000
0000
0000
0000
0000
0000
0000
0000
0000
0000
0000
0000
0000
0000
0000
0000
M0MM
0000
0000
0000
0000
0000
0000
0000
0000
0000
0000
0000
0000
0000
0000
0000
0000
0000
0000
0000
0000
0000
0000
0000
0000
0000
0000
0000
0000
0000
0110
0000
0000
0000
0000
0000
0000
0000
0000
0000
0000
0000
0000
0000
0000
0000
0000
0000
0000
0000
0000
0000
0000
0000
,  // measure 17
1010
0010
1000
1000
0011
0000
0101
0000
1111
0000
0101
0000
1101
0000
0101
0000
,  // measure 18
1101
0101
1101
0101
1111
0101
1101
0101
,  // measure 19
1100
0000
0000
0000
0000
0000
0000
0000
0000
0000
0000
0000
1000
0000
0000
0000
0000
0000
0000
0000
0000
0000
0000
0000
0100
0000
0000
0000
0000
0000
0000
0000
0001
0000
0000
0000
0000
0000
0000
0000
0010
0000
0000
0000
0000
0000
0000
0000
1100
0000
0000
0000
0000
0000
0000
0000
0000
0000
0000
0000
0000
0000
0000
0000
0000
0000
0000
0000
0000
0010
0000
0000
0000
0000
0000
0000
0000
0000
0000
0000
0000
0000
0000
0000
0000
0000
0000
0000
0000
0000
0000
0000
0000
0000
0000
0000
1101
0000
0000
0000
0000
0000
0000
0000
0000
0000
0000
0000
0000
0000
0000
0000
1000
0000
0000
0000
0000
0000
0000
0000
0000
0000
0000
0000
0000
0000
0000
0000
1000
0000
0000
0000
0000
0000
0000
0000
0000
0000
0000
0000
0000
0000
0000
0000
1100
0000
0000
0000
0000
0000
0000
0000
0000
0000
0000
0000
0000
0000
0000
0000
0100
0000
0000
0000
0000
0000
0000
0000
0000
0000
0000
0000
0000
0000
0000
0000
0100
0000
0000
0000
0000
0000
0000
0000
0000
0000
0000
0000
0000
0000
0000
0000
,  // measure 20
0110
0100
0100
0110
0010
0010
1011
0001
0001
0001
0001
0001
,  // measure 21
1100
0000
0000
0000
1000
0000
0000
0000
1000
0000
0000
0000
1000
0000
0000
0000
0111
0000
0000
0000
0000
0000
0000
0000
0100
1000
0000
0000
0000
0000
0000
0000
0111
1000
0000
0000
0000
0000
0000
0000
0100
1000
0000
0000
0000
0000
0000
0000
0101
1000
0000
0000
0000
0000
0000
0000
0100
1000
0000
0000
0000
0000
0000
0000
,  // measure 22
0101
1000
0000
0000
0000
0000
0000
0000
0100
1000
0000
0000
0000
0000
0000
0000
0101
1000
0000
0000
0000
0000
0000
0000
0100
1000
0000
0000
0000
0000
0000
0000
0111
1000
0000
0000
0000
0000
0000
0000
0100
1000
0000
0000
0000
0000
0000
0000
0101
1000
0000
0000
0000
0000
0000
0000
0100
1000
0000
0000
0000
0000
0000
0000
,  // measure 23
0001
0000
0000
0000
0010
0000
0000
0000
0000
0000
0000
0000
0100
0000
0000
0000
0000
0000
0000
0000
0000
1000
0000
0000
0000
0000
0000
0001
0000
0000
0000
0000
0000
0000
0000
0000
0010
0000
0000
0000
0000
0000
0000
0000
0000
0000
0000
0000
0100
0000
0000
0000
0000
0000
0000
0000
0000
0000
0000
0000
1000
0000
0000
0000
0001
0000
0000
0000
0000
0000
0000
0000
0000
0000
0000
0000
0000
0000
0000
0000
0010
0000
0000
0000
0000
0000
0000
0000
0000
0000
0000
0000
0000
0000
0000
0000
1101
0000
0000
0000
0000
0000
0000
0000
0000
0000
0000
0000
0000
0000
0000
0000
1000
0000
0000
0000
0000
0000
0000
0000
0000
0000
0000
0000
0000
0000
0000
0000
1000
0000
0000
0000
0000
0000
0000
0000
0000
0000
0000
0000
0000
0000
0000
0000
1100
0000
0000
0000
0000
0000
0000
0000
0000
0000
0000
0000
0000
0000
0000
0000
1000
0000
0000
0000
0000
0000
0000
0000
0000
0000
0000
0000
0000
0000
0000
0000
0100
0000
0000
0000
0000
0000
0000
0000
0000
0000
0000
0000
0000
0000
0000
0000
,  // measure 24
0110
0000
0100
1000
0100
0000
0010
0000
0010
0000
0010
0000
0111
0000
0001
0000
0001
0000
0111
0000
0001
0000
0001
0000
,  // measure 25
1100
1000
1000
1000
1001
1000
1000
1000
1110
1000
1000
1000
1001
1000
1000
1000
,  // measure 26
0101
0010
0000
0000
0000
0000
0000
0000
0101
0010
0000
0000
0000
0000
0000
0000
0101
0010
0000
0000
0101
0010
0000
0000
0000
0000
0000
0000
0101
0010
0000
0000
1101
0010
0000
0000
0000
0000
0000
0000
0101
0010
0000
0000
0000
0000
0000
0000
1010
0000
0000
0000
0000
0000
0000
0000
0000
0000
0000
0000
0000
0000
0000
0000
,  // measure 27
1100
0100
0100
0100
0110
0100
0100
0100
1101
0100
0100
0100
0110
0100
0100
0100
,  // measure 28
1100
0000
0000
0000
0000
0000
0000
0000
0000
0000
0000
0000
0000
0000
0000
0000
0100
0000
0000
0000
0000
0000
0000
0000
0000
0000
0000
0000
0000
0000
0000
0000
0100
0000
0000
0000
0000
0000
0000
0000
0000
0000
0000
0000
0000
0000
0000
0000
0110
0000
0000
0000
0000
0000
0000
0000
0000
0000
0000
0000
0000
0000
0000
0000
0000
0000
0000
0000
1000
0100
0000
0000
0000
0000
0000
0000
0000
0000
0000
0000
0000
0100
0000
0000
0000
0000
0000
0000
0000
0000
0000
0000
0000
0000
0000
0000
0111
0000
0000
0000
0000
0000
0000
0000
0000
0000
0000
0000
0000
0000
0000
0000
0010
0000
0000
0000
0000
0000
0000
0000
0000
0000
0000
0000
0000
0000
0000
0000
0010
0000
0000
0000
0000
0000
0000
0000
0000
0000
0000
0000
0000
0000
0000
0000
1001
0000
0000
0000
0000
0000
0010
0000
0000
0000
0000
0000
0100
0000
0000
0000
0000
0000
1000
0000
0000
0000
0000
0000
0000
0000
0000
0000
0000
0000
0000
0000
0000
0000
0000
0000
0000
0000
0000
0000
0000
0000
0000
0000
0000
0000
0000
0000
,  // measure 29
0101
0100
0100
0100
1100
0100
0100
0100
0111
0100
0100
0100
1100
0100
0100
0100
,  // measure 30
1001
0100
0000
0000
0000
0000
0000
0000
1001
0100
0000
0000
0000
0000
0000
0000
1011
0100
0000
0000
1001
0100
0000
0000
0000
0000
0000
0000
1001
0100
0000
0000
1001
0100
0000
0000
0000
0000
0000
0000
1001
0100
0000
0000
0000
0000
0000
0000
0110
0000
0000
0000
0000
0000
0000
0000
0000
0000
0000
0000
0000
0000
0000
0000
,  // measure 31
1001
0001
0001
0001
0011
0001
0001
0001
1101
0001
0001
0001
0011
0001
0001
0001
,  // measure 32
0M00
0000
0000
0000
0M00
0000
000M
0000
00M0
0000
0000
0000
M000
0000
0000
0000
0000
0000
00M0
0000
0000
0000
0000
0000
0MM0
0000
0000
000M
0M00
0000
0000
0000
0000
0000
0000
0000
M00M
0000
0000
MMM0
0000
0000
00M0
0000
0000
0000
0000
0000
0MM0
0000
0000
000M
0000
0000
0000
0000
0M00
0000
0000
0000
M0M0
0000
0000
0000
0000
0000
0000
0000
0000
0000
0000
0000
00MM
0000
0000
0000
0000
0000
0000
0000
0000
0000
0000
0000
0M00
0000
0000
0000
0000
0000
M000
0000
0000
0000
0000
0000
00M0
0000
0000
0000
0000
0000
0MM0
0000
0000
0000
0000
0000
00MM
0000
0000
0000
0000
0000
0000
0000
0000
0000
0000
0000
0000
0000
0000
0000
0000
0000
M000
0000
0000
0000
0000
0000
0000
0000
0000
0000
0000
0000
0000
0000
0000
0000
0000
0000
0M00
0000
0000
0000
0000
0000
0000
0000
0000
0000
0000
0000
0M00
0000
0000
0000
0000
0000
0000
0000
0000
0000
0000
0000
0MMM
0000
0000
0000
0000
0000
0000
0000
0000
0000
0000
0000
0000
0000
0000
0000
0000
0000
0000
0000
0000
0000
0000
0000
,  // measure 33
1100
0000
0000
0000
1000
0000
0000
0000
1000
0000
0000
0000
1000
0000
0000
0000
1010
0000
0000
0000
0000
0000
0000
0000
0001
1000
0000
0000
0000
0000
0000
0000
0111
1000
0000
0000
0000
0000
0000
0000
0100
1000
0000
0000
0000
0000
0000
0000
0101
1000
0000
0000
0000
0000
0000
0000
0100
1000
0000
0000
0000
0000
0000
0000
,  // measure 34
0101
1000
0000
0000
0000
0000
0000
0000
0100
1000
0000
0000
0000
0000
0000
0000
0101
1000
0000
0000
0000
0000
0000
0000
0100
1000
0000
0000
0000
0000
0000
0000
0111
1000
0000
0000
0000
0000
0000
0000
0100
1000
0000
0000
0000
0000
0000
0000
0101
1000
0000
0000
0000
0000
0000
0000
0100
1000
0000
0000
0000
0000
0000
0000
,  // measure 35
0001
0000
0000
0010
0000
0000
0000
0000
0100
0000
0000
0000
0000
0000
0000
1000
0000
0000
0000
0000
0000
0001
0000
0000
0000
0000
0000
0000
0010
0000
0000
0000
0000
0000
0000
0000
0000
0000
0000
0100
0000
0000
0000
0000
0000
0000
0000
0000
0000
0000
0000
1000
0000
0000
0000
0000
0000
0000
0000
0000
0000
0000
0000
0000
0001
0000
0000
0000
0000
0000
0000
0000
0000
0000
0000
0000
0000
0000
0000
0000
0010
0000
0000
0000
0000
0000
0000
0000
0000
0000
0000
0000
0000
0000
0000
0000
1110
0000
0000
0000
0000
0000
0000
0000
0000
0000
0000
0000
0000
0000
0000
0000
1000
0000
0000
0000
0000
0000
0000
0000
0000
0000
0000
0000
0000
0000
0000
0000
1000
0000
0000
0000
0000
0000
0000
0000
0000
0000
0000
0000
0000
0000
0000
0000
0110
0000
0000
0000
0000
0000
0000
0000
0000
0000
0000
0000
0000
0000
0000
0000
0100
0000
0000
0000
0000
0000
0000
0000
0000
0000
0000
0000
0000
0000
0000
0000
0100
0000
0000
0000
0000
0000
0000
0000
0000
0000
0000
0000
0000
0000
0000
0000
,  // measure 36
0110
0100
0100
0110
0010
0010
0111
0001
0001
0101
0001
0001
,  // measure 37
1010
0000
0000
0000
0010
0000
0000
0000
0010
0000
0000
0000
0010
0000
0000
0000
1001
0100
0010
0000
0000
0000
0000
0000
0011
0000
0000
0000
0000
0000
0000
0000
1101
0000
0000
0000
0000
0000
0000
0000
0100
0001
0000
0000
0000
0000
0000
0000
1100
0001
0000
0000
0000
0000
0000
0000
0100
0001
0000
0000
0000
0000
0000
0000
,  // measure 38
1100
0001
0000
0000
0000
0000
0000
0000
0100
0001
0000
0000
0000
0000
0000
0000
1100
0001
0000
0000
0000
0000
0000
0000
0100
0001
0000
0000
0000
0000
0000
0000
1110
0001
0000
0000
0000
0000
0000
0000
0100
0001
0000
0000
0000
0000
0000
0000
1100
0001
0000
0000
0000
0000
0000
0000
0100
0001
0000
0000
0000
0000
0000
0000
,  // measure 39
0011
0000
0000
0010
0000
0000
0010
0000
0000
0010
0000
0000
0011
0000
0000
0000
0000
0000
0010
0000
0000
0000
0000
0000
1101
0000
0000
0000
1000
0000
0000
0000
1000
0000
0000
0000
1100
0000
0000
0000
0100
0000
0000
0000
0100
0000
0000
0000
,  // measure 40
0110
0100
0100
0110
0010
0010
1011
0010
0010
0011
0001
0001
,  // measure 41
0101
0100
0100
0100
1100
0100
0100
0100
0111
0100
0100
0100
0101
0100
0100
0100
,  // measure 42
1001
0100
0000
0000
0000
0000
0000
0000
1001
0100
0000
0000
0000
0000
0000
0000
0001
0100
0000
0000
0001
0100
0000
0000
0000
0000
0000
0000
0001
0100
0000
0000
0001
0100
0000
0000
0000
0000
0000
0000
0002
0023
0230
2300
3000
0000
0000
0000
0011
0000
0000
0000
0000
0000
0000
0000
0000
0000
0000
0000
0000
0000
0000
0000
,  // measure 43
0101
0001
0001
0001
0011
0001
0001
0001
1101
0001
0001
0001
0011
0001
0001
0001
,  // measure 44
0101
0000
0000
0000
0000
0000
0000
0000
0000
0000
0000
0000
0000
0000
0000
0000
0100
0000
0000
0000
0000
0000
0000
0000
1000
0000
0000
0000
0000
0000
0000
0000
0100
0000
0000
0000
0000
0000
0000
0000
0000
0000
0000
0000
0000
0000
0000
0000
0110
0000
0000
0000
0000
0000
0000
0000
0000
0000
0000
0000
0000
0000
0000
0000
0000
0000
0000
0000
1000
0100
0000
0000
0000
0000
0000
0000
0000
0000
0000
0000
0000
0000
0000
0000
0000
0000
0000
0100
0000
0000
0000
0000
0000
0000
0000
0000
0110
0000
0000
0000
0000
0000
0000
0000
0000
0000
0000
0000
0000
0000
0000
0000
0010
0000
0000
0000
0000
0000
0000
0000
0000
0000
0000
0000
0000
0000
0000
0000
0010
0000
0000
0000
0000
0000
0000
0000
0000
0000
0000
0000
0000
0000
0000
0000
1010
0000
0000
0000
0000
0000
0000
0000
0000
0000
0000
0000
0000
0000
0000
0000
0000
0000
0000
0000
0000
0000
0000
0000
0000
0000
0000
0000
0000
0000
0000
0000
0000
0000
0000
0000
0000
0000
0000
0000
0000
0000
0000
0000
0000
0000
0000
0000
,  // measure 45
1010
1000
1000
1000
1000
0000
1010
0000
0101
0000
0001
0000
0101
0000
0011
0000
,  // measure 46
1001
0001
0101
0001
0101
0001
0011
0101
,  // measure 47
1001
0000
0000
0001
0000
0000
0001
0000
0000
0001
0000
0000
0001
0000
0010
0000
0000
0100
0000
0000
0000
1000
0000
0000
1000
0000
0000
0000
1000
0000
0000
0000
1000
0000
0000
0000
1100
0000
0000
0000
1000
0000
0100
0000
1000
0000
0000
0000
,  // measure 48
1100
0000
0100
0000
0100
0000
0101
0000
0100
0000
0100
0000
0110
0000
0010
0000
0010
0000
0011
0000
0001
0010
0001
0000
,  // measure 49
1000
1000
1000
1000
1000
1000
1000
1000
,  // measure 50
0100
0100
0100
0100
0100
0100
0100
0100
,  // measure 51
0010
0010
0010
0010
0010
0010
0010
0010
,  // measure 52
0000
0000
0000
0000
,  // measure 53
2100
0000
0000
0000
0000
0000
0000
0000
0000
0000
0000
0000
0000
0000
0000
0000
0000
0000
0000
0000
0000
0000
0000
0000
0000
0000
0000
0000
0000
0000
0000
0000
0000
0000
0000
0000
0000
0000
0000
0000
0000
0000
0000
0000
0000
0000
0000
0000
3222
0000
0000
0000
0000
0000
0333
0000
0000
0000
0000
0000
0000
0000
0000
0000
0000
0000
0000
0000
0000
0000
0000
0000
0000
0000
0000
0000
0000
0000
0000
0000
0000
0000
0000
0000
0000
0000
0000
0010
0000
0000
0000
0000
0000
0000
0000
0000
1100
0000
0000
0000
0000
0000
0000
0000
0000
0000
0000
0000
0000
0000
0000
0000
0000
0000
0000
0000
0000
0000
0000
0000
1000
0000
0000
0000
0000
0000
0000
0000
0000
0000
0000
0000
0000
0000
0000
0000
0000
0000
0000
0000
0000
0000
0000
0000
0202
0000
0000
0000
0000
0000
0303
0000
0000
0000
0000
0000
0010
0000
0000
0000
0000
0000
0000
0000
0000
0000
0000
0000
0000
0000
0000
0000
0000
0000
0000
0000
0000
0000
0000
0000
0000
0000
0000
0000
0001
0000
0000
0000
0000
0000
0000
0000
,  // measure 54
1001
0000
0000
0000
1000
0000
0000
0000
2022
3033
0000
0000
1000
0000
0000
0000
1010
0000
0000
0000
1000
0000
0000
0000
0222
0333
0000
0000
0000
0000
0000
0000
,  // measure 55
0020
0000
0000
0000
0000
0000
0000
0000
0000
0000
0000
0000
0000
0000
0000
0000
0000
0000
0000
0000
0000
0000
0000
0000
0000
0000
0000
0000
0000
0000
0000
0000
0000
0000
0000
0000
0000
0000
0000
0000
0000
0000
0000
0000
0000
0030
0000
0000
2220
0000
0000
0001
0000
0000
3300
0000
0000
0000
0000
0000
0100
0000
0000
0000
0000
0000
1000
0000
0000
0030
0000
0000
0000
0000
0000
0000
0000
0000
0000
0000
0000
0000
0000
0000
0000
0000
0000
0000
0000
0000
0000
0000
0000
0000
0000
0000
1100
0000
0000
0000
0000
0000
0000
0000
0000
0000
0000
0000
0000
0000
0000
0000
1000
0000
0000
0000
0000
0000
0000
0000
0000
0000
0000
0000
0000
0000
0000
0000
1000
0000
0000
0000
0000
0000
0000
0000
0000
0000
0000
0000
0000
0000
0000
0000
2220
0000
0000
0000
0000
0000
3330
0000
0000
0000
0000
0000
0000
0000
0000
0000
0000
0000
0000
0000
0000
0000
0000
0000
0000
0000
0000
0000
0000
0000
0000
0000
0000
0000
0000
0000
0000
0000
0000
0000
0000
0000
0000
0000
0000
0000
0000
0000
,  // measure 56
0110
0000
0000
0000
0000
0000
0000
0000
0000
0000
0000
0000
0000
0000
0000
0000
0100
0000
0000
0000
0000
0000
0000
0000
0000
0000
0000
0000
0000
0000
0000
0000
0100
0000
0000
0000
0000
0000
0000
0000
0000
0000
0000
0000
0000
0000
0000
0000
2220
0000
0000
0000
0000
0000
3330
0000
0000
0000
0000
0000
0000
0000
0000
0000
0010
0000
0000
0000
0000
0000
0000
0000
0000
0000
0000
0000
0000
0000
0000
0000
0010
0000
0000
0000
0000
0000
0000
0000
0000
0000
0000
0000
0000
0000
0000
0000
0011
0000
0000
0000
0000
0000
0000
0000
0000
0000
0000
0000
0000
0000
0000
0000
0001
0000
0000
0000
0000
0000
0000
0000
0000
0000
0000
0000
0000
0000
0000
0000
0001
0000
0000
0000
0000
0000
0000
0000
0000
0000
0000
0000
0000
0000
0000
0000
0022
0000
0000
0000
0000
0000
0033
0000
0000
0000
0000
0000
0000
0000
0000
0000
0000
0000
0000
0000
0000
0000
0000
0000
0000
0000
0000
0000
0000
0000
0000
0000
0000
0000
0000
0000
0000
0000
0000
0000
0000
0000
0000
0000
0000
0000
0000
0000
,  // measure 57
2100
0000
0000
0000
0000
0000
0000
0000
0000
0000
0000
0000
0000
0000
0000
0000
0000
0000
0000
0000
0000
0000
0000
0000
0000
0000
0000
0000
0000
0000
0000
0000
0000
0000
0000
0000
0000
0000
0000
0000
3000
0000
0000
0000
0000
0000
0000
0000
2220
0000
0000
0000
0000
0000
0330
0000
0000
0000
0000
0000
0000
0000
0000
0000
0000
0000
0000
0000
0000
0000
0000
0000
0000
0000
0000
0000
0000
0000
0000
0000
0000
0000
0000
0000
0000
0000
0000
0000
3000
0000
0000
0000
0000
0000
0000
0000
0101
0000
0000
0000
0000
0000
0000
0000
0000
0000
0000
0000
0000
0000
0000
0000
0000
0000
0000
0000
0000
0000
0000
0000
0001
0000
0000
0000
0000
0000
0000
0000
0000
0000
0000
0000
0000
0000
0000
0000
0000
0000
0000
0000
0000
0000
0000
0000
0222
0000
0000
0000
0000
0000
0333
0000
0000
0000
0000
0000
0000
0000
0000
0000
0000
0000
0000
0000
0000
0000
0000
0000
0000
0000
0000
0000
0000
0000
0000
0000
0000
0000
0000
0000
0000
0000
0000
0000
0000
0000
0000
0000
0000
0000
0000
0000
,  // measure 58
1100
0000
0000
0000
1100
0000
0000
0000
2220
3330
0000
0000
0110
0000
0000
0000
0101
0000
0000
0000
1100
0000
0000
0000
2002
3003
0000
0000
0000
0000
0000
0000
,  // measure 59
0001
0000
0000
0000
0010
0000
0000
0000
0000
0000
0000
0000
0100
0000
0000
0000
1000
0000
0000
0000
0000
0000
0000
0000
0000
0000
0000
0000
0000
0000
0000
0000
0000
0000
0000
0000
0000
0000
0000
0000
0000
0000
0000
0000
0000
0000
0000
0000
0202
0000
0000
0000
0010
0000
0303
0000
0000
0000
0000
0000
0100
0000
0000
0000
1000
0000
0000
0000
0000
0000
0000
0000
0000
0000
0000
0000
0000
0000
0000
0000
0000
0000
0000
0000
0000
0000
0000
0000
0000
0000
0000
0000
0000
0000
0000
0000
1100
0000
0000
0010
0000
0000
0000
0000
0000
0000
0000
0000
0000
0000
0000
0000
1000
0000
0010
0000
0000
0000
0000
0000
0000
0000
0000
0000
0000
0000
0000
0000
1000
0010
0000
0000
0000
0000
0000
0000
0000
0000
0000
0000
0000
0000
0000
0000
2022
0000
0000
0000
0000
0000
3033
0000
0000
0000
0000
0000
0000
0000
0000
0000
0000
0000
0000
0000
0000
0000
0000
0000
0000
0000
0000
0000
0000
0000
0000
0000
0000
0000
0000
0000
0000
0000
0000
0000
0000
0000
0000
0000
0000
0000
0000
0000
,  // measure 60
0110
0000
0000
1000
0000
0000
0000
0000
0000
0000
0000
0000
0000
0000
0000
0000
0100
0000
1000
0000
0000
0000
0000
0000
0000
0000
0000
0000
0000
0000
0000
0000
0100
1000
0000
0000
0000
0000
0000
0000
0000
0000
0000
0000
0000
0000
0000
0000
2220
0000
0000
0001
0000
0000
3330
0000
0000
0000
0000
0000
0000
0000
0000
0000
0010
0000
0001
0000
0000
0000
0000
0000
0000
0000
0000
0000
0000
0000
0000
0000
0010
0001
0000
0000
0000
0000
0000
0000
0000
0000
0000
0000
0000
0000
0000
0000
0011
0000
0000
0000
0000
0000
0000
0000
0000
0000
0000
0000
0000
0000
0000
0000
0001
0000
0010
0000
0000
0000
0000
0000
0000
0000
0000
0000
0000
0000
0000
0000
0001
0010
0000
0000
0000
0000
0000
0000
0000
0000
0000
0000
0000
0000
0000
0000
2202
0000
0000
0000
0000
0000
3303
0000
0000
0000
0000
0000
0000
0000
0000
0000
0000
0000
0000
0000
0000
0000
0000
0000
0000
0000
0000
0000
0000
0000
0000
0000
0000
0000
0000
0000
0000
0000
0000
0000
0000
0000
0000
0000
0000
0000
0000
0000
,  // measure 61
2100
0000
0000
0000
0000
0000
0000
0000
0000
0000
0000
0000
0000
0000
0000
0000
0000
0000
0000
0000
0000
0000
0000
0000
0000
0000
0000
0000
0000
0000
0000
0000
0000
0000
0000
0000
0000
0000
0000
0000
0000
0000
0000
0000
0000
3000
0000
0000
2220
0000
0000
0000
0000
0000
0330
0000
0000
0000
0000
0000
0000
0000
0000
0000
0000
0000
0000
0000
0000
0000
0000
0000
0000
0000
0000
0000
0000
0000
0000
0000
0000
0000
0000
0000
0000
0000
0000
0000
0000
0000
0000
0000
0000
0000
0000
0000
3011
0000
0000
0000
0100
0000
0000
0000
1000
0000
0000
0000
0000
0000
0000
0000
0000
0000
0000
0000
0000
0000
0000
0000
0011
0000
0000
0000
0100
0000
0000
0000
1000
0000
0000
0000
0000
0000
0000
0000
0000
0000
0000
0000
0000
0000
0000
0000
0222
0000
0000
0000
0000
0000
0333
0000
0000
0000
0000
0000
0000
0000
0000
0000
0000
0000
0000
0000
0000
0000
0000
0000
0000
0000
0000
0000
0000
0000
0000
0000
0000
0000
0000
0000
0000
0000
0000
0000
0000
0000
0000
0000
0000
0000
0000
0000
,  // measure 62
1100
0000
0000
0000
0010
0000
0000
0000
0001
0000
0000
0000
0000
0000
0000
0000
0000
0000
0000
0000
0000
0000
0000
0000
1100
0000
0000
0000
0010
0000
0000
0000
0001
0000
0000
0000
0000
0000
0000
0000
0000
0000
0000
0000
0000
0000
0000
0000
2200
0000
0000
0000
0010
0000
3300
0000
0001
0000
0000
0000
0000
0000
0000
0000
0000
0000
0000
0000
0000
0000
0000
0000
1100
0000
0000
0000
0010
0000
0000
0000
0001
0000
0000
0000
0000
0000
0000
0000
0000
0000
0000
0000
0000
0000
0000
0000
1100
0000
0000
0000
0010
0000
0000
0000
0001
0000
0000
0000
0000
0000
0000
0000
0000
0000
0000
0000
0000
0000
0000
0000
1100
0000
0000
0000
0010
0000
0000
0000
0001
0000
0000
0000
0000
0000
0000
0000
0000
0000
0000
0000
0000
0000
0000
0000
2200
0000
0000
0000
0000
0000
3300
0000
0000
0000
0000
0000
0000
0000
0000
0000
0000
0000
0000
0000
0000
0000
0000
0000
0000
0000
0000
0000
0000
0000
0000
0000
0000
0000
0000
0000
0000
0000
0000
0000
0000
0000
0000
0000
0000
0000
0000
0000
,  // measure 63
1001
0000
0000
0010
0000
0000
0000
0000
0000
0100
0000
0000
0000
0000
0000
0000
0000
0000
0000
0000
0000
0000
0000
0000
0000
0000
0000
0000
0000
0000
0000
0000
0000
0000
0000
0000
0000
0000
0000
0000
0000
0000
0000
0000
0000
0000
0000
0000
2002
0000
0000
0010
0000
0000
3003
0000
0000
0100
0000
0000
0000
0000
0000
0000
0000
0000
0000
0000
0000
0000
0000
0000
0000
0000
0000
0000
0000
0000
0000
0000
0000
0000
0000
0000
0000
0000
0000
0000
0000
0000
0000
0000
0000
0000
0000
0000
1100
0000
0000
0000
0000
0000
0000
0000
0000
0000
0000
0000
0000
0000
0000
0000
1000
0000
0000
0000
0000
0000
0000
0000
0000
0000
0000
0000
0000
0000
0000
0000
1000
0000
0000
0000
0000
0000
0000
0000
0000
0000
0000
0000
0000
0000
0000
0000
0222
0000
0000
0000
0000
0000
0333
0000
0000
0000
0000
0000
0000
0000
0000
0000
0000
0000
0000
0000
0000
0000
0000
0000
0000
0000
0000
0000
0000
0000
0000
0000
0000
0000
0000
0000
0000
0000
0000
0000
0000
0000
0000
0000
0000
0000
0000
0000
,  // measure 64
0110
0000
0000
0000
0000
0000
0000
0000
0000
0000
0000
0000
0000
0000
0000
0000
0100
0000
0000
0000
0000
0000
0000
0000
0000
0000
0000
0000
0000
0000
0000
0000
0100
0000
0000
0000
0000
0000
0000
0000
0000
0000
0000
0000
0000
0000
0000
0000
0222
0000
0000
0000
0000
0000
0333
0000
0000
0000
0000
0000
0000
0000
0000
0000
0010
0000
0000
0000
0000
0000
0000
0000
0000
0000
0000
0000
0000
0000
0000
0000
0010
0000
0000
0000
0000
0000
0000
0000
0000
0000
0000
0000
0000
0000
0000
0000
0011
0000
0000
0000
0000
0000
0000
0000
0000
0000
0000
0000
0000
0000
0000
0000
0001
0000
0000
0000
0000
0000
0000
0000
0000
0000
0000
0000
0000
0000
0000
0000
0001
0000
0000
0000
0000
0000
0000
0000
0000
0000
0000
0000
0000
0000
0000
0000
0201
0000
0000
0000
0000
0000
0300
0000
0000
0000
0000
0000
0000
0000
0000
0000
0000
0000
0000
0000
0000
0000
0000
0000
0000
0000
0000
0000
0000
0000
0000
0000
0000
0000
0000
0000
0000
0000
0000
0000
0000
0000
0000
0000
0000
0000
0000
0000
,  // measure 65
1100
1000
1000
1000
1100
1000
1000
1000
1101
1000
1000
1000
0101
0000
0000
0000
,  // measure 66
1000
0000
1000
0000
1000
1000
0000
1000
1000
0000
1000
0000
0000
0000
1001
0000
,  // measure 67
0110
0010
0010
0010
0110
0010
0010
0010
1110
0010
0010
0010
0100
0000
0000
0000
,  // measure 68
0100
0000
0000
0000
0000
0000
0000
0000
0000
0000
0000
0000
0000
0000
0000
0000
0100
0000
0000
0000
0000
0000
0000
0000
0000
0000
0000
0000
0000
0000
0000
0000
0100
0000
0000
0000
0000
0000
0000
0000
0000
0000
0000
0000
0000
0000
0000
0000
0110
0000
0000
0000
0000
0000
0000
0000
0000
0000
0000
0000
0000
0000
0000
0000
0000
0000
0000
0000
0010
0000
0000
0000
0000
0000
0000
0000
0000
0000
0000
0000
0000
0000
0000
0000
0010
0000
0000
0000
0000
0000
0000
0000
0000
0000
0000
0000
0001
0000
0000
0000
0000
0000
0000
0000
0000
0000
0000
0000
0000
0000
0000
0000
0001
0000
0000
0000
0000
0000
0000
0000
0000
0000
0000
0000
0000
0000
0000
0000
0001
0010
0000
0000
0100
0000
0000
0000
1000
0000
0000
0000
0000
0000
0000
0000
0000
0000
0000
0000
0000
0000
0000
0000
0000
0000
0000
0000
0000
0000
0000
0000
0000
0000
0000
0000
0000
0000
0000
0000
0000
0000
0000
0000
0000
0000
0000
0000
0000
0000
0000
0000
0000
0000
0000
0000
0000
0000
0000
0000
0000
0000
0000
0000
,  // measure 69
2100
0000
0000
0000
0000
0000
0000
0000
0000
0000
0000
0000
0000
0000
0000
0000
0000
0000
0000
0000
0000
0000
0000
0000
0000
0000
0000
0000
0000
0000
0000
0000
0000
0000
0000
0000
0000
0000
0000
0000
0000
0000
0000
0000
0000
0000
0000
0000
3222
0000
0000
0000
0000
0000
0333
0000
0000
0000
0000
0000
0000
0000
0000
0000
0000
0000
0000
0000
0000
0000
0000
0000
0000
0000
0000
0000
0000
0000
0000
0000
0000
0000
0000
0000
0000
0000
0000
0010
0000
0000
0000
0000
0000
0000
0000
0000
1100
0000
0000
0000
0000
0000
0000
0000
0000
0000
0000
0000
0000
0000
0000
0000
0000
0000
0000
0000
0000
0000
0000
0000
1000
0000
0000
0000
0000
0000
0000
0000
0000
0000
0000
0000
0000
0000
0000
0000
0000
0000
0000
0000
0000
0000
0000
0000
0202
0000
0000
0000
0000
0000
0303
0000
0000
0000
0000
0000
0010
0000
0000
0000
0000
0000
0000
0000
0000
0000
0000
0000
0000
0000
0000
0000
0000
0000
0000
0000
0000
0000
0000
0000
0000
0000
0000
0000
0001
0000
0000
0000
0000
0000
0000
0000
,  // measure 70
1001
0000
0000
0000
1000
0000
0000
0000
2022
3033
0000
0000
1000
0000
0000
0000
1010
0000
0000
0000
1000
0000
0000
0000
0222
0333
0000
0000
0000
0000
0000
0000
,  // measure 71
0020
0000
0000
0000
0000
0000
0000
0000
0000
0000
0000
0000
0000
0000
0000
0000
0000
0000
0000
0000
0000
0000
0000
0000
0000
0000
0000
0000
0000
0000
0000
0000
0000
0000
0000
0000
0000
0000
0000
0000
0000
0000
0000
0000
0000
0030
0000
0000
2220
0000
0000
0001
0000
0000
3300
0000
0000
0000
0000
0000
0100
0000
0000
0000
0000
0000
1000
0000
0000
0030
0000
0000
0000
0000
0000
0000
0000
0000
0000
0000
0000
0000
0000
0000
0000
0000
0000
0000
0000
0000
0000
0000
0000
0000
0000
0000
1100
0000
0000
0000
0000
0000
0000
0000
0000
0000
0000
0000
0000
0000
0000
0000
1000
0000
0000
0000
0000
0000
0000
0000
0000
0000
0000
0000
0000
0000
0000
0000
1000
0000
0000
0000
0000
0000
0000
0000
0000
0000
0000
0000
0000
0000
0000
0000
2220
0000
0000
0000
0000
0000
3330
0000
0000
0000
0000
0000
0000
0000
0000
0000
0000
0000
0000
0000
0000
0000
0000
0000
0000
0000
0000
0000
0000
0000
0000
0000
0000
0000
0000
0000
0000
0000
0000
0000
0000
0000
0000
0000
0000
0000
0000
0000
,  // measure 72
0110
0000
0000
0000
0000
0000
0000
0000
0000
0000
0000
0000
0000
0000
0000
0000
0100
0000
0000
0000
0000
0000
0000
0000
0000
0000
0000
0000
0000
0000
0000
0000
0100
0000
0000
0000
0000
0000
0000
0000
0000
0000
0000
0000
0000
0000
0000
0000
2220
0000
0000
0000
0000
0000
3330
0000
0000
0000
0000
0000
0000
0000
0000
0000
0010
0000
0000
0000
0000
0000
0000
0000
0000
0000
0000
0000
0000
0000
0000
0000
0010
0000
0000
0000
0000
0000
0000
0000
0000
0000
0000
0000
0000
0000
0000
0000
0011
0000
0000
0000
0000
0000
0000
0000
0000
0000
0000
0000
0000
0000
0000
0000
0001
0000
0000
0000
0000
0000
0000
0000
0000
0000
0000
0000
0000
0000
0000
0000
0001
0000
0000
0000
0000
0000
0000
0000
0000
0000
0000
0000
0000
0000
0000
0000
0022
0000
0000
0000
0000
0000
0033
0000
0000
0000
0000
0000
0000
0000
0000
0000
0000
0000
0000
0000
0000
0000
0000
0000
0000
0000
0000
0000
0000
0000
0000
0000
0000
0000
0000
0000
0000
0000
0000
0000
0000
0000
0000
0000
0000
0000
0000
0000
,  // measure 73
2100
0000
0000
0000
0000
0000
0000
0000
0000
0000
0000
0000
0000
0000
0000
0000
0000
0000
0000
0000
0000
0000
0000
0000
0000
0000
0000
0000
0000
0000
0000
0000
0000
0000
0000
0000
0000
0000
0000
0000
3000
0000
0000
0000
0000
0000
0000
0000
2220
0000
0000
0000
0000
0000
0330
0000
0000
0000
0000
0000
0000
0000
0000
0000
0000
0000
0000
0000
0000
0000
0000
0000
0000
0000
0000
0000
0000
0000
0000
0000
0000
0000
0000
0000
0000
0000
0000
0000
3000
0000
0000
0000
0000
0000
0000
0000
0101
0000
0000
0000
0000
0000
0000
0000
0000
0000
0000
0000
0000
0000
0000
0000
0000
0000
0000
0000
0000
0000
0000
0000
0001
0000
0000
0000
0000
0000
0000
0000
0000
0000
0000
0000
0000
0000
0000
0000
0000
0000
0000
0000
0000
0000
0000
0000
0222
0000
0000
0000
0000
0000
0333
0000
0000
0000
0000
0000
0000
0000
0000
0000
0000
0000
0000
0000
0000
0000
0000
0000
0000
0000
0000
0000
0000
0000
0000
0000
0000
0000
0000
0000
0000
0000
0000
0000
0000
0000
0000
0000
0000
0000
0000
0000
,  // measure 74
1100
0000
0000
0000
1100
0000
0000
0000
2220
3330
0000
0000
0110
0000
0000
0000
0101
0000
0000
0000
1100
0000
0000
0000
2002
3003
0000
0000
0000
0000
0000
0000
,  // measure 75
0001
0000
0000
0000
0010
0000
0000
0000
0000
0000
0000
0000
0100
0000
0000
0000
1000
0000
0000
0000
0000
0000
0000
0000
0000
0000
0000
0000
0000
0000
0000
0000
0000
0000
0000
0000
0000
0000
0000
0000
0000
0000
0000
0000
0000
0000
0000
0000
0202
0000
0000
0000
0010
0000
0303
0000
0000
0000
0000
0000
0100
0000
0000
0000
1000
0000
0000
0000
0000
0000
0000
0000
0000
0000
0000
0000
0000
0000
0000
0000
0000
0000
0000
0000
0000
0000
0000
0000
0000
0000
0000
0000
0000
0000
0000
0000
1100
0000
0000
0010
0000
0000
0000
0000
0000
0000
0000
0000
0000
0000
0000
0000
1000
0000
0010
0000
0000
0000
0000
0000
0000
0000
0000
0000
0000
0000
0000
0000
1000
0010
0000
0000
0000
0000
0000
0000
0000
0000
0000
0000
0000
0000
0000
0000
2022
0000
0000
0000
0000
0000
3033
0000
0000
0000
0000
0000
0000
0000
0000
0000
0000
0000
0000
0000
0000
0000
0000
0000
0000
0000
0000
0000
0000
0000
0000
0000
0000
0000
0000
0000
0000
0000
0000
0000
0000
0000
0000
0000
0000
0000
0000
0000
,  // measure 76
0110
0000
0000
1000
0000
0000
0000
0000
0000
0000
0000
0000
0000
0000
0000
0000
0100
0000
1000
0000
0000
0000
0000
0000
0000
0000
0000
0000
0000
0000
0000
0000
0100
1000
0000
0000
0000
0000
0000
0000
0000
0000
0000
0000
0000
0000
0000
0000
2220
0000
0000
0001
0000
0000
3330
0000
0000
0000
0000
0000
0000
0000
0000
0000
0010
0000
0001
0000
0000
0000
0000
0000
0000
0000
0000
0000
0000
0000
0000
0000
0010
0001
0000
0000
0000
0000
0000
0000
0000
0000
0000
0000
0000
0000
0000
0000
0011
0000
0000
0000
0000
0000
0000
0000
0000
0000
0000
0000
0000
0000
0000
0000
0001
0000
0010
0000
0000
0000
0000
0000
0000
0000
0000
0000
0000
0000
0000
0000
0001
0010
0000
0000
0000
0000
0000
0000
0000
0000
0000
0000
0000
0000
0000
0000
2202
0000
0000
0000
0000
0000
3303
0000
0000
0000
0000
0000
0000
0000
0000
0000
0000
0000
0000
0000
0000
0000
0000
0000
0000
0000
0000
0000
0000
0000
0000
0000
0000
0000
0000
0000
0000
0000
0000
0000
0000
0000
0000
0000
0000
0000
0000
0000
,  // measure 77
2100
0000
0000
0000
0000
0000
0000
0000
0000
0000
0000
0000
0000
0000
0000
0000
0000
0000
0000
0000
0000
0000
0000
0000
0000
0000
0000
0000
0000
0000
0000
0000
0000
0000
0000
0000
0000
0000
0000
0000
0000
0000
0000
0000
0000
3000
0000
0000
2220
0000
0000
0000
0000
0000
0330
0000
0000
0000
0000
0000
0000
0000
0000
0000
0000
0000
0000
0000
0000
0000
0000
0000
0000
0000
0000
0000
0000
0000
0000
0000
0000
0000
0000
0000
0000
0000
0000
0000
0000
0000
0000
0000
0000
0000
0000
0000
3011
0000
0000
0000
0100
0000
0000
0000
1000
0000
0000
0000
0000
0000
0000
0000
0000
0000
0000
0000
0000
0000
0000
0000
0011
0000
0000
0000
0100
0000
0000
0000
1000
0000
0000
0000
0000
0000
0000
0000
0000
0000
0000
0000
0000
0000
0000
0000
0222
0000
0000
0000
0000
0000
0333
0000
0000
0000
0000
0000
0000
0000
0000
0000
0000
0000
0000
0000
0000
0000
0000
0000
0000
0000
0000
0000
0000
0000
0000
0000
0000
0000
0000
0000
0000
0000
0000
0000
0000
0000
0000
0000
0000
0000
0000
0000
,  // measure 78
1100
0000
0000
0000
0010
0000
0000
0000
0001
0000
0000
0000
0000
0000
0000
0000
0000
0000
0000
0000
0000
0000
0000
0000
1100
0000
0000
0000
0010
0000
0000
0000
0001
0000
0000
0000
0000
0000
0000
0000
0000
0000
0000
0000
0000
0000
0000
0000
2200
0000
0000
0000
0010
0000
3300
0000
0001
0000
0000
0000
0000
0000
0000
0000
0000
0000
0000
0000
0000
0000
0000
0000
1100
0000
0000
0000
0010
0000
0000
0000
0001
0000
0000
0000
0000
0000
0000
0000
0000
0000
0000
0000
0000
0000
0000
0000
1100
0000
0000
0000
0010
0000
0000
0000
0001
0000
0000
0000
0000
0000
0000
0000
0000
0000
0000
0000
0000
0000
0000
0000
1100
0000
0000
0000
0010
0000
0000
0000
0001
0000
0000
0000
0000
0000
0000
0000
0000
0000
0000
0000
0000
0000
0000
0000
2200
0000
0000
0000
0000
0000
3300
0000
0000
0000
0000
0000
0000
0000
0000
0000
0000
0000
0000
0000
0000
0000
0000
0000
0000
0000
0000
0000
0000
0000
0000
0000
0000
0000
0000
0000
0000
0000
0000
0000
0000
0000
0000
0000
0000
0000
0000
0000
,  // measure 79
1001
0000
0000
0010
0000
0000
0000
0000
0000
0100
0000
0000
0000
0000
0000
0000
0000
0000
0000
0000
0000
0000
0000
0000
0000
0000
0000
0000
0000
0000
0000
0000
0000
0000
0000
0000
0000
0000
0000
0000
0000
0000
0000
0000
0000
0000
0000
0000
2002
0000
0000
0010
0000
0000
3003
0000
0000
0100
0000
0000
0000
0000
0000
0000
0000
0000
0000
0000
0000
0000
0000
0000
0000
0000
0000
0000
0000
0000
0000
0000
0000
0000
0000
0000
0000
0000
0000
0000
0000
0000
0000
0000
0000
0000
0000
0000
1100
0000
0000
0000
0000
0000
0000
0000
0000
0000
0000
0000
0000
0000
0000
0000
1000
0000
0000
0000
0000
0000
0000
0000
0000
0000
0000
0000
0000
0000
0000
0000
1000
0000
0000
0000
0000
0000
0000
0000
0000
0000
0000
0000
0000
0000
0000
0000
0222
0000
0000
0000
0000
0000
0333
0000
0000
0000
0000
0000
0000
0000
0000
0000
0000
0000
0000
0000
0000
0000
0000
0000
0000
0000
0000
0000
0000
0000
0000
0000
0000
0000
0000
0000
0000
0000
0000
0000
0000
0000
0000
0000
0000
0000
0000
0000
,  // measure 80
0110
0000
0000
0000
0000
0000
0000
0000
0000
0000
0000
0000
0000
0000
0000
0000
0100
0000
0000
0000
0000
0000
0000
0000
0000
0000
0000
0000
0000
0000
0000
0000
0100
0000
0000
0000
0000
0000
0000
0000
0000
0000
0000
0000
0000
0000
0000
0000
0222
0000
0000
0000
0000
0000
0333
0000
0000
0000
0000
0000
0000
0000
0000
0000
0010
0000
0000
0000
0000
0000
0000
0000
0000
0000
0000
0000
0000
0000
0000
0000
0010
0000
0000
0000
0000
0000
0000
0000
0000
0000
0000
0000
0000
0000
0000
0000
0011
0000
0000
0000
0000
0000
0000
0000
0000
0000
0000
0000
0000
0000
0000
0000
0001
0000
0000
0000
0000
0000
0000
0000
0000
0000
0000
0000
0000
0000
0000
0000
0001
0000
0000
0000
0000
0000
0000
0000
0000
0000
0000
0000
0000
0000
0000
0000
0201
0300
0000
0000
0000
0000
0000
0000
0000
0000
0000
0000
0000
0000
0000
0000
0000
0000
0000
0000
0000
0000
0000
0000
0000
0000
0000
0000
0000
0000
0000
0000
0000
0000
0000
0000
0000
0000
0000
0000
0000
0000
0000
0000
0000
0000
0000
0000
,  // measure 81
1001
1000
1010
1000
1001
1000
1020
1031
,  // measure 82
1100
0100
0101
0100
1100
0100
0120
1130
,  // measure 83
0011
0010
0110
0010
1010
0010
0210
1310
,  // measure 84
1001
0001
0011
0001
0101
0001
2001
3101
,  // measure 85
1000
1000
1000
1000
1000
1000
1000
1000
,  // measure 86
0100
0100
0100
0100
0100
0100
0100
0100
,  // measure 87
0010
0010
0010
0010
0010
0010
0010
0010
,  // measure 88
0001
0001
0001
0001
0001
0001
0001
0001
,  // measure 89
0110
0100
1000
1000
0111
0000
0100
0000
0101
0000
0101
0000
0111
0000
0000
0000
,  // measure 90
1010
0001
0000
0000
0000
0000
0000
0000
1010
0001
0000
0000
0000
0000
0000
0000
1110
0001
0000
0000
0000
0000
0000
0000
1010
0001
0000
0000
0000
0000
0000
0000
1010
0001
0000
0000
0000
0000
0000
0000
1010
0001
0000
0000
0000
0000
0000
0000
1110
0000
0000
0000
0000
0000
0000
0000
0000
0000
0000
0000
0000
0000
0000
0000
,  // measure 91
0101
0000
0000
0001
0000
0000
0001
0000
0000
0001
0000
0000
1001
0000
0010
0000
0100
0000
1000
0000
0000
0000
0000
0000
1100
0000
0000
0000
1000
0000
0000
0000
1000
0000
0000
0000
1110
0000
0000
0000
0000
0000
0000
0000
0000
0000
0000
0000
,  // measure 92
1100
0100
0100
0111
0010
0010
0011
0001
0001
1101
0000
0000
,  // measure 93
1010
0000
0000
0000
1000
0000
0000
0000
1000
0000
0000
0000
1000
0000
0000
0000
1110
0000
0000
0000
0000
0000
0000
0000
0110
0000
0000
0000
0000
0000
0000
0000
0011
0100
0000
0000
0000
0000
0000
0000
0011
0100
0000
0000
0000
0000
0000
0000
1011
0000
0000
0000
0000
0000
0000
0000
0000
0000
0000
0000
0000
0000
0000
0000
,  // measure 94
0011
1000
0000
0000
0000
0000
0000
0000
0011
1000
0000
0000
0000
0000
0000
0000
0111
1000
0000
0000
0000
0000
0000
0000
0011
1000
0000
0000
0000
0000
0000
0000
0011
1000
0000
0000
0000
0000
0000
0000
0011
1000
0000
0000
0000
0000
0000
0000
0111
0000
0000
0000
0000
0000
0000
0000
0000
0000
0000
0000
0000
0000
0000
0000
,  // measure 95
1001
0000
0000
0000
0000
0000
0000
0000
0000
0000
0000
0000
0001
0000
0000
0000
0000
0000
0000
0000
0000
0000
0000
0000
0001
0000
0000
0000
0000
0000
0010
0000
0000
0000
0000
0000
0000
0000
0000
0100
0000
0000
0000
0000
0000
0000
0000
0000
0111
0000
0000
1000
0000
0000
0000
0000
0000
0000
0000
0000
0000
0000
0000
0000
0000
0000
0000
0000
0000
0000
0000
0000
0011
0000
0000
0000
0000
0000
0000
0000
0000
0000
0000
0000
0000
0000
0000
0000
0000
0000
0000
0000
0000
0000
0000
0000
1010
0000
0000
0000
0000
0000
0000
0000
0000
0000
0000
0000
0000
0000
0000
0000
1000
0000
0000
0000
0000
0000
0000
0000
0000
0000
0000
0000
0000
0000
0000
0000
1000
0000
0000
0000
0000
0000
0000
0000
0000
0000
0000
0000
0000
0000
0000
0000
1011
0000
0000
0000
0000
0000
0000
0000
0000
0000
0000
0000
0000
0000
0000
0000
0000
0000
0000
0000
0000
0000
0000
0000
0000
0000
0000
0000
0000
0000
0000
0000
0000
0000
0000
0000
0000
0000
0000
0000
0000
0000
0000
0000
0000
0000
0000
0000
,  // measure 96
0110
0000
0100
0000
0100
0000
0010
0000
0010
0100
0010
0000
0011
0000
0001
0000
0001
0000
1110
0000
0000
0000
0000
0000
,  // measure 97
1001
1000
0100
0100
1011
0000
1000
0000
1010
0000
1010
0000
1011
0000
0000
0000
,  // measure 98
0101
0010
0000
0000
0000
0000
0000
0000
0101
0010
0000
0000
0000
0000
0000
0000
1101
0010
0000
0000
0000
0000
0000
0000
0101
0010
0000
0000
0000
0000
0000
0000
0101
0010
0000
0000
0000
0000
0000
0000
0101
0010
0000
0000
0000
0000
0000
0000
1101
0000
0000
0000
0000
0000
0000
0000
0000
0000
0000
0000
0000
0000
0000
0000
,  // measure 99
0101
0000
0000
0001
0000
0000
0001
0000
0000
0001
0000
0000
1001
0000
0010
0000
0100
0000
1000
0000
0000
0000
0000
0000
1100
0000
0000
0000
1000
0000
0000
0000
1000
0000
0000
0000
1110
0000
0000
0000
0000
0000
0000
0000
0000
0000
0000
0000
,  // measure 100
1100
0100
0100
0111
0010
0010
0011
0001
0001
1101
0000
0000
,  // measure 101
1100
0000
0000
0000
1000
0000
0000
0000
1000
0000
0000
0000
1000
0000
0000
0000
1110
0000
0000
0000
0000
0000
0000
0000
0110
0000
0000
0000
0000
0000
0000
0000
1100
0010
0000
0000
0000
0000
0000
0000
1100
0010
0000
0000
0000
0000
0000
0000
1101
0000
0000
0000
0000
0000
0000
0000
0000
0000
0000
0000
0000
0000
0000
0000
,  // measure 102
1100
0001
0000
0000
0000
0000
0000
0000
1100
0001
0000
0000
0000
0000
0000
0000
1110
0001
0000
0000
0000
0000
0000
0000
1100
0001
0000
0000
0000
0000
0000
0000
1100
0001
0000
0000
0000
0000
0000
0000
1100
0001
0000
0000
0000
0000
0000
0000
1110
0000
0000
0000
0000
0000
0000
0000
0000
0000
0000
0000
0000
0000
0000
0000
,  // measure 103
1001
0000
0000
0000
0000
0000
0000
0000
0000
0000
0000
0000
0001
0000
0000
0000
0000
0000
0000
0000
0000
0000
0000
0000
0001
0000
0000
0000
0000
0000
0010
0000
0000
0000
0000
0000
0000
0000
0000
0100
0000
0000
0000
0000
0000
0000
0000
0000
0111
0000
0000
1000
0000
0000
0000
0000
0000
0000
0000
0000
0000
0000
0000
0000
0000
0000
0000
0000
0000
0000
0000
0000
0011
0000
0000
0000
0000
0000
0000
0000
0000
0000
0000
0000
0000
0000
0000
0000
0000
0000
0000
0000
0000
0000
0000
0000
1010
0000
0000
0000
0000
0000
0000
0000
0000
0000
0000
0000
0000
0000
0000
0000
1000
0000
0000
0000
0000
0000
0000
0000
0000
0000
0000
0000
0000
0000
0000
0000
1000
0000
0000
0000
0000
0000
0000
0000
0000
0000
0000
0000
0000
0000
0000
0000
1011
0000
0000
0000
0000
0000
0000
0000
0000
0000
0000
0000
0000
0000
0000
0000
0000
0000
0000
0000
0000
0000
0000
0000
0000
0000
0000
0000
0000
0000
0000
0000
0000
0000
0000
0000
0000
0000
0000
0000
0000
0000
0000
0000
0000
0000
0000
0000
,  // measure 104
0110
0000
0100
0000
0100
0000
0010
0000
0010
0100
0010
0000
0011
0000
0001
0000
0001
0000
1110
0000
0000
0000
0000
0000
,  // measure 105
0110
0100
1000
1000
0111
0000
0100
0000
0101
0000
0101
0000
0111
0000
0000
0000
,  // measure 106
1010
0001
0000
0000
0000
0000
0000
0000
1010
0001
0000
0000
0000
0000
0000
0000
1110
0001
0000
0000
0000
0000
0000
0000
1010
0001
0000
0000
0000
0000
0000
0000
1010
0001
0000
0000
0000
0000
0000
0000
1010
0001
0000
0000
0000
0000
0000
0000
1110
0000
0000
0000
0000
0000
0000
0000
0000
0000
0000
0000
0000
0000
0000
0000
,  // measure 107
0101
0000
0000
0001
0000
0000
0001
0000
0000
0001
0000
0000
1001
0000
0010
0000
0100
0000
1000
0000
0000
0000
0000
0000
1100
0000
0000
0000
1000
0000
0000
0000
1000
0000
0000
0000
1110
0000
0000
0000
0000
0000
0000
0000
0000
0000
0000
0000
,  // measure 108
1100
0100
0100
0111
0010
0010
0011
0001
0001
1101
0000
0000
,  // measure 109
1010
0000
0000
0000
1000
0000
0000
0000
1000
0000
0000
0000
1000
0000
0000
0000
1110
0000
0000
0000
0000
0000
0000
0000
0110
0000
0000
0000
0000
0000
0000
0000
0011
0100
0000
0000
0000
0000
0000
0000
0011
0100
0000
0000
0000
0000
0000
0000
1011
0000
0000
0000
0000
0000
0000
0000
0000
0000
0000
0000
0000
0000
0000
0000
,  // measure 110
0011
1000
0000
0000
0000
0000
0000
0000
0011
1000
0000
0000
0000
0000
0000
0000
0111
1000
0000
0000
0000
0000
0000
0000
0011
1000
0000
0000
0000
0000
0000
0000
0011
1000
0000
0000
0000
0000
0000
0000
0011
1000
0000
0000
0000
0000
0000
0000
0111
0000
0000
0000
0000
0000
0000
0000
0000
0000
0000
0000
0000
0000
0000
0000
,  // measure 111
1001
0000
0000
0000
0000
0000
0000
0000
0000
0000
0000
0000
0001
0000
0000
0000
0000
0000
0000
0000
0000
0000
0000
0000
0001
0000
0000
0000
0000
0000
0010
0000
0000
0000
0000
0000
0000
0000
0000
0100
0000
0000
0000
0000
0000
0000
0000
0000
0111
0000
0000
1000
0000
0000
0000
0000
0000
0000
0000
0000
0000
0000
0000
0000
0000
0000
0000
0000
0000
0000
0000
0000
0011
0000
0000
0000
0000
0000
0000
0000
0000
0000
0000
0000
0000
0000
0000
0000
0000
0000
0000
0000
0000
0000
0000
0000
1010
0000
0000
0000
0000
0000
0000
0000
0000
0000
0000
0000
0000
0000
0000
0000
1000
0000
0000
0000
0000
0000
0000
0000
0000
0000
0000
0000
0000
0000
0000
0000
1000
0000
0000
0000
0000
0000
0000
0000
0000
0000
0000
0000
0000
0000
0000
0000
1011
0000
0000
0000
0000
0000
0000
0000
0000
0000
0000
0000
0000
0000
0000
0000
0000
0000
0000
0000
0000
0000
0000
0000
0000
0000
0000
0000
0000
0000
0000
0000
0000
0000
0000
0000
0000
0000
0000
0000
0000
0000
0000
0000
0000
0000
0000
0000
,  // measure 112
0110
0000
0100
0000
0100
0000
0010
0000
0010
0100
0010
0000
0011
0000
0001
0000
0001
0000
1110
0000
0000
0000
0000
0000
,  // measure 113
1100
0100
0100
0100
1110
0000
1000
0000
0101
0000
0101
0000
1110
0000
0000
0000
,  // measure 114
1100
0010
0000
0000
0000
0000
0000
0000
1100
0010
0000
0000
0000
0000
0000
0000
1101
0010
0000
0000
0000
0000
0000
0000
1100
0010
0000
0000
0000
0000
0000
0000
1100
0010
0000
0000
0000
0000
0000
0000
1100
0010
0000
0000
0000
0000
0000
0000
1101
0000
0000
0000
0000
0000
0000
0000
0000
0000
0000
0000
0000
0000
0000
0000
,  // measure 115
1001
0000
0000
0010
0100
0000
0000
0000
0000
0000
0000
0000
1000
0000
0000
0001
0000
0000
0000
0000
0000
0000
0000
0000
0000
0000
0000
0010
0000
0000
0000
0000
0000
0000
0000
0000
0000
0000
0000
0000
1000
0000
0000
0000
0000
0000
0000
0000
0111
0000
0000
0000
0000
0000
0000
0000
0000
0000
0000
0000
0000
0000
0000
0000
1000
0000
0000
0000
0000
0000
0000
0000
0000
0000
0000
0000
0000
0000
0000
0000
0000
0000
0000
0000
0000
0000
0000
0000
0000
0000
0000
0000
0000
0000
0000
0000
1100
0000
0000
0000
0000
0000
0000
0000
0000
0000
0000
0000
0000
0000
0000
0000
1000
0000
0000
0000
0000
0000
0000
0000
0000
0000
0000
0000
0000
0000
0000
0000
1000
0000
0000
0000
0000
0000
0000
0000
0000
0000
0000
0000
0000
0000
0000
0000
1110
0000
0000
0000
0000
0000
0000
0000
0000
0000
0000
0000
0000
0000
0000
0000
0000
0000
0000
0000
0000
0000
0000
0000
0000
0000
0000
0000
0000
0000
0000
0000
0000
0000
0000
0000
0000
0000
0000
0000
0000
0000
0000
0000
0000
0000
0000
0000
,  // measure 116
0110
0100
0100
1110
0010
0010
0011
0001
0001
1101
0000
0000
,  // measure 117
0110
0000
0000
0000
0100
0000
0000
0000
0100
0000
0000
0000
0100
0000
0000
0000
1110
0000
0000
0000
0000
0000
0000
0000
0100
0000
0000
0000
0000
0000
0000
0000
0012
0000
0000
0000
0000
0000
0000
0003
0002
0000
0000
0000
0000
0000
0000
0003
1011
0000
0000
0000
0000
0000
0000
0000
0000
0000
0000
0000
0000
0000
0000
0000
,  // measure 118
2100
0000
0000
0000
0000
0000
0000
3000
2000
0000
0000
0000
0000
0000
0000
3000
2110
0000
0000
0000
0000
0000
0000
3000
2000
0000
0000
0000
0000
0000
0000
3000
2100
0000
0000
0000
0000
0000
0000
3000
2000
0000
0000
0000
0000
0000
0000
3000
0111
0000
0000
0000
0000
0000
0000
0000
0000
0000
0000
0000
0000
0000
0000
0000
,  // measure 119
1001
0000
0000
0000
0000
0000
0010
0000
0000
0000
0000
0000
0100
0000
0000
0000
0000
0000
1000
0000
0000
0000
0000
0000
0001
0000
0000
0000
0000
0000
0010
0000
0000
0000
0000
0000
0100
0000
0000
0000
0000
0000
1000
0000
0000
0000
0000
0000
0111
0000
0000
0000
0000
0000
0000
0000
0000
0000
0000
0000
0000
0000
0000
0000
0000
0000
0000
0000
0000
0000
0000
0000
0100
0000
0000
0000
0000
0000
0000
0000
0000
0000
0000
0000
0000
0000
0000
0000
0000
0000
0000
0000
0000
0000
0000
0000
1100
0000
0000
0000
0000
0000
0000
0000
0000
0000
0000
0000
0000
0000
0000
0000
1000
0000
0000
0000
0000
0000
0000
0000
0000
0000
0000
0000
0000
0000
0000
0000
1000
0000
0000
0000
0000
0000
0000
0000
0000
0000
0000
0000
0000
0000
0000
0000
1110
0000
0000
0000
0000
0000
0000
0000
0000
0000
0000
0000
0000
0000
0000
0000
0000
0000
0000
0000
0000
0000
0000
0000
0000
0000
0000
0000
0000
0000
0000
0000
0000
0000
0000
0000
0000
0000
0000
0000
0000
0000
0000
0000
0000
0000
0000
0000
,  // measure 120
0100
0000
0000
0000
0000
0000
0000
0000
0000
0000
0000
0000
0000
0000
0000
0000
0100
0000
0000
0000
0000
0000
0000
0000
0000
0000
0000
0000
0000
0000
0000
0000
0100
0000
0000
0000
0000
0000
0000
0000
0000
0000
0000
0000
0000
0000
0000
0000
0010
0000
0000
0000
0000
0000
0000
0000
0000
0000
0000
0000
0000
0000
0000
0000
0010
0000
0000
0000
0000
0000
0000
0000
0000
0000
0000
0000
0000
0000
0000
0000
0010
0000
0000
0000
0000
0000
0000
0000
0000
0000
0000
0000
0000
0000
0000
0000
0001
0000
0000
0000
0000
0000
0000
0000
0000
0000
0000
0000
0000
0000
0000
0000
0001
0000
0000
0000
0000
0000
0000
0000
0000
0000
0000
0000
0000
0000
0000
0000
0001
0000
0000
0000
0000
0000
0000
0000
0000
0000
0000
0000
0000
0000
0000
0000
0002
0000
0000
0000
0000
0000
0020
0000
0000
0000
0000
0000
0200
0000
0000
0000
0000
0000
2000
0000
0000
0000
0000
0000
0000
0000
0000
0000
0000
0000
3333
0000
0000
0000
0000
0000
0000
0000
0000
0000
0000
0000
0000
0000
0000
0000
0000
0000
,  // measure 121
0110
0000
0000
0000
0100
0000
0000
0000
2000
3000
0000
0000
1010
0000
0000
0000
0100
0000
0000
0000
0100
0000
0000
0000
0210
0300
0000
0000
0000
0000
0000
0000
0111
0000
0000
0000
0000
0000
0000
0000
1200
0300
0000
0000
0000
0000
0000
0000
0000
0000
0000
0000
0000
0000
0000
0000
0021
0030
0000
0000
0000
0000
0000
0000
,  // measure 122
2011
0000
3000
0000
0000
0000
0000
0000
2200
0300
3000
0000
0011
0000
0000
0000
2000
0000
3000
0000
0000
0000
0000
0000
2021
0030
3000
0000
0000
0000
0000
0000
2111
0000
3000
0000
0000
0000
0000
0000
2200
0300
3000
0000
0000
0000
0000
0000
0100
0000
0000
0000
0000
0000
0000
0000
0021
0030
0000
0000
0000
0000
0000
0000
,  // measure 123
0011
0000
0000
0000
0000
0000
0000
0000
0200
0300
0000
0000
0011
0000
0000
0000
0100
0000
0000
0000
0000
0000
0000
0000
0021
0030
0000
0000
0000
0000
0000
0000
1111
0000
0000
0000
0000
0000
0000
0000
0200
0300
0000
0000
0000
0000
0000
0000
0100
0000
0000
0000
0000
0000
0000
0000
0021
0030
0000
0000
0000
0000
0000
0000
,  // measure 124
0011
0000
0000
0000
0000
0000
0000
0000
0200
0300
0000
0000
0011
0000
0000
0000
0100
0000
0000
0000
0000
0000
0000
0000
0021
0030
0000
0000
0000
0000
0000
0000
1111
0000
0000
0000
0000
0000
0000
0000
1200
0300
0000
0000
0000
0000
0000
0000
0100
0000
0000
0000
0000
0000
0000
0000
0210
0300
0000
0000
0000
0000
0000
0000
,  // measure 125
0110
0000
0000
0000
0100
0000
0000
0000
0200
0300
0000
0000
0110
0000
0000
0000
1100
0000
0000
0000
0000
0000
0000
0000
0210
0300
0000
0000
0000
0000
0000
0000
1101
0000
0000
0000
0000
0000
0000
0000
0210
0300
0000
0000
0000
0000
0000
0000
0100
0000
0000
0000
0000
0000
0000
0000
2010
3000
0000
0000
0000
0000
0000
0000
,  // measure 126
0110
0000
0000
0000
0000
0000
0000
0000
0200
0300
0000
0000
0011
0000
0000
0000
0100
0000
0000
0000
0000
0000
0000
0000
0210
0300
0000
0000
0000
0000
0000
0000
1101
0000
0000
0000
0000
0000
0000
0000
0020
0030
0000
0000
0000
0000
0000
0000
0100
0000
0000
0000
0000
0000
0000
0000
1200
0300
0000
0000
0000
0000
0000
0000
,  // measure 127
1010
0000
0000
0000
0000
0000
0000
0000
0200
0300
0000
0000
1010
0000
0000
0000
0100
0000
0000
0000
0000
0000
0000
0000
0210
0300
0000
0000
0000
0000
0000
0000
0111
0000
0000
0000
0000
0000
0000
0000
0210
0300
0000
0000
0000
0000
0000
0000
0100
0000
0000
0000
0000
0000
0000
0000
0201
0300
0000
0000
0000
0000
0000
0000
,  // measure 128
1010
0000
0000
1010
0000
0000
1010
0000
0000
1010
0000
0000
1010
0000
0111
0000
,  // measure 129
1001
0000
0000
0000
1000
0000
0000
0000
2000
3000
0000
0000
1001
0000
0000
0000
0100
0000
0000
0000
0100
0000
0000
0000
2001
3000
0000
0000
0000
0000
0000
0000
1011
0000
0000
0000
0000
0000
0000
0000
0120
0030
0000
0000
0000
0000
0000
0000
0001
0000
0000
0000
0000
0000
0000
0000
0021
0030
0000
0000
0000
0000
0000
0000
,  // measure 130
1100
0000
0000
0000
0000
0000
0000
0000
0020
0030
0000
0000
1100
0000
0000
0000
0010
0000
0000
0000
0000
0000
0000
0000
1200
0300
0000
0000
0000
0000
0000
0000
1101
0000
0000
0000
0000
0000
0000
0000
0020
0030
0000
0000
0000
0000
0000
0000
0010
0000
0000
0000
0000
0000
0000
0000
0120
0030
0000
0000
0000
0000
0000
0000
,  // measure 131
1100
0000
0000
0000
0000
0000
0000
0000
0020
0030
0000
0000
1100
0000
0000
0000
0010
0000
0000
0000
0000
0000
0000
0000
0120
0030
0000
0000
0000
0000
0000
0000
1101
0000
0000
0000
0000
0000
0000
0000
0020
0030
0000
0000
0000
0000
0000
0000
0000
0000
0000
0000
0000
0000
0000
0000
0120
0030
0000
0000
0000
0000
0000
0000
,  // measure 132
1100
0000
0000
0000
0000
0000
0000
0000
0020
0030
0000
0000
1100
0000
0000
0000
0010
0000
0000
0000
0000
0000
0000
0000
0120
0030
0000
0000
0000
0000
0000
0000
1101
0000
0000
0000
0000
0000
0000
0000
0020
0030
0000
0000
0000
0000
0000
0000
0000
0000
0000
0000
0000
0000
0000
0000
0120
0030
0000
0000
0000
0000
0000
0000
,  // measure 133
1100
0000
0000
0000
1000
0000
0000
0000
2000
3000
0000
0000
1010
0000
0000
0000
1000
0000
0000
0000
1000
0000
0000
0000
2010
3000
0000
0000
0000
0000
0000
0000
1101
0000
0000
0000
0000
0000
0000
0000
0020
0030
0000
0000
0000
0000
0000
0000
0000
0000
0000
0000
0000
0000
0000
0000
0120
0030
0000
0000
0000
0000
0000
0000
,  // measure 134
1100
0000
0000
0000
0000
0000
0000
0000
0020
0030
0000
0000
1100
0000
0000
0000
0010
0000
0000
0000
0000
0000
0000
0000
1020
0030
0000
0000
0000
0000
0000
0000
1011
0000
0000
0000
0000
0000
0000
0000
0020
0030
0000
0000
0000
0000
0000
0000
1000
0000
0000
0000
0000
0000
0000
0000
0120
0030
0000
0000
0000
0000
0000
0000
,  // measure 135
1100
0000
0000
0000
0000
0000
0000
0000
0020
0030
0000
0000
1100
0000
0000
0000
0000
0000
0000
0000
0000
0000
0000
0000
0120
0030
0000
0000
0000
0000
0000
0000
1101
0000
0000
0000
0000
0000
0000
0000
0020
0030
0000
0000
0000
0000
0000
0000
0000
0000
0000
0000
0000
0000
0000
0000
0120
0030
0000
0000
0000
0000
0000
0000
,  // measure 136
MM00
0000
0000
000M
00M0
0000
0000
0000
0000
0000
0000
0000
0000
0000
0000
0M00
00M0
0000
0000
0000
0000
0000
0000
0000
MM00
0000
0000
0000
000M
0000
0000
0000
00M0
0000
0000
0000
0000
0000
0000
0000
0000
0000
0000
0000
0M00
0000
0000
0000
M0M0
0000
0000
0000
000M
0000
0000
0000
0000
0000
0000
0000
M000
0000
0000
0M00
0000
0000
0000
0000
0000
00M0
0000
0000
0000
0000
0000
M000
0000
0000
0000
0000
0000
0M00
0000
0000
0MMM
0000
0000
0000
0000
0000
0000
0000
0000
0000
0000
0000
M000
0000
0000
0000
0MM0
0000
0000
0000
0000
0000
0000
0000
0000
0000
0000
0000
0000
0000
0000
0000
0000
0000
0000
0000
M0MM
0000
0000
0000
0000
0000
0000
0000
0MM0
0000
0000
0000
0000
0000
0000
0000
MM00
0000
0000
0000
00M0
0000
0000
0000
0M0M
0000
0000
0000
0000
0000
0000
0000
M000
0000
0000
0000
0MM0
0000
0000
0000
M000
0000
0000
0000
000M
0000
0000
0000
0000
0000
0000
0000
0000
0000
0000
0000
0000
0000
0000
0000
0M00
0000
0000
0000
0000
0000
0000
0000
0000
0000
0000
0000
,  // measure 137
1001
0000
0000
0000
1000
0000
0000
0000
2000
3000
0000
0000
1001
0000
0000
0000
0100
0000
0000
0000
0100
0000
0000
0000
2001
3000
0000
0000
0000
0000
0000
0000
1011
0000
0000
0000
0000
0000
0000
0000
0120
0030
0000
0000
0000
0000
0000
0000
0001
0000
0000
0000
0000
0000
0000
0000
0021
0030
0000
0000
0000
0000
0000
0000
,  // measure 138
1100
0000
0000
0000
0000
0000
0000
0000
0020
0030
0000
0000
1100
0000
0000
0000
0010
0000
0000
0000
0000
0000
0000
0000
1200
0300
0000
0000
0000
0000
0000
0000
1101
0000
0000
0000
0000
0000
0000
0000
0020
0030
0000
0000
0000
0000
0000
0000
0010
0000
0000
0000
0000
0000
0000
0000
0120
0030
0000
0000
0000
0000
0000
0000
,  // measure 139
1100
0000
0000
0000
0000
0000
0000
0000
0020
0030
0000
0000
1100
0000
0000
0000
0010
0000
0000
0000
0000
0000
0000
0000
0120
0030
0000
0000
0000
0000
0000
0000
1101
0000
0000
0000
0000
0000
0000
0000
0020
0030
0000
0000
0000
0000
0000
0000
0000
0000
0000
0000
0000
0000
0000
0000
0120
0030
0000
0000
0000
0000
0000
0000
,  // measure 140
1100
0000
0000
0000
0000
0000
0000
0000
0020
0030
0000
0000
1100
0000
0000
0000
0010
0000
0000
0000
0000
0000
0000
0000
0120
0030
0000
0000
0000
0000
0000
0000
1101
0000
0000
0000
0000
0000
0000
0000
0020
0030
0000
0000
0000
0000
0000
0000
0000
0000
0000
0000
0000
0000
0000
0000
0120
0030
0000
0000
0000
0000
0000
0000
,  // measure 141
1100
0000
0000
0000
1000
0000
0000
0000
2000
3000
0000
0000
1010
0000
0000
0000
1000
0000
0000
0000
1000
0000
0000
0000
2010
3000
0000
0000
0000
0000
0000
0000
1101
0000
0000
0000
0000
0000
0000
0000
0020
0030
0000
0000
0000
0000
0000
0000
0000
0000
0000
0000
0000
0000
0000
0000
0120
0030
0000
0000
0000
0000
0000
0000
,  // measure 142
1100
0000
0000
0000
0000
0000
0000
0000
0020
0030
0000
0000
1100
0000
0000
0000
0010
0000
0000
0000
0000
0000
0000
0000
1020
0030
0000
0000
0000
0000
0000
0000
1011
0000
0000
0000
0000
0000
0000
0000
0020
0030
0000
0000
0000
0000
0000
0000
1000
0000
0000
0000
0000
0000
0000
0000
0120
0030
0000
0000
0000
0000
0000
0000
,  // measure 143
1100
0000
0000
0000
0000
0000
0000
0000
0020
0030
0000
0000
1100
0000
0000
0000
0000
0000
0000
0000
0000
0000
0000
0000
0120
0030
0000
0000
0000
0000
0000
0000
1101
0000
0000
0000
0000
0000
0000
0000
0020
0030
0000
0000
0000
0000
0000
0000
0000
0000
0000
0000
0000
0000
0000
0000
0120
0030
0000
0000
0000
0000
0000
0000
,  // measure 144
1010
0000
0000
1010
0000
0000
1010
0000
0000
1010
0000
0000
1010
0000
1111
0000
,  // measure 145
1001
0000
0000
0000
1000
0000
0000
0000
2000
3000
0000
0000
1001
0000
0000
0000
0100
0000
0000
0000
0100
0000
0000
0000
2001
3000
0000
0000
0000
0000
0000
0000
1011
0000
0000
0000
0000
0000
0000
0000
0120
0030
0000
0000
0000
0000
0000
0000
0001
0000
0000
0000
0000
0000
0000
0000
0021
0030
0000
0000
0000
0000
0000
0000
,  // measure 146
1100
0000
0000
0000
0000
0000
0000
0000
0020
0030
0000
0000
1100
0000
0000
0000
0010
0000
0000
0000
0000
0000
0000
0000
1200
0300
0000
0000
0000
0000
0000
0000
1101
0000
0000
0000
0000
0000
0000
0000
0020
0030
0000
0000
0000
0000
0000
0000
0010
0000
0000
0000
0000
0000
0000
0000
0120
0030
0000
0000
0000
0000
0000
0000
,  // measure 147
1100
0000
0000
0000
0000
0000
0000
0000
0020
0030
0000
0000
1100
0000
0000
0000
0010
0000
0000
0000
0000
0000
0000
0000
0120
0030
0000
0000
0000
0000
0000
0000
1101
0000
0000
0000
0000
0000
0000
0000
0020
0030
0000
0000
0000
0000
0000
0000
0000
0000
0000
0000
0000
0000
0000
0000
0120
0030
0000
0000
0000
0000
0000
0000
,  // measure 148
1100
0000
0000
0000
0000
0000
0000
0000
0020
0030
0000
0000
1100
0000
0000
0000
0010
0000
0000
0000
0000
0000
0000
0000
0120
0030
0000
0000
0000
0000
0000
0000
1101
0000
0000
0000
0000
0000
0000
0000
0020
0030
0000
0000
0000
0000
0000
0000
0000
0000
0000
0000
0000
0000
0000
0000
0120
0030
0000
0000
0000
0000
0000
0000
,  // measure 149
1100
0000
0000
0000
1000
0000
0000
0000
2000
3000
0000
0000
1010
0000
0000
0000
1000
0000
0000
0000
1000
0000
0000
0000
2010
3000
0000
0000
0000
0000
0000
0000
1101
0000
0000
0000
0000
0000
0000
0000
0020
0030
0000
0000
0000
0000
0000
0000
0000
0000
0000
0000
0000
0000
0000
0000
0120
0030
0000
0000
0000
0000
0000
0000
,  // measure 150
1100
0000
0000
0000
0000
0000
0000
0000
0020
0030
0000
0000
1100
0000
0000
0000
0010
0000
0000
0000
0000
0000
0000
0000
1020
0030
0000
0000
0000
0000
0000
0000
1011
0000
0000
0000
0000
0000
0000
0000
0020
0030
0000
0000
0000
0000
0000
0000
1000
0000
0000
0000
0000
0000
0000
0000
0120
0030
0000
0000
0000
0000
0000
0000
,  // measure 151
1100
0000
0000
0000
0000
0000
0000
0000
0020
0030
0000
0000
1100
0000
0000
0000
0000
0000
0000
0000
0000
0000
0000
0000
0120
0030
0000
0000
0000
0000
0000
0000
1101
0000
0000
0000
0000
0000
0000
0000
0020
0030
0000
0000
0000
0000
0000
0000
0000
0000
0000
0000
0000
0000
0000
0000
0120
0030
0000
0000
0000
0000
0000
0000
,  // measure 152
1001
0000
0000
1001
0000
0000
1001
0000
0000
1001
0000
0000
1001
0000
2222
0000
,  // measure 153
0000
0000
0000
0000
,  // measure 154
0000
0000
0000
0000
,  // measure 155
0000
0000
0000
0000
,  // measure 156
0000
0000
0000
0000
,  // measure 157
0000
0000
0000
0000
,  // measure 158
0000
0000
0000
0000
,  // measure 159
0000
0000
0000
0000
,  // measure 160
0000
0000
0000
0000
0003
0000
0000
3000
,  // measure 161
0000
0000
0000
0000
,  // measure 162
0000
0000
0000
0000
,  // measure 163
0000
0000
0000
0000
,  // measure 164
0000
0000
0000
0000
0000
0000
0000
0000
0000
0030
0000
0000
0000
0000
0000
0000
,  // measure 165
0000
0000
0000
0000
,  // measure 166
0000
0000
0000
0000
,  // measure 167
0300
0000
0000
0000
;
