#TITLE:She is my wife;
#SUBTITLE:;
#ARTIST:SUPER STAR MITSURU;
#TITLETRANSLIT:;
#SUBTITLETRANSLIT:;
#ARTISTTRANSLIT:;
#CREDIT:;
#BANNER:She is my wife-bn.png;
#BACKGROUND:She is my wife-bg.jpg;
#LYRICSPATH:;
#CDTITLE:;
#MUSIC:She is my wife.mp3;
#OFFSET:2.400;
#SAMPLESTART:59.040;
#SAMPLELENGTH:16.920;
#SELECTABLE:YES;
#BPMS:0.000=85.000,66.000=170.000,181.000=85.000,185.000=170.000;
#STOPS:66.000=2.470
,99.000=0.710
;
#BGCHANGES:-1.000=She is my wife.avi=1.000=1=1=0,
99999=-nosongbg-=1.000=0=0=0 // don't automatically add -songbackground-
;

//---------------dance-single - ----------------
#NOTES:
     dance-single:
     :
     Beginner:
     2:
     0.149,0.185,0.026,0.070,0.000:
0000
0000
0000
0000
,
0000
0000
0000
0000
,
0000
0000
0000
0000
,
0000
0000
0000
0000
,
0000
0000
0100
0000
,
0110
0000
0000
0000
,
0010
0000
0000
0000
,
0100
0000
0000
0000
,
0001
0000
0001
0000
,
0100
0000
0000
0000
,
0010
0000
0000
0000
,
2000
0000
0000
0000
,
3000
0000
0100
0000
,
0010
0000
0010
0000
,
0001
0000
0100
0000
,
0020
0000
0030
0000
,
0200
0000
0300
0100
,
0000
0000
0000
0100
,
0000
0000
0000
0100
,
0000
0000
0000
0010
,
0000
0010
0010
0010
,
0000
0010
0000
0100
,
0000
0100
0000
0001
,
0000
0001
0000
1000
,
0000
1000
0000
1001
,
0000
0100
0000
0100
,
0000
1000
1000
1000
,
0000
0010
0000
0010
,
0000
0001
0001
0001
,
0001
0001
0000
0001
,
0000
0100
0000
0100
,
0000
0010
0000
0010
,
0000
1000
1000
1000
,
1000
0100
0000
0010
,
0000
0001
0000
0100
,
0000
0020
0000
0030
,
0000
0000
0000
0000
,
0000
0010
0000
0010
,
0000
0100
0000
0100
,
0100
0001
0000
0001
,
0000
1000
0000
1000
,
1000
0010
0000
0010
,
0000
0010
0000
0010
,
0000
0100
0000
0100
,
0000
0100
0000
0100
,
0100
0200
0300
0020
,
0030
1000
0000
1000
,
0000
0100
0000
0100
,
0000
0010
0000
0010
,
0000
0001
0000
0001
,
0000
0010
0000
0010
,
0000
0100
0000
0100
,
0000
1000
0000
1000
,
0000
0010
0010
0010
,
0010
0100
0000
0001
,
0000
1000
0000
0010
,
0000
0200
0000
0000
,
0000
0020
0000
0330
,
0000
0010
0000
0010
,
0000
0100
0100
0100
,
0000
0110
0000
0000
;

//---------------dance-single - ----------------
#NOTES:
     dance-single:
     :
     Challenge:
     12:
     1.000,1.000,1.000,0.910,1.000:
0000
0000
0000
0000
,
1001
0000
0000
0000
0000
0000
0000
0000
0000
0001
0000
0000
0000
0000
0000
0010
0000
0000
0000
0000
0100
0000
0000
0000
1000
0000
0000
0000
0100
0000
0000
0000
0010
0000
0100
0000
0001
0000
1000
0000
0010
0000
0100
0000
0010
0000
0001
0000
,
0100
0000
0000
0000
0000
0000
0000
0000
0010
0000
0000
0000
0000
0000
0000
0000
1000
0000
0000
0000
0000
0000
0000
0000
0100
0000
0000
0000
0000
0000
0010
0000
0000
0000
0000
0000
0001
0000
0000
0000
0000
0000
1000
0000
0000
0000
0000
0000
0100
0000
0000
0000
0000
0000
0010
0000
0000
0000
0000
0000
1000
0000
0000
0000
0000
0000
0100
0000
0000
0000
0000
0000
0010
0000
0000
0000
0000
0000
0001
0000
0000
0000
0000
0000
0100
0000
0000
0000
0000
0000
0010
0000
0000
0000
0000
0000
1000
0000
0000
0000
0000
0000
0000
0000
0000
0000
0000
0000
0000
0000
0000
0000
0000
0000
0000
0000
0000
0000
0000
0000
0001
0000
0000
0000
0000
0000
0000
0000
0000
0000
0000
0000
0000
0000
0000
0000
0000
0000
0000
0000
0000
0000
0000
0000
0100
0000
0000
0000
0000
0000
0000
0000
0000
0000
0000
0000
0000
0000
0000
0000
0000
0000
0000
0000
0000
0000
0000
0000
0220
0000
0000
0000
0000
0000
0000
0000
0000
0000
0000
0000
0000
0000
0000
0000
0000
0000
0000
0000
0000
0000
0000
0000
,
0000
0330
0000
0202
0000
0000
0303
0000
,
0000
0000
0000
0000
0000
0000
0000
0000
0000
0000
0000
0000
2000
0000
0000
0000
0000
0000
0000
0000
0000
0000
0000
0000
3001
0000
0000
0000
0000
0000
0010
0000
0000
0100
0000
0000
1000
0000
0000
0000
0010
0000
0000
0000
0100
0000
0000
0000
,
2002
3003
0010
0100
0001
0000
2200
3300
0001
0000
0220
0330
0202
0303
2200
3300
,
2002
3003
0010
2001
3100
0000
0202
0303
0010
0000
1000
0000
0100
0000
2000
3020
,
1032
0003
0010
0001
0100
0000
0200
0302
2003
3000
0010
0201
0310
0000
2002
3003
,
0220
0330
0001
0000
0202
0303
0100
0000
0220
0330
0010
0000
0120
2030
3200
0320
,
1032
0003
0100
0010
1000
0000
0002
0203
0320
0030
1000
0002
0103
0000
0220
0330
,
2002
3003
0010
0000
0001
0000
0200
0320
2030
3000
0001
0200
0310
0000
2200
3300
,
0202
0000
0000
0303
0000
0000
0010
0000
0000
0000
0000
0000
0110
0000
0000
0000
0000
0000
1000
0000
0010
0000
0100
0000
0001
0000
0010
0000
0100
0000
1000
0000
0100
0000
0010
0000
0001
0000
0100
0000
0010
0000
1000
0000
0100
0000
0010
0000
,
2002
0000
3003
0000
0000
0000
0000
0000
0220
0000
0330
0000
0000
0000
0000
0000
0202
0000
0303
0000
0010
0000
1000
0010
2002
3003
0010
0000
0100
0000
0000
0000
,
0202
0303
0010
0000
0010
0000
2100
3020
0230
0300
0001
0000
0100
0000
1002
0203
,
0320
0030
1000
0000
0100
0000
0001
0100
0020
0030
1000
0200
0310
0000
0202
0303
,
2002
3003
0010
0000
1000
0000
0100
0000
0001
0000
0100
0000
0010
0000
2000
3002
,
0203
0000
0000
0000
0300
0000
0000
0000
0010
0000
0000
0000
1000
0000
0000
0000
0001
0000
0000
0000
0000
0000
0000
0000
1000
0000
0000
0000
0000
0000
0000
0000
2002
3003
0000
0000
0000
0000
0000
0000
0000
0000
0000
0000
0000
0000
0000
0000
1001
0000
0000
0000
0010
0000
0000
0000
0001
0000
0000
0000
0100
0000
0000
0000
,
0000
0010
0000
1000
0000
0100
0000
0010
0001
0100
0010
1000
0101
0010
0100
1000
,
0000
0010
0000
0100
0000
0001
0000
0100
0010
1000
0001
0100
0011
1000
0100
0010
,
0000
0100
0000
0001
0000
1000
0100
0010
0001
0100
0010
1000
0101
1000
0101
1000
,
0101
0010
0000
1000
0002
0013
0200
1300
0020
0130
0001
1000
0101
0010
1000
0001
,
0010
0100
0000
1000
0010
0100
0001
0010
0100
1000
0001
0100
0010
1000
0100
0010
,
0100
0001
0000
0100
0010
1000
0100
0010
0001
0100
0010
1000
0100
0001
1000
0010
,
0100
0001
0000
0100
0010
1000
0100
0010
0001
0100
0010
1000
0011
0100
0010
1100
,
0000
0010
0101
0010
1100
0001
0010
1100
0010
0001
0110
1000
0220
0330
0000
0000
,
0001
0000
0000
0000
0100
0000
0000
0000
0010
0000
0000
0000
1001
0000
0000
0000
0000
0000
0010
0000
0000
1000
0000
0000
0001
0000
0000
0000
0000
0000
0110
0000
0000
0000
0000
0000
0001
0000
0000
0000
0000
0000
1100
0000
0000
0000
0000
0000
,
0110
0000
0101
0000
1001
0000
0010
0101
1000
0000
0110
0000
0001
0000
0100
0010
,
1000
0000
0011
1100
0011
0000
0100
0010
1000
0000
0110
1001
0110
0000
0001
1100
,
0001
0110
0101
0001
1100
0010
0110
1000
,
0011
1100
0011
1100
0011
0000
0100
0010
1000
0000
0101
1010
0101
0000
0010
1100
,
0001
0000
0110
0000
1001
0000
0100
0001
1000
0000
1001
0110
1001
0000
0010
1100
,
0001
0000
0110
0000
0101
0000
1000
0000
0010
0000
1000
0100
0010
1000
0100
0010
,
1000
0100
0010
0001
0110
0000
1000
0000
1100
0000
0100
0000
0110
0000
0010
0000
,
0011
0000
0001
0000
1001
0000
0100
0000
0010
0000
1100
0011
1100
0000
0001
0000
,
0100
0000
1010
0101
1010
0000
0001
0000
0100
0000
0010
0000
1100
0000
0001
0110
,
1000
0000
0101
0000
1001
0000
0010
0001
0100
0000
0010
1000
0001
0000
0100
0010
,
0100
0000
1001
0000
0010
0000
0001
0100
0010
0000
1000
0100
0011
0100
1000
0011
,
0100
1000
0011
0000
1001
0000
0010
1000
0001
0000
1001
0000
0010
0000
0101
0000
,
1010
0000
0101
0000
0010
0000
1100
0000
0101
0000
0010
0000
1001
0000
0000
0101
,
0000
0000
1010
0100
0001
0000
0010
0100
0001
0000
0010
1000
0001
0000
0010
0100
,
0001
0000
1000
0000
0010
0000
1100
0001
1010
0000
0100
0000
0101
0000
0000
1010
,
0000
0000
1001
0110
1001
0000
0010
0000
1000
0000
0101
0000
0010
0000
0001
0000
,
0110
0100
0101
0010
1000
1100
0010
0001
,
0110
0000
0100
0000
1001
0010
0100
0010
0100
0010
0100
0010
1000
0001
1000
0001
,
1000
0001
1000
0001
0100
1000
0010
0001
0100
0010
0100
0001
1100
0010
0001
1100
,
0010
0001
1100
0010
2002
0000
0000
0000
0000
0000
3000
0000
0203
0000
0000
0000
,
0301
0010
0100
1000
0001
0010
0100
0010
0001
0000
0010
0000
0100
0000
1000
0000
0000
0000
0010
0000
0000
0000
0100
0000
0000
0000
0001
0000
0100
0000
0010
0000
,
1000
0100
0010
0001
0100
0010
1000
0100
0000
0001
0000
0100
0000
0010
1000
0001
,
0100
0010
0100
0001
0010
0100
0010
0001
0000
0100
0000
0010
0000
1000
0100
0010
,
0100
1000
0010
0100
0001
0100
0010
0001
0000
0100
0000
0010
0000
1000
0100
0010
,
0001
0100
0010
1000
0001
0100
0010
0001
0000
0100
0000
0010
0000
1000
0100
0010
,
0100
1000
0001
0010
0100
0010
0001
0100
0000
0010
0000
0100
0000
0001
0010
0001
,
0100
0010
1000
0001
0100
0010
0001
1000
0000
0010
0001
0010
0100
0001
0010
0100
,
0001
0100
0010
1000
0110
0000
0010
0000
0011
0000
0001
0000
1001
0000
1000
0000
,
1100
0000
0100
0000
0110
0000
0010
0001
0100
0010
1000
0100
0011
0000
0001
0100
,
0010
1000
0010
0001
0110
0000
1000
0010
0001
0100
0010
1000
0202
0303
0100
2020
,
3030
0010
2002
3003
0220
0030
0010
0000
0001
0000
0001
0000
0010
0000
1000
0000
,
0010
0000
0302
2003
3020
0000
0100
0000
1000
0000
0100
0000
0031
0100
0010
1000
,
0100
0010
0001
0100
0020
1000
0001
1000
0001
1000
0001
1000
0001
1000
0001
1000
,
0001
1000
0001
0100
2030
0001
0100
0001
0100
0001
0100
0001
0100
0001
0100
0001
,
0100
0000
0000
0000
0010
0000
0000
3000
1001
0000
0000
0000
0000
0000
0000
0000
0000
0000
0000
0000
0000
0000
0000
0000
0000
0000
0000
0000
0000
0000
0000
0000
0000
0000
0000
0000
0000
0000
0000
0000
0000
0000
0000
0000
0000
0000
0000
0000
0000
0000
0000
0000
0000
0000
0000
0000
0000
0000
0000
0000
0000
0000
0000
0000
;

//---------------dance-single - ----------------
#NOTES:
     dance-single:
     :
     Easy:
     4:
     0.278,0.369,0.201,0.140,0.000:
0000
0000
0000
0000
,
0000
0000
0000
0000
,
0000
0000
0000
0000
,
0000
0000
0000
0000
,
0000
0000
0100
0001
,
1001
0000
0000
0010
0000
0000
0100
0000
,
0001
0100
0010
1000
,
0001
0000
0000
0100
0010
0000
1000
0000
,
0001
0100
0010
1000
,
0001
0000
0000
0100
0010
0000
1000
0000
,
0001
0000
0000
0001
0100
0000
0010
0000
,
1000
0000
0000
0002
0000
0203
0000
0320
,
1030
0100
0010
0001
,
0100
0000
0000
0100
0010
0000
0000
0010
,
1000
0000
1000
0100
,
0002
0000
0000
0000
0000
0000
0003
0001
,
2000
0000
3001
1001
,
0000
0000
0000
0110
,
0000
0000
0000
1001
,
0000
0000
0000
0110
,
0110
0100
0100
1001
,
0001
0001
0001
0110
,
0100
0100
0100
1001
,
1000
1000
1000
0110
,
0010
0110
0100
0110
,
0000
0001
0100
0100
,
0001
1000
0010
0010
,
0000
0100
0001
1000
,
0010
0100
0100
0100
,
0000
0001
0100
0010
,
0100
0001
0100
0010
,
0100
0001
0000
1000
,
0000
0010
0100
0010
,
0100
0001
0000
0100
,
0000
0010
0000
1000
,
0100
0002
0000
0000
,
0000
0203
0000
0000
0010
0000
0310
0000
,
1000
0001
0000
0100
,
0000
0001
0110
1000
,
0110
0001
0000
0100
,
0000
0100
1001
0100
,
1001
0010
0000
0001
,
0000
0100
0000
0010
,
0000
0200
0000
0000
,
0000
0310
0000
0001
,
1000
1002
0000
0203
,
0020
0330
0010
1000
,
0100
0010
0001
0100
,
0010
1000
0001
0100
,
0010
1000
0100
0010
,
0001
0100
0010
0100
,
0010
1000
0100
1000
,
0100
0001
1000
0010
,
0100
0001
1001
1000
,
1001
0002
0103
2000
,
3100
0020
0130
0002
,
1003
0020
0100
0100
,
0100
0130
0000
0110
,
0000
0001
1000
0001
,
1000
0010
0110
0100
,
0110
1001
0000
0000
;

//---------------dance-single - ----------------
#NOTES:
     dance-single:
     :
     Medium:
     6:
     0.426,0.422,0.490,0.184,0.035: // measure 1
0000
0000
0000
0000
,  // measure 2
0000
0000
0000
0000
,  // measure 3
0000
0000
0000
0000
,  // measure 4
0000
0000
0000
0000
,  // measure 5
0000
0000
0000
0000
0010
0100
1000
0000
,  // measure 6
0110
0000
0100
0010
0000
0001
0100
0010
,  // measure 7
1000
0000
0000
0100
0000
0000
0010
0000
0001
0000
0000
0000
0100
0000
0001
0000
,  // measure 8
1000
0000
0000
0000
0010
0000
0100
0000
0001
0000
0000
0100
0000
0000
0010
0000
,  // measure 9
2000
0000
3200
0000
0320
0000
0031
0100
,  // measure 10
1000
0000
0000
0000
0100
0000
0001
0000
1000
0000
0000
0010
0000
0000
0100
0000
,  // measure 11
0001
0000
0000
0000
0001
0000
0100
0000
0010
0000
0000
0100
0000
0000
0010
0000
,  // measure 12
1000
0000
0001
0100
0001
0100
0010
1000
,  // measure 13
0010
0100
0001
1000
,  // measure 14
0001
0000
0000
0001
0100
0000
0000
0100
,  // measure 15
0010
0000
0000
0000
0010
0000
0000
0000
2000
0000
0000
3020
0000
0000
0230
0000
,  // measure 16
0302
0000
0000
0000
1000
0000
0000
0000
1000
0000
0000
0000
1003
0000
1000
0001
,  // measure 17
0200
0310
0110
1001
,  // measure 18
0001
0001
0001
0110
,  // measure 19
0100
0100
0100
1001
,  // measure 20
1000
1000
1000
0110
,  // measure 21
0110
1001
0110
0101
,  // measure 22
0001
0101
0100
0110
,  // measure 23
0010
0110
0100
1100
,  // measure 24
1000
1100
0100
0101
,  // measure 25
1001
1100
1001
0110
,  // measure 26
0000
0001
1001
1000
,  // measure 27
0001
0100
0010
0000
1000
0000
0100
0000
,  // measure 28
0001
0100
1000
0000
0010
0000
0100
0000
,  // measure 29
0001
0010
0100
0000
0101
0000
1100
0000
,  // measure 30
1000
0010
0100
0000
0001
1000
0100
0000
,  // measure 31
0101
0000
1100
0000
0010
1000
0100
0000
,  // measure 32
0011
0000
1001
0000
0001
1000
0001
0000
,  // measure 33
1000
0001
1000
0000
1100
0000
0110
0000
,  // measure 34
0011
1001
0100
1001
,  // measure 35
0010
1001
0100
0001
,  // measure 36
0100
1002
1000
1003
,  // measure 37
1000
0000
0020
0000
0100
0000
0000
0000
0130
0000
0000
0000
0001
0000
0000
0001
,  // measure 38
0000
0001
0100
0000
0100
0010
0000
1000
,  // measure 39
0100
1000
0000
0100
0010
0000
0101
0000
,  // measure 40
1100
0000
1001
0000
0010
0100
0001
0000
,  // measure 41
0001
0100
0000
0010
1000
0000
0101
0000
,  // measure 42
1001
0000
1200
0000
0000
0302
0000
0000
,  // measure 43
0203
0000
0320
0000
0000
2030
0000
0000
,  // measure 44
3002
0203
0010
0010
,  // measure 45
0010
0000
0000
0000
0310
0000
0000
0000
0100
0000
0000
0000
0001
0000
0000
1000
,  // measure 46
0000
0010
0200
0000
0000
0000
0020
0000
,  // measure 47
0330
0010
1000
0001
0010
0000
0100
0000
,  // measure 48
0110
0000
0001
1000
0100
0000
0010
0000
,  // measure 49
0110
0000
1000
0001
0100
0000
0001
0000
,  // measure 50
1001
0000
0001
1000
0100
0000
1000
0000
,  // measure 51
1001
0000
0010
1000
0001
0000
0010
0001
,  // measure 52
1000
0000
0010
0100
1000
0000
0010
0100
,  // measure 53
0001
0110
0100
1001
,  // measure 54
0001
1100
0101
0011
,  // measure 55
1010
1100
0000
0101
,  // measure 56
0000
1001
0010
0100
,  // measure 57
1000
1002
1000
1000
,  // measure 58
1003
0120
0100
0100
,  // measure 59
0130
0000
0001
0100
0010
0000
1000
0010
,  // measure 60
0100
0000
0001
0100
0001
0100
0001
0100
,  // measure 61
0010
1001
0000
0000
;

//---------------dance-single - ----------------
#NOTES:
     dance-single:
     :
     Hard:
     8:
     0.516,0.659,0.429,0.166,0.144: // measure 1
0000
0000
0000
0000
,  // measure 2
0000
0000
0000
0000
,  // measure 3
0000
0000
0000
0000
,  // measure 4
0000
0000
0000
0000
,  // measure 5
0000
0000
0000
0000
0000
0000
0000
0000
0000
0000
0000
0000
1000
0000
0000
0100
0000
0000
0001
0000
0010
0000
0100
0000
,  // measure 6
0110
0000
0100
1000
0000
0010
0100
0001
,  // measure 7
1000
0000
0000
0001
0000
0000
0100
0000
0010
0000
0000
0000
1000
0000
0001
0100
,  // measure 8
0010
0000
0000
0000
1000
0000
0010
1000
0001
0000
0100
0010
0000
1000
0100
0000
,  // measure 9
0002
0000
0103
0000
0020
0000
1030
0000
0200
0000
0310
0000
0001
0010
0100
1000
,  // measure 10
0100
0000
0000
0000
0010
0000
1000
0001
1000
0000
0010
0100
0000
0100
0001
0000
,  // measure 11
1000
0000
0010
0000
0100
0000
0001
0100
0010
0000
0010
0100
0000
0100
1000
0000
,  // measure 12
1001
0000
0000
0000
0000
0000
0000
0000
0000
0000
0000
0000
0001
0000
0000
0000
0000
0000
1000
0000
0000
0100
0000
0000
0010
0000
0000
0001
0000
0000
0010
0000
0000
0100
0000
0000
1000
0000
0000
0001
0000
0000
0010
0000
0100
0000
1000
0000
,  // measure 13
0002
0203
0320
2030
,  // measure 14
3001
0000
0000
0000
1001
0000
0001
0100
0010
0000
0000
0000
0110
0000
0100
0001
,  // measure 15
1000
0000
0000
0000
1001
0000
0000
0000
0010
0000
0000
0100
0000
0000
0001
0000
,  // measure 16
2000
0000
0000
0000
0001
0000
0000
0000
0010
0000
0000
0000
3100
0000
0001
0100
,  // measure 17
0020
0000
0000
0000
0000
0000
0000
0000
0000
0000
0000
0000
0000
0000
0000
0000
0130
0000
0000
0000
0000
0000
0000
0000
0000
0000
0000
0000
0000
0000
0000
0000
2002
3003
0000
0000
0000
0000
0000
0000
0000
0000
0000
0000
0000
0000
0000
0000
0110
0000
0000
0000
0000
0000
0000
0000
0000
0000
0000
0000
0000
0000
0000
0000
,  // measure 18
0001
0000
0100
0010
1000
0000
1001
0000
,  // measure 19
0010
0000
0100
0001
1000
0000
0101
0000
,  // measure 20
0010
0000
1000
0100
0010
0000
1001
1001
,  // measure 21
1001
0000
0020
0230
0310
0000
0001
1000
,  // measure 22
0100
0000
0100
0010
0001
0000
0001
0100
,  // measure 23
0010
0000
0010
1000
0100
0000
0100
0001
,  // measure 24
1000
0000
0000
0000
1000
0000
0001
0000
0100
0000
0010
0000
1000
0000
0000
0100
,  // measure 25
0000
0000
0010
0000
0100
0000
0000
1000
0000
0000
0001
0000
1001
0000
0000
0000
,  // measure 26
0000
0000
0110
0000
0100
0001
1000
0000
,  // measure 27
0010
1000
0001
0000
0101
0000
1000
0000
,  // measure 28
1100
0000
0110
0000
0100
0001
1000
0000
,  // measure 29
0010
1000
0001
0000
1001
0000
0110
0000
,  // measure 30
0010
0100
1000
0000
1001
0000
0001
0010
,  // measure 31
0100
1000
0001
0000
0110
0000
1000
0100
,  // measure 32
0010
0001
1000
0000
0010
1000
0001
0100
,  // measure 33
0010
1000
0100
0000
0101
0000
0110
0000
,  // measure 34
1100
0000
1001
0000
0010
0001
1000
0000
,  // measure 35
0010
0000
1000
0000
0001
0000
0000
0000
0010
0000
0000
0000
1000
0000
0000
0010
,  // measure 36
0000
0100
0002
0000
0100
0000
0010
0000
,  // measure 37
1003
0000
0200
0000
0010
0000
0000
0000
0001
0000
0000
0000
0310
0000
0000
1000
,  // measure 38
0000
0001
1001
0000
0100
0001
0000
0001
,  // measure 39
1000
0000
0010
0000
0000
0000
0100
0000
0110
0000
0000
0000
0010
0000
0000
0110
,  // measure 40
0000
0100
0001
0000
0001
1000
0000
0100
,  // measure 41
0010
0000
0001
0000
0000
0000
1000
0000
1001
0000
0000
0000
0001
0000
0000
0101
,  // measure 42
0000
0100
0010
0000
1000
0100
0000
0010
,  // measure 43
0001
0000
0100
0000
0010
1000
0000
1000
,  // measure 44
0100
0000
0001
1000
0001
1000
0001
1000
,  // measure 45
0001
1000
0001
0100
0001
0100
0001
0010
,  // measure 46
0001
0010
0120
0000
0000
0000
2030
0000
,  // measure 47
3001
0010
0100
1000
0001
0000
0100
0000
0010
0000
0100
0000
0001
0000
0100
0000
,  // measure 48
0010
0100
0001
0010
0100
0010
0001
0010
,  // measure 49
0100
0010
0001
1000
0010
0100
0001
0010
,  // measure 50
0100
1000
0001
0000
0101
0000
0110
0000
,  // measure 51
1010
0000
1001
0000
0001
0100
0010
1000
,  // measure 52
0100
0000
0110
0000
1000
0010
0100
0001
,  // measure 53
0010
0000
1001
0000
1000
0010
0100
0010
,  // measure 54
1000
0100
0001
0000
0101
0000
0110
0000
,  // measure 55
0101
1001
0010
0110
,  // measure 56
1000
1100
0110
0011
,  // measure 57
0101
2001
0001
0001
,  // measure 58
3001
0120
0100
0100
,  // measure 59
0130
0000
0001
1000
0010
0100
0001
0010
,  // measure 60
0100
1000
0001
0100
0010
1000
0001
0010
,  // measure 61
0100
1000
1001
0000
0000
0000
0000
0000
;
