#TITLE:OUT LAW;
#SUBTITLE:Reborn;
#ARTIST:Mr. Funky;
#TITLETRANSLIT:;
#SUBTITLETRANSLIT:;
#ARTISTTRANSLIT:;
#CREDIT:;
#BANNER:banner.png;
#BACKGROUND:background.jpg;
#LYRICSPATH:;
#CDTITLE:Type MARS.png;
#MUSIC:OUT LAW - Reborn.mp3;
#OFFSET:-0.100;
#SAMPLESTART:36.830;
#SAMPLELENGTH:14.780;
#SELECTABLE:YES;
#BPMS:0.000=130.000;
#STOPS:;
#BGCHANGES:-5.000=OUT LAW - Reborn.avi=1.000=1=1=0,
99999=-nosongbg-=1.000=0=0=0 // don't automatically add -songbackground-
;

//---------------dance-single - ----------------
#NOTES:
     dance-single:
     :
     Beginner:
     1:
     0.085,0.109,0.008,0.008,0.000:
0000
0000
0000
0000
,
0000
0000
0000
0000
,
0000
0000
0000
0000
,
0000
0000
0000
0000
,
0100
0000
0000
0000
,
0100
0000
0000
0000
,
0100
0000
0000
0000
,
0100
0000
0000
0000
,
0010
0000
0000
0000
,
0010
0000
0000
0000
,
0010
0000
0000
0000
,
0010
0000
0000
0000
,
1000
0000
0000
0000
,
1000
0000
0000
0000
,
1000
0000
0000
0000
,
1000
0000
0000
0000
,
0001
0000
0000
0000
,
0001
0000
0000
0000
,
0001
0000
0000
0000
,
0001
0000
0000
0000
,
0010
0000
0010
0000
,
0100
0000
0100
0000
,
0001
0000
0001
0000
,
1000
0000
1000
0000
,
0010
0000
0100
0000
,
0010
0000
0100
0000
,
0001
0000
1000
0000
,
0001
0000
1000
0000
,
0010
0000
0010
0000
,
0010
0000
0010
0000
,
0100
0000
0100
0000
,
0100
0000
0100
0000
,
0001
0000
0001
0000
,
0001
0000
0001
0000
,
1000
0000
1000
0000
,
1000
0000
1000
0000
,
0100
0000
0000
0000
,
0010
0000
0000
0000
,
1000
0000
0000
0000
,
0001
0000
0000
0000
,
0100
0000
0000
0000
,
0010
0000
0000
0000
,
1000
0000
0000
0000
,
0002
0000
0003
0000
,
0100
0000
0000
0000
,
0100
0100
0000
0000
,
0010
0000
0000
0000
,
0010
0010
0000
0000
,
1000
0000
0000
0000
,
1000
0001
0000
0000
,
0001
0000
0000
0000
,
0001
1000
0000
0000
,
1001
0000
0000
0000
;

//---------------dance-single - ----------------
#NOTES:
     dance-single:
     :
     Easy:
     4:
     0.225,0.284,0.008,0.269,0.000:
0000
0000
0000
0000
,
0000
0000
0000
0000
,
0000
0000
0000
0000
,
0000
0000
0000
0000
,
0010
0000
0010
0000
,
1000
1000
1000
1000
,
0001
0000
0001
0000
,
1000
0100
0010
0001
,
0100
0010
1000
0001
,
0100
0010
0000
0010
,
0100
1000
0010
0100
,
0001
0001
0100
0010
,
1000
1000
0020
0030
,
0100
0100
0002
0003
,
0001
0001
2000
3000
,
1000
1000
0020
0030
,
0010
0100
0002
0003
,
1000
0010
0200
0300
,
0010
0001
0200
0300
,
0010
1000
0200
0300
,
0010
0010
0100
0001
,
0100
0100
0010
1000
,
0001
0001
0010
0100
,
1000
1000
0010
0100
,
0001
0100
0010
0100
,
1000
0010
0100
0010
,
0001
0100
0010
1000
,
0010
0100
0001
1000
,
0020
0030
0020
0030
,
0200
0300
0200
0300
,
0002
0003
0002
0003
,
2000
3000
2000
3000
,
0020
0130
0200
0310
,
0002
1003
2000
3001
,
0002
0103
0200
0310
,
0020
1030
2000
3001
,
0002
0000
0000
0003
,
2000
0000
0000
3000
,
0020
0000
0000
0030
,
0200
0000
0000
0300
,
0010
0100
0000
0100
,
0001
1000
0000
1000
,
0001
0100
0000
0100
,
0010
0020
0030
0010
,
1000
0010
0100
0010
,
0100
2000
0000
3001
,
0001
0100
0010
0100
,
0001
0020
0030
0010
,
1000
0010
0100
0010
,
1000
0100
0002
0103
,
1000
0010
0001
0010
,
0100
0100
0010
0010
,
0110
0000
0000
0000
;

//---------------dance-single - ----------------
#NOTES:
     dance-single:
     :
     Medium:
     6:
     0.289,0.284,0.118,0.286,0.013:
0000
0000
0000
0000
,
0000
0000
0000
0000
,
0000
0000
0000
0000
,
0000
0000
0000
0000
,
0010
0010
0100
0010
,
1000
0001
0100
0010
,
0100
0001
0010
1000
,
0100
1000
0001
0100
,
0010
1000
0001
0100
,
0010
0100
1000
0100
,
0010
0001
0100
1000
,
0100
0000
0010
0000
0001
0001
0001
0000
,
0100
0010
2000
3001
,
0010
0100
0020
0130
,
0001
1000
0020
0130
,
0001
1000
0020
0130
,
0010
1000
0200
0310
,
0001
1000
0020
0130
,
0100
0010
0200
0310
,
0001
1000
1000
0000
1001
0000
1001
0000
,
0100
0010
0100
0101
,
1000
0010
0100
0110
,
1000
0100
0010
0110
,
1000
0001
0100
1001
,
0010
1000
0100
0110
,
0010
0001
0100
0110
,
1000
0001
0100
1100
,
1000
0010
0100
0101
,
0002
1003
2000
3001
,
0002
0103
0200
0310
,
0020
1030
2000
3001
,
0002
0103
0200
0310
,
0020
1030
0200
0310
,
0020
0031
0002
1003
,
2000
3001
0200
0310
,
0020
1030
2000
3001
,
0002
0000
0000
0000
0000
0000
0000
0000
0000
0000
0000
0000
0003
0000
0000
2000
,
0000
0000
0000
0000
0000
0000
0000
0000
0000
0000
0000
0000
0000
3000
0000
0000
,
0020
0000
0000
0030
,
0200
0000
0000
0000
0300
0002
0000
0000
,
2003
0000
0001
0000
0000
0000
3010
0010
,
0000
0020
0100
0000
0000
0000
0130
0000
,
0200
0010
0000
0310
,
1000
0001
1000
0000
0100
0000
0110
0000
,
0001
0001
0100
0000
0010
0000
0110
0000
,
0100
0100
2000
0000
0001
0000
3001
0000
,
0001
0001
0100
0000
0010
0000
0110
0000
,
0100
0100
0020
0000
0100
0000
0130
0000
,
1000
0001
1000
0000
0010
0000
0100
0000
,
0001
1000
0100
0000
0020
0000
0130
0000
,
0010
0100
0010
0000
1000
0000
0010
0000
,
0100
0000
0001
0000
0000
0001
0000
0000
0100
0000
0000
0010
0000
0000
1000
0000
,
1001
0000
0000
0000
;

//---------------dance-single - ----------------
#NOTES:
     dance-single:
     :
     Hard:
     9:
     0.489,0.503,0.219,0.227,0.362:
0000
0000
0000
0000
,
0000
0000
0000
0000
,
0000
0000
0000
0000
,
0000
0000
0000
0000
,
0010
0000
0000
0100
0000
0001
0000
0000
0100
0000
0000
0010
0000
1000
0000
0000
,
0010
0000
0100
0000
0001
0000
1000
0000
0010
0000
0000
0100
0000
0010
0000
0000
,
0100
0000
0010
0000
1000
0000
0100
0000
0010
0000
0000
0001
0000
0100
0000
0000
,
0010
1000
0001
0010
0100
0010
0001
0100
,
0010
0000
1000
0000
0100
0000
1000
0000
0010
0000
0000
0100
0000
0000
0001
0000
,
0000
0010
0000
0000
0100
0000
1000
0000
0010
0000
0000
0100
0000
0001
0000
0000
,
0010
0100
1000
0010
0100
0010
0100
0001
,
0010
0000
1000
0000
0010
0000
0100
0000
0001
0000
0010
1000
0000
1000
0000
1000
,
0001
0000
0001
0000
0101
0000
0000
0000
0010
0000
1000
0000
0100
0010
0000
0010
,
0100
0000
0001
0000
1001
0000
0000
0000
1000
0000
0010
0100
0020
0000
0000
0000
,
1030
0000
1000
0000
1001
0000
0000
0000
0001
0000
0100
0000
0010
1000
0000
1000
,
0001
0000
0001
0000
1001
0000
0000
0000
1000
0000
0010
0000
0100
0001
0000
0001
,
1000
0000
0010
0000
0110
0000
0000
0000
0100
0000
0010
0000
1000
0010
0000
0010
,
0100
0000
0001
0000
0011
0000
0000
0000
0010
0000
1000
0001
2000
0000
0000
0000
,
3010
0000
0010
0000
1010
0000
0000
0000
1000
0000
0010
0000
0100
0001
0000
0001
,
1000
0000
0010
0000
0010
0000
0010
0000
0010
0100
0000
0000
0110
0000
0010
0000
,
1000
0000
0001
0000
1000
0000
0001
1000
0000
0001
1000
0000
1001
0000
0001
0000
,
0100
0000
0010
0000
0100
0000
0010
0100
0000
0010
0100
0000
0110
0000
0010
0000
,
1000
0000
0100
0000
0010
0000
0100
0010
0000
0010
1000
0000
1001
0000
0000
0000
,
0001
0000
0001
0100
0000
0010
0000
1000
0001
0000
0100
0000
0010
0000
0010
0000
,
0100
0000
0001
0000
0101
0000
0100
0010
0000
0010
1000
0000
1010
0000
0010
0000
,
0100
0000
0001
0000
1001
0000
1000
0100
0000
0100
0010
0000
0100
0000
0001
0000
,
1000
0000
0010
0000
0110
0000
0100
0010
0000
0010
1000
0000
0100
0000
0010
0000
,
0001
0000
0100
0010
0000
0010
0000
1000
0010
0000
0100
0000
0010
0000
0010
0000
,
2000
0000
0000
3001
1000
0000
0001
0000
2000
0000
0000
3001
1000
0000
0001
0000
,
0200
0000
0000
0310
0100
0000
0010
0000
0200
0000
0000
0310
0100
0000
0010
0000
,
2000
0000
0000
3010
1000
0000
0010
0000
2000
0000
0000
3010
1000
0000
0010
0000
,
0200
0000
0000
0301
0100
0000
0001
0000
0200
0000
0000
0301
0100
0000
0001
0000
,
2000
0000
0000
3010
0100
0000
0010
0000
0200
0000
0000
0301
0010
0000
0001
0000
,
0020
0000
0000
1030
0010
0000
1000
0000
0200
0000
0000
0310
0100
0000
0010
0000
,
0002
0000
0000
1003
0001
0000
1000
0000
0020
0000
0000
0130
0010
0000
0100
0000
,
0002
0000
0000
0013
0001
0000
0010
0000
2000
0000
0000
3010
1000
0000
0010
0000
,
0200
0000
0000
0000
0000
0000
0000
0000
0000
0000
0000
0000
0000
0000
0000
0302
,
0000
0000
0000
0000
,
0023
0000
0000
0000
,
2030
0000
0000
0000
0000
3020
0000
0000
,
2030
0000
0001
0000
0000
0000
3001
0200
,
0000
0320
0100
0000
0000
0000
0100
0000
,
0230
0001
0000
0310
,
0010
0100
0010
0000
1000
0000
0001
0100
0000
0010
0100
0000
0001
0000
1000
0000
,
1001
0000
0001
0000
0100
0000
0010
0100
0000
0001
1000
0000
1001
0000
0001
0000
,
0100
0000
0010
0000
1000
0000
0001
0100
0000
0010
1000
0000
1010
0000
0010
0000
,
0100
0000
0001
0000
0100
0000
0010
0100
0000
0001
1000
0000
1001
0000
0001
0000
,
0100
0000
0010
1000
0000
0010
0000
0100
0001
0000
0100
0001
0100
0000
0010
0000
,
1000
0000
0001
0000
1001
0000
1000
0001
0000
0100
0010
0000
0110
0000
0100
0000
,
0001
0000
0100
0000
0101
0000
0001
1000
0000
0010
0100
0000
0110
0000
0010
0000
,
1000
0000
0010
0000
0110
0000
0010
0100
0000
0010
1000
0000
1001
0000
0000
0000
,
0001
0000
0010
0000
0001
1000
0000
0001
0100
0000
0001
1000
0000
0001
0010
0000
,
0110
0000
0000
0000
;

//---------------dance-single - ----------------
#NOTES:
     dance-single:
     :
     Challenge:
     11:
     0.842,0.744,0.774,0.648,0.774: // measure 1
2100
0000
0100
0000
0001
0000
0000
0100
0000
0000
0100
0000
3001
0000
0000
0000
,  // measure 2
0020
0000
0000
0000
0100
0000
0000
1000
0000
0000
1000
0000
0130
0000
0000
0000
,  // measure 3
0002
0000
0010
0000
1000
0000
0000
0010
0000
0000
0010
0000
1003
0000
0000
0000
,  // measure 4
0020
0000
0000
0000
0100
0000
0000
1000
0100
0000
0000
0000
0130
0000
0000
0000
,  // measure 5
0001
0000
1000
0001
0000
0100
0000
0010
1000
0000
0010
0001
0000
0100
0000
0010
,  // measure 6
1000
0010
0100
0001
0010
0100
0010
0001
0100
0000
0010
1000
0000
0010
0000
0100
,  // measure 7
0001
0100
1010
0000
1010
0000
0100
1000
0010
0000
0100
0001
0000
0010
0000
0001
,  // measure 8
0100
0001
0110
0000
0110
0000
1000
0010
0100
0000
0001
0100
0000
0020
1030
0020
,  // measure 9
0130
0001
0010
0100
1010
0000
0110
0000
0100
0010
1000
0001
0000
0001
0100
0010
,  // measure 10
1000
0010
0000
0100
0010
0001
1000
0000
0010
0100
0001
0010
0000
0100
1000
0001
,  // measure 11
0100
0000
0010
1000
0000
0010
0100
0001
1000
0000
0010
1000
0000
0010
1001
0000
,  // measure 12
0110
0000
0100
0001
0000
1001
0000
1000
0010
0100
0001
1000
0000
1001
1001
1001
,  // measure 13
0100
0000
0010
0000
0110
0000
0100
0000
0001
0000
1000
0010
0100
1000
0010
0100
,  // measure 14
0001
0000
1000
0000
1001
0000
0001
0000
0100
0000
0010
1000
0001
0010
1000
0001
,  // measure 15
0100
0000
0001
0000
1001
0000
1000
0000
0010
0000
0100
0001
1000
0100
0001
1000
,  // measure 16
0010
0000
0001
0000
1001
0000
1000
0010
0110
0000
0100
0000
0110
0000
0010
0000
,  // measure 17
1000
0000
0001
0000
1001
0000
0100
0000
0010
1000
0002
0000
0103
0010
2000
0000
,  // measure 18
3001
0100
0020
0000
1030
0100
0002
0000
0103
0010
2000
0000
3010
0100
0001
1000
,  // measure 19
0020
0000
0130
0000
0001
1000
0010
0000
0100
0000
0110
0000
0001
1000
0010
0000
,  // measure 20
0100
0000
0002
1003
0002
1003
0002
1003
0001
0100
0010
1000
0001
0100
0110
0000
,  // measure 21
0110
0000
0001
0000
1001
0000
0100
0001
0000
0010
0100
0000
0110
0000
1001
0000
,  // measure 22
1001
0000
0010
0000
1100
0000
1000
0001
0000
0001
0100
0000
0110
0000
0101
0000
,  // measure 23
1001
0000
0100
0000
1001
0000
1000
0010
0000
0100
0001
0000
1001
0000
0100
0000
,  // measure 24
0010
0000
1000
0010
1001
0100
0000
0010
1000
0100
0010
0100
1001
0000
0110
0000
,  // measure 25
0110
0000
0001
0000
1001
0000
0100
0001
0000
0010
0100
0000
1001
0000
0110
0000
,  // measure 26
0110
0000
0001
0000
1001
0000
0100
0010
0000
1000
0001
0000
1001
0000
0110
0000
,  // measure 27
0110
0000
0001
0000
1001
0000
0100
0001
0000
0010
0100
0000
0110
0000
0001
0000
,  // measure 28
0100
0000
0001
1000
0110
0001
0000
0100
0010
0100
0010
0100
0010
0100
0010
0100
,  // measure 29
2010
0000
0000
3001
0200
0001
0320
0000
2030
0000
0000
3001
0200
0001
0320
0000
,  // measure 30
0032
0000
0000
1003
0020
1000
0230
0000
2300
0000
0000
3010
0200
0010
0302
0000
,  // measure 31
2003
0000
0000
3001
0020
0100
0032
0000
2003
0000
0000
3001
0020
0100
0032
0000
,  // measure 32
0203
0000
0000
0310
2000
0100
3020
0000
0230
0000
0000
0301
0020
1000
0230
0000
,  // measure 33
2310
0000
0000
3001
0200
0001
0320
0000
2030
0000
0000
3001
0200
0001
0320
0000
,  // measure 34
0032
0000
0000
1003
0020
1000
0230
0000
2300
0000
0000
3010
0200
0010
0302
0000
,  // measure 35
2003
0000
0000
3001
0020
0100
0032
0000
2003
0000
0000
3001
0020
0100
0032
0000
,  // measure 36
0203
0000
0000
0310
2000
0100
3020
0000
0230
0000
0000
0301
0020
1000
0230
0000
,  // measure 37
0302
0000
1000
0010
0100
0000
0010
0100
1000
0100
0010
0000
1000
0000
0010
0203
,  // measure 38
0010
1000
0001
0000
0010
0000
0001
1000
0010
0000
0010
0000
1000
0000
0001
1000
,  // measure 39
0320
0000
1000
0100
1000
0000
0001
0000
0100
0000
0001
0100
0001
0000
0100
0001
,  // measure 40
2030
0000
0100
0001
0100
0000
0010
0001
0000
0100
3002
0100
0010
0000
0010
0000
,  // measure 41
0203
0000
0010
0001
1000
0000
0010
0001
1000
0001
0010
0001
0000
1000
0320
0000
,  // measure 42
0100
0000
2030
0100
0010
0000
0010
0100
0000
0001
0100
0000
0010
0000
0100
0010
,  // measure 43
3002
0000
1000
0010
0100
0000
0010
0000
1000
0000
0010
0100
1000
0000
0100
0003
,  // measure 44
1100
0011
1100
0011
1100
0000
0010
0101
0000
0010
1100
0000
1001
0000
0110
0000
,  // measure 45
1001
0000
0001
0000
1001
0000
0100
1001
0000
0100
1001
0000
0110
0000
0011
0000
,  // measure 46
1010
0000
0100
0000
1002
0000
0100
1000
0000
0010
0100
0000
1003
0000
1001
0000
,  // measure 47
0101
0000
0010
0000
1100
0000
0001
1000
0000
0010
0100
0000
0110
0000
0001
0000
,  // measure 48
1000
0000
0010
0001
2000
0010
0000
0001
0100
0000
0010
3001
0110
0000
1100
0000
,  // measure 49
1001
0000
0010
0000
0110
0000
1000
0001
0000
0010
0100
0000
0101
0000
0011
0000
,  // measure 50
1100
0000
0010
0000
1001
0000
1002
0100
0000
0010
0000
1003
1001
0000
0110
0000
,  // measure 51
0101
0000
0010
0000
1010
0000
0100
0001
0000
1000
0010
0000
0110
0000
0001
0000
,  // measure 52
1000
0000
0011
1100
0000
0010
0000
1100
0011
0000
1000
0101
1010
0100
2002
0000
,  // measure 53
3003
0000
0000
0000
;
