#TITLE:Starry Sky (Yeah!);
#SUBTITLE:;
#ARTIST:Moonbug;
#TITLETRANSLIT:;
#SUBTITLETRANSLIT:;
#ARTISTTRANSLIT:;
#CREDIT:;
#BANNER:Starry Sky.png;
#BACKGROUND:Starry Sky-BG.png;
#LYRICSPATH:;
#CDTITLE:;
#MUSIC:Starry Sky.ogg;
#OFFSET:-0.300;
#SAMPLESTART:47.479;
#SAMPLELENGTH:12.000;
#SELECTABLE:YES;
#BPMS:0.000=127;
#STOPS:;
#BGCHANGES:;

//---------------dance-single - ----------------
#NOTES:
     dance-single:
     :
     Easy:
     3:
     0.192,0.263,0.079,0.032,0.000:
0000
0000
0000
0000
,
0000
0000
0000
0000
,
0000
0000
0000
0000
,
0000
0000
0000
0000
,
1000
0000
1000
0000
,
0001
0000
0001
0000
,
0100
0000
0100
0000
,
0001
0000
0001
0000
,
1000
1000
1000
1000
,
0001
0001
0001
0001
,
0010
0010
0010
0010
,
0100
0100
0100
0100
,
0000
0000
1001
0000
,
0000
0100
0000
0000
,
1000
0100
1000
0001
,
0100
0001
1000
0001
,
0000
0000
0000
0000
,
0100
0000
0000
0000
,
0001
0100
0001
1000
,
0100
1000
0001
1000
,
0001
0000
0000
0000
,
2000
0000
3000
0000
,
0002
0000
0003
0000
,
2000
0000
3000
0000
,
1000
0001
1000
0001
,
1000
0001
1000
0000
,
0001
1000
0001
1000
,
0001
1000
0001
0000
,
1000
0000
0001
0000
,
0010
0000
0100
0000
,
0000
1000
0000
0001
,
1000
1000
0001
0001
,
0000
0100
0000
0000
,
0000
0010
0000
0000
,
0001
0100
0001
0000
,
1000
1000
0001
0001
,
1001
0000
0000
0000
,
0010
0000
0000
0000
,
1000
0001
1000
1000
,
0001
1000
0100
0010
,
0001
0001
0001
0001
,
1000
1000
1000
1000
,
0000
0000
0001
0000
,
1000
0000
0000
0000
,
1000
1000
1000
1000
,
0001
0001
0001
0001
,
1000
0100
1000
0001
,
0100
0001
1000
0010
,
0000
0000
0000
0000
,
0000
0000
0000
0000
,
0000
0001
0001
0001
,
0001
1000
1000
1000
,
1000
0001
0100
0001
,
1000
0100
1000
0001
,
0010
0001
1000
0001
,
1000
0001
1000
0001
,
0000
0000
0000
0000
,
0000
0000
0000
0000
,
1000
0100
1000
0001
,
0100
0001
0010
0000
,
1001
0000
1001
0000
,
1100
0000
1100
0000
,
0101
0000
0101
0000
,
0110
0000
0110
0000
,
2000
0000
0000
0000
,
0000
0000
0000
0000
,
0000
3000
0000
0000
;

//---------------dance-single - ----------------
#NOTES:
     dance-single:
     :
     Medium:
     5:
     0.257,0.474,0.230,0.048,0.000:
0000
0000
0000
0000
,
0000
0000
0000
0000
,
0000
0000
0000
0000
,
0000
0000
0000
0000
,
1000
0100
1000
0001
,
1001
0000
0100
0001
,
0001
1000
0001
1001
,
0000
0000
0000
0000
,
1000
1000
1000
1000
,
0001
0001
0001
0001
,
0010
0010
0010
0010
,
0100
0100
0100
0100
,
1001
0000
0110
0000
,
1001
0000
0100
0000
,
1000
0100
1000
0001
,
0100
0001
1000
1001
,
0000
0000
0000
0000
,
0100
0000
0000
0000
,
0001
0100
0001
1000
,
0100
1000
0001
1000
,
0200
0000
0300
0000
,
2000
0000
3000
0000
,
0002
0000
1003
0000
,
2000
0000
3001
0000
,
1000
0100
1000
0100
,
1000
0100
1000
0000
,
0001
0100
0001
0100
,
0001
0100
0001
0000
,
1000
0000
0001
0000
,
0010
0010
0100
0100
,
0000
1100
0000
0100
,
0010
0010
0001
0001
,
0000
0101
0000
0000
,
0000
0010
0010
0000
,
0001
0100
0001
0000
,
1000
1000
0001
0001
,
1001
0000
0100
0000
,
0010
0000
0100
0000
,
0001
0000
1000
0000
0001
1000
0001
0000
,
1000
0001
0100
0010
,
1000
1000
1000
1000
,
0001
0001
0001
0001
,
0010
0000
0001
0000
,
1000
0000
0000
0000
,
0010
0001
1000
0100
,
1000
0010
0100
0001
,
1000
0100
0010
0001
,
0100
0001
1000
0010
,
0100
0100
0010
1000
,
0001
0100
0010
0010
,
1000
0001
0001
0100
,
0001
1000
0010
0100
,
1001
0000
0101
0000
,
1010
0000
0110
0000
,
0001
1000
0001
1000
,
0001
0100
0010
1000
,
0010
0100
0001
0200
,
0310
1000
1000
0001
,
0001
0010
0001
1000
,
0100
0010
0010
0001
,
1001
1001
1001
1001
,
1100
1100
1100
1100
,
0101
0101
0101
0101
,
0110
0110
0110
0110
,
2000
0000
0000
0000
,
0000
0000
0000
0000
,
0000
3000
0000
0000
;

//---------------dance-single - ----------------
#NOTES:
     dance-single:
     :
     Hard:
     7:
     0.428,0.474,0.215,0.079,0.143: // measure 1
0000
0000
0000
0000
,  // measure 2
0000
0000
0000
0000
,  // measure 3
0000
0000
0000
0000
,  // measure 4
0000
0000
0000
0000
,  // measure 5
1000
0000
0001
0000
0100
0001
1000
0000
,  // measure 6
0001
0000
0010
0000
0100
1000
0100
0000
,  // measure 7
1000
0010
0100
0001
0100
0001
1000
0000
,  // measure 8
0100
0000
0000
0010
0000
0000
0001
0000
0000
0100
0000
0000
0001
0000
0000
0000
,  // measure 9
1000
0000
0000
0100
0000
0000
1000
0000
0000
0000
0001
1000
0001
0000
0000
0000
,  // measure 10
1000
0000
0000
0010
0000
0000
1000
0000
0000
0000
0010
0100
0001
0000
0000
0000
,  // measure 11
0010
0000
0001
0010
0000
0001
0000
1000
0000
0000
0001
1000
0001
0000
0010
0000
,  // measure 12
0100
1000
0001
0010
0001
1000
0001
0000
,  // measure 13
1000
0000
0000
0010
0000
0000
0200
0000
0000
0000
0000
0000
0300
0000
0000
0000
,  // measure 14
0001
0000
0000
0010
0000
0000
0100
0000
0000
0000
0000
0000
1001
0000
0000
0000
,  // measure 15
1000
0100
1000
0000
0001
0100
0010
0000
,  // measure 16
0100
0001
0100
0000
0010
1000
0100
0000
,  // measure 17
1000
0000
0000
0100
0000
0000
0020
0000
0000
0000
0000
0000
0030
0000
0000
0000
,  // measure 18
0001
0000
0000
0100
0000
0000
0010
0000
0000
0000
0000
0000
1001
0000
0000
0000
,  // measure 19
0001
0100
0001
0000
1000
0100
0010
0000
,  // measure 20
0100
1000
0100
0000
0010
0001
0100
0000
,  // measure 21
0002
0000
0000
0000
,  // measure 22
2003
0000
0000
0000
0000
0000
0000
0000
0000
0000
3100
0000
0000
0100
0000
0000
,  // measure 23
0010
0000
0000
0001
0000
1000
0001
1000
,  // measure 24
0002
0000
0000
0000
0000
0000
1003
0000
0000
0000
0001
0000
0000
0100
0000
0000
,  // measure 25
0001
0001
0100
0100
0010
1000
0001
0000
,  // measure 26
1000
1000
0100
0100
0010
0001
1000
0000
,  // measure 27
0001
0100
0010
0100
0001
1000
0100
0000
,  // measure 28
0010
0001
1001
0000
,  // measure 29
0000
1000
0100
1000
0010
0100
0001
1000
,  // measure 30
0000
0000
0100
1000
0001
0000
0000
0010
0000
0000
0100
0000
1000
0000
0100
0000
,  // measure 31
0000
0010
0001
0000
1000
0100
1000
0001
,  // measure 32
0100
0000
0001
1000
0100
0000
0000
0010
0000
0000
0001
0010
0001
0000
0010
0000
,  // measure 33
0000
0000
0100
1000
0100
1000
0001
0000
,  // measure 34
0000
0000
0000
0000
1000
0010
1000
0010
1000
0000
0001
0000
0100
0000
0000
0000
,  // measure 35
0000
0000
0001
0000
1000
0000
0100
0000
1000
0000
0001
0000
0010
0000
0100
1000
,  // measure 36
0100
1000
0001
0100
0010
0000
1001
0000
,  // measure 37
0100
0000
0001
0000
1000
0100
1000
0000
0100
0000
1000
0000
0001
0000
0000
0000
,  // measure 38
0100
0010
1000
0000
0001
0100
1000
0100
,  // measure 39
0001
0000
1000
0001
1000
0000
0000
0000
0001
0000
0100
0001
0100
0000
0000
0000
,  // measure 40
0001
0000
0100
0000
0001
0000
0010
0000
0100
0000
1000
0100
1000
0000
0000
0000
,  // measure 41
0010
0000
1000
0000
0010
0000
0100
0000
0001
0000
0100
0001
0100
0000
0000
0000
,  // measure 42
0001
0000
0100
0000
0010
0000
1000
0000
0001
0000
1000
0001
1000
0000
0000
0000
,  // measure 43
0100
0010
0001
0100
,  // measure 44
1001
1001
0000
0000
,  // measure 45
1000
0000
0000
0100
0000
0000
1000
0000
0001
0000
0100
0000
0001
0000
0000
0000
,  // measure 46
0001
0000
0000
0100
0000
0000
0001
0000
1000
0000
0100
0000
1000
0000
0000
0000
,  // measure 47
0100
0010
0001
0000
0100
0010
1000
0000
,  // measure 48
1000
0001
0100
0000
0001
1000
0100
0000
,  // measure 49
1000
0000
0000
0100
0000
0000
1000
0000
0001
0000
0100
0000
0001
0000
0000
0000
,  // measure 50
1000
0000
0000
0100
0000
0000
1000
0000
0001
0000
0010
0000
0001
0000
0000
0000
,  // measure 51
1000
0010
1000
0000
0001
1000
0001
0000
,  // measure 52
0100
0010
0100
0000
0001
1000
0100
0000
,  // measure 53
1100
0100
0010
0001
0100
0020
0000
0000
,  // measure 54
2030
0000
0000
0000
0000
0000
0000
0000
0000
0000
3001
0000
0000
1000
0000
0000
,  // measure 55
0010
0000
0000
0100
0000
0001
1000
0000
,  // measure 56
0002
0000
0000
0000
0000
0000
1003
0000
0000
0000
0001
0000
0000
0100
0000
0000
,  // measure 57
0010
0010
1000
0100
0010
0001
0101
0000
,  // measure 58
0100
0010
1000
0001
,  // measure 59
0100
0100
0010
0100
0001
0010
0110
0000
,  // measure 60
1000
1000
0010
0100
0010
1000
1100
0000
,  // measure 61
1001
1001
0110
0110
,  // measure 62
1100
1100
0101
0101
,  // measure 63
0011
0011
1010
1010
,  // measure 64
1001
1100
0101
0011
,  // measure 65
2020
0000
0000
0000
,  // measure 66
0000
0000
0000
0000
,  // measure 67
0000
3030
0000
0000
;
