#TITLE:SigSig;
#SUBTITLE:-Dark Side Remix-;
#ARTIST:kors k remixed by DJ TECHNORCH;
#TITLETRANSLIT:;
#SUBTITLETRANSLIT:;
#ARTISTTRANSLIT:;
#GENRE:;
#CREDIT:;
#MENUCOLOR:;
#METERTYPE:DDR;
#BANNER:SigSig -Dark Side Remix-.png;
#BACKGROUND:SigSig -Dark Side Remix--bg.png;
#LYRICSPATH:;
#CDTITLE:;
#MUSIC:SigSig -Dark Side Remix-.mp3;
#OFFSET:0.167;
#SAMPLESTART:77.190;
#SAMPLELENGTH:12.000;
#SELECTABLE:YES;
#LISTSORT:;
#BPMS:0.000=180.000;
#STOPS:;
#BGCHANGES:;
#ATTACKS:;

//---------------dance-single - ----------------
#NOTES:
     dance-single:
     :
     Hard:
     9:
     0.595,0.714,0.521,0.111,0.014: // measure 1
0000
0000
0000
0000
,  // measure 2
0000
0000
0000
0000
,  // measure 3
0000
0000
0000
0000
,  // measure 4
0000
0000
0000
0000
,  // measure 5
1001
0000
1000
0100
0010
1000
0010
0000
,  // measure 6
0001
0000
0100
0010
0001
0000
0010
0000
,  // measure 7
1000
0000
0100
0010
0001
0000
0010
0000
,  // measure 8
0100
0010
1000
0010
0001
0000
0100
0000
,  // measure 9
0010
0000
0100
0001
0100
1000
0100
0000
,  // measure 10
0001
0000
0010
0100
0010
0000
1000
0000
,  // measure 11
0010
0000
0001
0100
0010
0000
0001
0000
,  // measure 12
0010
1000
0100
0010
0001
0010
1000
0010
,  // measure 13
0001
0000
0100
0010
0100
1000
0100
0000
,  // measure 14
0001
0000
0010
0100
0010
0000
0001
0100
,  // measure 15
1000
0000
0100
0001
0010
0100
0010
0000
,  // measure 16
0001
0000
0100
1000
0100
0000
0001
0010
,  // measure 17
0100
0000
0010
0001
0100
0010
0001
0000
,  // measure 18
0010
0000
1000
0001
0010
0000
0100
0010
,  // measure 19
0001
0000
0100
1000
0100
0001
0010
0000
,  // measure 20
0100
0010
1000
0010
0001
0100
0010
0001
,  // measure 21
0010
0000
0100
1000
0100
0001
1001
0000
,  // measure 22
1010
0000
1000
0100
0010
0001
0010
0100
,  // measure 23
0010
0000
0100
1000
0010
1000
1010
0000
,  // measure 24
1100
0000
1000
0001
0010
0100
0010
0000
,  // measure 25
0100
0000
1000
0100
1000
0001
0101
0000
,  // measure 26
0011
0000
0001
0010
0100
1000
0100
0010
,  // measure 27
0100
0000
1000
0010
0001
0010
1010
0000
,  // measure 28
2002
0000
0000
3003
,  // measure 29
0110
0000
0100
1000
0100
0001
0011
0000
,  // measure 30
1100
0000
1000
0010
0100
0001
0010
0010
,  // measure 31
0100
0000
1000
0001
0100
1000
1100
0000
,  // measure 32
0101
0000
0000
0000
0010
0000
0100
0000
1000
0100
1000
0000
0010
0000
0100
0000
,  // measure 33
0010
0000
0001
0010
1000
0100
0110
0000
,  // measure 34
0011
0000
0001
1000
0010
0001
0010
0010
,  // measure 35
0100
0000
0010
0100
0001
1000
1001
0000
,  // measure 36
0022
0000
0000
0033
,  // measure 37
2100
0000
0020
3000
,  // measure 38
0002
0030
0020
0000
,  // measure 39
0000
0003
2000
0030
,  // measure 40
0200
3000
0020
0300
,  // measure 41
0002
0000
0000
0033
,  // measure 42
1001
1000
0000
0010
0000
0100
0000
1000
,  // measure 43
0000
0100
0000
0001
0000
0010
0000
0100
,  // measure 44
0000
0010
0000
0001
0000
0100
0000
0010
,  // measure 45
0000
0001
0000
0010
1000
0100
0010
0001
,  // measure 46
0000
0010
0000
0100
0000
0010
0000
1000
,  // measure 47
0000
0010
0000
0001
0000
0100
0000
0010
,  // measure 48
0000
0001
0000
0010
0000
1000
0000
0001
,  // measure 49
0000
0010
0000
0100
1000
0001
0100
0010
,  // measure 50
0110
0000
0100
0001
0010
0000
0100
0000
,  // measure 51
1001
0000
0101
0000
0110
0000
0100
0010
,  // measure 52
0001
0000
0010
1000
0100
0000
0010
0000
,  // measure 53
0011
0000
1100
0000
1001
0000
0100
0010
,  // measure 54
0001
0000
0010
1000
0100
0000
0010
0000
,  // measure 55
0011
0000
1100
0000
1001
0000
0100
0010
,  // measure 56
0001
0000
0010
1000
0100
0010
0001
0010
,  // measure 57
0100
0110
1001
0101
,  // measure 58
2010
0100
0100
3100
,  // measure 59
0011
0000
0010
0100
1000
0001
0100
0000
,  // measure 60
0110
0000
1001
0000
0011
0000
0010
0100
,  // measure 61
1000
0000
0001
0100
1000
0100
0001
0000
,  // measure 62
0011
0000
1001
0000
0110
0000
0100
0010
,  // measure 63
0001
0000
0010
1000
0100
0010
0001
0000
,  // measure 64
0011
0000
1001
0000
0101
0000
0100
1000
,  // measure 65
0100
0000
0001
0010
0100
1000
0001
0100
,  // measure 66
0010
0101
1001
0011
,  // measure 67
0110
0000
0010
0001
0100
1000
0100
0001
,  // measure 68
0011
0000
1001
0000
0101
0100
0010
1000
,  // measure 69
0001
0000
0010
0100
1000
0001
0100
1000
,  // measure 70
1100
0000
0101
0000
0011
0010
0001
0010
,  // measure 71
0100
0000
0010
0001
0100
1000
0100
0001
,  // measure 72
0011
0000
1001
0000
0110
0000
0100
0001
,  // measure 73
1000
0000
0100
0010
0001
0010
0100
0010
,  // measure 74
0011
0101
1010
1001
,  // measure 75
0101
0000
0000
0000
,  // measure 76
0000
0000
0000
0000
0000
0000
0000
1000
,  // measure 77
0001
0000
0000
0000
,  // measure 78
0000
0000
0000
0000
0000
0000
0000
0001
,  // measure 79
1000
0000
0000
1001
0000
0000
1100
0000
,  // measure 80
0101
0000
0000
0110
0000
0000
1010
0000
,  // measure 81
0011
0000
1000
0010
0100
0000
0001
0100
,  // measure 82
0002
0000
0000
0000
,  // measure 83
1003
0010
0001
0010
0100
1000
0100
0001
,  // measure 84
1000
0100
0010
0100
1000
0010
0100
1000
,  // measure 85
0100
0001
1000
0100
0010
0100
0001
0100
,  // measure 86
1000
0010
0100
1000
0100
0001
1000
0100
,  // measure 87
0010
0100
0001
0100
1000
0010
0100
1000
,  // measure 88
0100
0001
1000
0010
0001
0010
1000
0100
,  // measure 89
0010
0100
1000
0100
0010
0100
0001
0100
,  // measure 90
1100
0000
0000
0110
0000
0000
0011
0000
0000
1001
0000
0000
1010
0000
0010
0100
,  // measure 91
0010
1000
0100
0010
0100
0001
0100
1000
,  // measure 92
0010
0001
0010
0100
1000
0100
0001
1000
,  // measure 93
0100
0010
0100
0001
0100
1000
0010
0100
,  // measure 94
1000
0100
0001
0010
1000
0010
0100
1000
,  // measure 95
0100
0001
0100
0010
1000
0010
0001
0010
,  // measure 96
0100
0010
0001
0100
0010
0001
0010
1000
,  // measure 97
0001
0100
1000
0100
0001
0010
0100
0010
,  // measure 98
0220
0000
0000
0330
,  // measure 99
1001
0000
0000
0000
;

//---------------dance-single - ----------------
#NOTES:
     dance-single:
     :
     Medium:
     7:
     0.450,0.476,0.090,0.125,0.000:
0000
0000
0000
0000
,
0000
0000
0000
0000
,
0000
0000
0000
0000
,
0000
0000
0000
0000
,
1001
0000
1000
0010
1000
0000
0010
0000
,
0100
0000
0010
0100
0010
0000
0100
0000
,
0001
0000
0010
0001
0010
0000
0100
0000
,
1000
0100
1000
0010
0100
0000
0010
0000
,
1000
0000
0001
0010
0001
0000
0100
0000
,
0010
0000
1000
0100
1000
0000
0100
0000
,
0010
0000
0001
0100
0001
0000
0100
0000
,
0010
0000
1000
0100
0000
0010
0001
0000
,
0100
0000
0010
1000
0010
0000
0100
0000
,
0001
0000
0010
0100
0010
0000
0100
0000
,
1000
0000
0010
1000
0010
0000
0100
0000
,
0001
0000
1000
0100
0010
0000
0100
0000
,
1000
0000
0100
0010
0001
0000
0100
0000
,
0010
0000
0100
0010
1000
0000
0100
0000
,
0010
0000
0100
1000
0100
0000
0010
0000
,
0001
0000
0100
0010
0000
1000
0100
0000
,
0010
0000
0100
1000
0010
0000
0100
0000
,
0010
0000
1000
0001
0100
0000
0001
0010
,
0100
0000
0010
0100
0010
0000
0100
0000
,
1000
0000
0010
0100
0010
1000
0100
0000
,
0010
0000
0100
1000
0010
0000
0100
0000
,
0010
0000
1000
0001
0010
0000
0001
0100
,
0010
0000
0100
0010
1000
0000
0100
0000
,
0220
0000
0000
0330
,
0110
0000
0010
0001
0100
0010
0100
0000
,
0001
0000
1000
0100
0010
0000
0100
1000
,
0010
0000
1000
0010
1000
0100
1000
0000
,
0010
0000
1000
0001
0100
0010
0100
0000
,
0010
0000
0100
0001
0100
0010
0100
0000
,
0001
0000
0010
0100
1000
0000
0010
1000
,
0010
0000
1000
0001
0100
0001
0010
0000
,
0022
0000
0000
0033
,
0012
0000
0020
0003
,
0200
0030
2000
0000
,
0000
0300
0002
3000
,
0200
0003
0020
0300
,
2000
0000
0000
3030
,
1000
0010
0000
0100
0000
0001
0000
0010
,
0000
0001
0000
0010
0000
0100
0000
1000
,
0000
0010
0000
1000
0000
0001
0000
0100
,
0000
0010
0000
0100
0010
1000
0000
0001
,
0000
0010
0000
0100
0000
0010
0000
0001
,
0000
0100
0000
0010
0000
1000
0000
0100
,
0000
1000
0000
0001
0000
0010
0000
0100
,
0000
0010
0000
0001
0100
0010
0000
1000
,
0010
0000
0100
0010
0100
0000
0001
0000
,
0010
0100
0010
0001
,
0100
0000
0010
0100
0010
0000
0100
0000
,
0001
1000
0100
0010
,
0001
0000
0010
0100
0010
0000
0001
0000
,
0100
0010
1000
0001
,
0010
0000
0100
0010
0100
0000
0010
0000
,
0001
0100
0010
1000
,
0002
0100
0100
0103
,
0010
0000
0100
0001
0010
0000
0100
0000
,
0010
0000
0001
0000
0100
0000
0010
0100
,
0010
0000
1000
0100
1000
0000
0001
0000
,
0010
0000
0100
0000
0010
0000
0001
0100
,
0010
0000
0100
0010
0100
0000
0010
0000
,
1000
0001
0010
0100
,
0010
0000
0001
0100
0001
0100
0010
0000
,
0100
0001
1000
0010
,
1000
0000
0001
0100
0001
0000
0010
0000
,
0001
0000
1000
0000
0001
0100
0010
0100
,
0010
0000
1000
0100
0010
0000
0100
0000
,
1000
0000
0010
0000
1000
0010
0100
0010
,
0100
0000
0001
0010
0100
0000
0010
0000
,
0001
0100
0010
1000
,
0100
0000
1000
0100
0010
0100
1000
0000
,
0001
0010
0100
1000
,
1001
0000
0000
0000
,
0000
0000
0000
0000
0000
0000
0000
0001
,
1000
0000
0000
0000
,
0000
0000
0000
0000
0000
0000
0000
1000
,
0001
0000
0000
0101
0000
0000
0110
0000
,
0110
0000
0000
1100
0000
0000
1001
0000
,
1001
0001
0100
0010
,
2000
0000
0000
0000
,
3001
0000
0100
0001
0100
0010
0000
1000
,
0000
0100
0000
0010
0000
0100
1000
0010
,
0000
0100
0010
0000
1000
0100
0000
0010
,
0000
0100
0000
1000
0000
0010
0100
0001
,
1000
0000
0100
0010
0100
0010
0000
0100
,
0000
1000
0000
0010
0000
0100
0001
0010
,
0000
0001
1000
0000
0100
0010
0000
0100
,
2000
0000
0000
0002
3000
0000
0103
0010
,
0100
0000
0010
1000
0100
0010
0000
0001
,
0000
1000
0000
0010
0000
0100
0010
1000
,
0000
0100
0010
0001
0100
0010
0000
1000
,
0000
0100
0000
0010
0000
0100
1000
0010
,
0100
0000
0010
1000
0001
0010
0000
0100
,
0000
0010
0000
0001
0000
0100
0010
1000
,
0000
0001
0010
0100
0010
0100
0000
2000
,
0002
0000
0000
3003
,
0110
0000
0000
0000
;

//---------------dance-single - ----------------
#NOTES:
     dance-single:
     :
     Easy:
     5:
     0.328,0.340,0.042,0.215,0.000:
0000
0000
0000
0000
,
0000
0000
0000
0000
,
0000
0000
0000
0000
,
0000
0000
0000
0000
,
0001
0010
0100
0010
,
0001
0000
0100
0000
,
0010
1000
0100
0000
,
1000
0000
0010
0000
,
0100
0001
0010
0001
,
0010
0000
0100
0000
,
0010
0001
0100
0000
,
0010
0000
0000
1000
0000
0000
0001
0000
,
1000
0100
0010
0100
,
1000
0010
0100
0000
,
0001
0010
0100
0010
,
0100
0010
0001
0000
,
1000
0010
0100
0001
,
0010
0001
0010
0000
,
0100
0010
0001
1000
,
0010
0000
0000
0100
0000
0000
0001
0000
,
1000
0100
0010
0100
,
0010
0001
0100
0010
,
1000
0001
0010
0100
,
0010
0001
0100
0000
,
0010
0100
0001
1000
,
0001
0010
0100
1000
,
0100
1000
0010
0100
,
0002
0000
0000
0000
,
1003
0100
0010
0100
,
0010
0001
0100
0010
,
0100
0001
1000
0100
,
0010
0100
0010
0001
,
0100
0010
0100
0010
,
1000
0001
0010
0100
,
0010
0001
0100
0010
,
2000
0000
0000
0000
,
3002
0000
0200
0003
,
0020
0300
0200
0000
,
0030
0002
0300
0020
,
0003
0200
0030
2000
,
0000
0000
0000
3300
,
2001
0000
0002
3000
,
0200
0003
0020
0300
,
0200
0030
0002
0300
,
0020
0000
0000
0003
,
0200
0030
2000
0300
,
0020
3000
0200
0030
,
0002
0300
0020
0003
,
0200
0000
0000
0030
,
1300
0100
0010
0001
,
0100
0010
0100
0000
,
0001
0010
0100
1000
,
0010
0100
0001
0000
,
0010
0100
0010
0001
,
0100
0010
1000
0000
,
0001
0010
0100
0010
,
0001
0100
0010
1000
,
2002
0000
0000
3003
,
0001
0010
0100
0010
,
0001
0100
0010
0100
,
0001
1000
0100
0010
,
0100
1000
0010
0000
,
0100
0001
0010
0100
,
0010
0001
0100
0010
,
0100
0001
1000
0100
,
0010
0100
1000
0000
,
0010
1000
0100
0010
,
0100
0010
0001
0100
,
0001
0100
0010
1000
,
0001
0010
0100
0010
,
0001
0000
0000
1000
0000
0000
0010
0000
,
0100
0000
0000
0001
0000
0000
0010
0000
,
0100
0010
0001
0100
,
0010
1000
0001
0010
,
0001
0000
0000
0000
,
0000
0000
0000
0000
,
1001
0000
0000
0000
,
0000
0000
0000
0000
,
1001
0000
0000
0001
0000
0000
0010
0000
,
0100
0000
0000
1000
0000
0000
0010
0000
,
0100
0001
1000
0010
,
0200
0000
0000
0000
,
0310
0100
0001
0010
,
0100
0010
0001
0100
,
0010
1000
0100
1000
,
0001
0010
0100
0010
,
0001
0100
0010
0100
,
0001
0010
0100
1000
,
0001
1000
0010
0100
,
0020
0000
0000
0230
0000
0000
0310
0000
,
1000
0100
0010
0100
,
0010
0001
0100
0010
,
1000
0001
0010
0100
,
0010
0001
0100
0001
,
1000
0010
1000
0010
,
0100
0001
0010
0100
,
1000
0001
0100
0010
,
0220
0000
0000
0330
,
1001
0000
0000
0000
;
