#TITLE:Sex On Fire;
#SUBTITLE:;
#ARTIST:Tina Cousins;
#CREDIT:;
#MUSIC:Sex On Fire.ogg;
#SELECTABLE:YES;
#BACKGROUND:;
#BANNER:;
#CDTITLE:;
#OFFSET:0;
#SAMPLESTART:0.000;
#SAMPLELENGTH:0.000;
#BPMS:0=134.869;
#STOPS:;

//---------------dance-single - ----------------
#NOTES:
     dance-single:
     :
     Easy:
     2:
     0.000,0.000,0.000,0.000,0.000:
0000
0000
0000
0000
,
0000
0000
0000
0000
,
0000
0000
0000
0000
,
0000
0000
0000
0000
,
0000
0000
0000
0000
,
0000
0000
0000
0000
,
1000
0000
0001
0000
,
1000
0000
0000
0000
,
0001
0000
1000
0000
,
0001
0000
0000
0000
,
1001
0000
0000
0000
,
1000
0000
0000
0000
,
0001
0000
0000
1000
,
0001
1000
0001
2000
,
3100
0000
0000
0000
,
0001
0000
0000
0000
,
1001
0000
0000
0000
,
0100
0000
0000
0000
,
0001
1000
0001
1000
,
0001
0000
0100
0000
,
0100
0000
0000
0000
,
1001
0000
0000
0000
,
1000
0001
1000
0001
,
1000
0000
0000
0000
,
0100
0000
0000
0000
,
1001
0000
0000
0000
,
0010
0100
0010
0100
,
0010
0000
1000
0001
,
1000
0000
0001
1000
,
0001
0100
0000
0000
,
0010
0000
0000
0000
,
1001
0000
0000
0000
,
0010
0000
0000
0000
,
0000
0000
0000
0000
,
1000
0001
1000
0001
,
1000
0000
0100
0000
,
0100
0000
0000
0000
,
1001
0000
0000
0000
,
0001
1000
0001
1000
,
0001
0000
0000
0000
,
0100
0000
0000
0000
,
1001
0000
0000
0000
,
0010
0100
0010
0100
,
0010
0000
0000
0000
,
1001
0000
1000
0000
,
1000
0000
0001
0000
,
0001
0000
0000
0000
,
0000
0000
0000
0000
,
1001
0000
1000
0000
,
0001
0000
1000
0000
,
0110
0000
0000
0000
,
0000
0000
0000
0000
,
0000
0000
0000
0000
,
0000
0000
0000
0000
,
0000
0000
0000
0000
,
0000
0000
0000
0000
,
0000
0000
0000
0000
;

//---------------dance-single - ----------------
#NOTES:
     dance-single:
     :
     Medium:
     6:
     0.000,0.000,0.000,0.000,0.000:
0000
0000
0000
0000
,
0000
0000
0000
0000
,
0000
0000
0000
0000
,
0000
0000
0000
0000
,
0000
0000
0000
0000
,
0000
0000
0000
0000
,
1000
0100
1000
0001
,
1000
0001
0100
0001
,
0000
0010
0001
1000
,
0100
0000
0000
0000
,
1000
0000
1000
0001
1000
0001
1000
0000
,
0001
0000
0001
1000
0001
1000
0001
0000
,
1000
1000
1100
0001
,
0001
1000
1000
0002
,
0000
1000
0000
1000
0000
1000
0003
0000
,
0001
1000
0100
2000
,
0000
0001
0000
0001
0000
0001
0000
0001
,
0000
0001
0000
0001
3000
0000
0000
0000
,
0100
1000
1000
1010
,
0100
0001
0001
0011
,
0000
0100
0100
0100
,
0000
0010
0010
0010
,
0000
1000
0100
1100
,
0000
0001
0100
0101
,
0000
0100
0010
0110
,
1001
0000
0000
0000
,
1000
0000
0001
0000
1000
0100
1000
0000
,
0001
0000
1000
0000
0001
0100
0001
0000
,
0100
0000
0010
0000
1000
0100
1000
0000
,
0000
0002
0000
0000
,
1003
0000
0001
0000
1000
0010
1000
0000
,
0001
0000
0001
0000
0001
0010
0001
0000
,
1000
0000
0001
0000
0100
0010
0100
0010
,
0100
0000
0000
0000
,
1000
0010
1000
0010
1000
0010
1000
0000
,
0001
0010
0001
0010
0001
0010
0001
0000
,
1000
0001
1000
0001
1000
0000
0001
0000
,
0100
0010
1000
2000
,
0000
0001
0000
0001
0000
0001
0000
0001
,
3000
0010
0001
1000
,
0000
0001
0000
0001
0000
1000
0000
1000
,
0000
0001
0000
0001
0000
0000
0000
0000
,
0100
0010
0100
0010
0100
0010
0100
0000
,
0001
0100
0001
0100
0001
1000
0001
0000
,
1000
0010
1000
0010
1000
0000
0001
0000
,
0100
0010
1000
0002
,
0000
1003
0000
0001
0000
1000
0000
0001
,
0000
1000
0000
0001
0000
0000
0000
0000
,
0000
1000
0000
0100
0000
1000
0000
0001
,
0000
0100
0000
0001
0000
0010
0000
0000
,
1001
0000
0000
0000
,
0000
0000
0000
0000
,
0000
0000
0000
0000
,
0000
0000
0000
0000
,
0000
0000
0000
0000
,
0000
0000
0000
0000
,
0000
0000
0000
0000
;

//---------------dance-single - ----------------
#NOTES:
     dance-single:
     :
     Hard:
     7:
     0.000,0.000,0.000,0.000,0.000:
0000
0000
0000
0000
,
0000
0000
0000
0000
,
0000
0000
0000
0000
,
0000
0000
0000
0000
,
0000
0000
0000
0000
,
0000
0000
0000
0000
,
1001
0000
0100
0000
0010
1000
0001
0000
,
1000
0000
0100
0000
0010
0001
1000
0000
,
0100
0000
0010
0000
0001
1000
0001
1000
,
0001
0000
0000
0000
,
1000
0001
1000
0001
1000
0100
1000
0000
,
0001
1000
0001
1000
0001
0100
0001
0000
,
1000
0010
1000
0100
1000
0000
0001
0000
,
1000
0001
0100
0020
,
0000
0130
0000
0001
0000
1000
0000
0000
,
0001
1000
0100
0020
,
0000
0230
0000
2300
0000
3002
0000
2003
,
0000
3020
0000
0000
0000
0000
0030
0000
,
0100
0000
0001
0000
0010
0100
1000
0000
,
0001
0000
1000
0000
0010
0100
0010
0100
,
0000
0001
1000
0100
0000
0100
0000
0100
,
0000
1000
0001
0100
0000
0100
0000
0100
,
0001
0000
0010
0000
0100
1000
0100
0000
,
1000
0000
0001
0000
0100
0001
0100
0000
,
0001
0000
1000
0000
0010
0100
0010
0000
,
1001
0000
0000
0000
,
1000
0000
0001
0000
0010
0100
1000
0000
,
0001
0000
1000
0000
0100
0010
0001
0000
,
0100
0000
0010
0000
1000
0100
1000
0000
,
0000
0101
1100
0010
,
0100
0000
0001
0000
1000
0100
1000
0000
,
0011
0000
1100
0000
0001
0010
0001
0000
,
1000
0000
0001
0000
0100
0010
1000
0001
,
2000
0000
0000
3001
,
1000
0001
1000
0010
1000
0100
1000
0000
,
0001
1000
0001
0010
0001
0100
0001
0000
,
1000
0100
0010
0001
0100
0000
0010
0000
,
1000
0001
0100
0020
,
0000
0130
0000
0001
0000
1000
0000
0100
,
0000
0010
0001
1000
,
0000
0101
0000
0101
0000
1100
0000
1100
,
0000
0101
0000
0101
0000
0000
0000
0000
,
1000
0010
0100
0001
0010
0100
1000
0000
,
0010
0100
0001
0010
0100
1000
0001
0000
,
1000
0001
0100
0010
1000
0000
0001
0000
,
0100
0010
1000
0002
,
0000
2003
0000
3020
0000
0230
0000
0302
,
0000
0023
0000
0230
0000
0000
0000
0000
,
0000
2300
0000
3002
0000
0203
0000
0320
,
0000
2030
0000
3200
0000
0310
0000
0000
,
1001
0000
0000
0000
,
0000
0000
0000
0000
,
0000
0000
0000
0000
,
0000
0000
0000
0000
,
0000
0000
0000
0000
,
0000
0000
0000
0000
,
0000
0000
0000
0000
;
