#TITLE:Connect;
#SUBTITLE:;
#ARTIST:ClariS;
#CREDIT:Tyma;
#MUSIC:Connect.mp3;
#SELECTABLE:YES;
#BACKGROUND:Connect-BG.png;
#BANNER:Connect.png;
#CDTITLE:;
#OFFSET:0;
#SAMPLESTART:67.200;
#SAMPLELENGTH:10.286;
#BPMS:0=175;
#STOPS:;
#BGCHANGES:1.000=Connect.avi=1.000=1=0=1,
;

//---------------dance-single - ----------------
#NOTES:
     dance-single:
     :
     Hard:
     8:
     0.000,0.000,0.000,0.000,0.000:
0000
0000
0000
0000
,
0000
0000
0000
0000
,
0000
0000
0000
0000
,
0000
0000
0000
0000
,
0000
0000
0000
0000
,
0000
0000
0000
0000
,
0000
0000
0000
0000
,
0000
0000
0000
0000
,
0000
0000
0000
0000
,
0010
0000
0001
0000
1000
0100
1000
0100
,
0000
0010
0001
0000
1000
0001
1000
0000
,
0001
0000
0100
0000
0010
1000
0010
1000
,
0000
0001
0100
0000
0001
1000
0001
0000
,
1000
0000
0100
0000
0010
0001
0010
0001
,
0000
0100
0010
0000
1000
0100
1000
0000
,
0002
0000
0000
0000
,
1003
0000
1001
0000
,
0001
0000
1000
0000
0100
1000
0000
0010
,
0000
0000
0100
0100
0000
0001
0000
1000
,
0000
0000
0100
0000
0010
0001
0000
2000
,
0000
0000
0000
0000
0000
3001
0000
0100
,
0001
0000
1000
0000
0100
1000
0000
0001
,
0000
0100
0001
1000
0000
0001
0000
1000
,
0200
0000
0320
0000
,
0032
0000
1003
0000
,
1000
0000
0001
0000
0100
0001
0000
0010
,
0000
0000
0100
0100
0000
1000
0001
0100
,
0000
0000
0010
0000
1000
0001
0000
1001
,
0000
0000
0000
0000
0000
1000
0000
0100
,
1000
0000
0001
0000
0100
0001
0000
1000
,
0000
0001
0100
0001
0100
0000
0001
0000
,
1000
0000
0000
0100
0000
0000
1000
0000
,
0000
0000
0000
0000
0000
0000
0001
1000
,
0100
0100
0100
0100
,
0100
0100
1000
0001
,
0001
0100
0010
1000
,
0100
0000
0010
0000
0001
0000
1000
0001
,
1000
0010
0010
0010
,
0010
0010
0010
1000
,
0001
0100
1000
0100
,
0001
0000
0010
0000
0001
0000
1000
0010
,
0100
0100
0100
0100
,
0100
0100
1100
0011
,
0220
0000
0330
0000
0001
0000
1000
0010
,
1000
0100
0010
0001
,
1000
0000
0100
1000
0000
1001
0000
0000
,
0001
0000
0010
0001
0000
1001
0000
0000
,
0200
0000
0000
0000
,
0310
0000
0000
0000
,
1000
0000
0000
0100
0010
0001
0000
1000
,
0100
1000
0000
0101
0000
1010
0000
1001
,
0000
0000
0000
1000
0010
1000
0000
0001
,
0100
0001
0010
0100
0000
1000
0100
0010
,
0001
0000
0000
1000
0100
1000
0000
0001
,
0100
0001
0000
1100
0000
0011
0000
1001
,
0000
0000
0000
0000
0000
0010
0100
0010
,
0000
0000
0000
0000
1000
0100
1000
0010
,
0100
0000
0000
0001
0100
0010
0000
1000
,
0001
1000
0000
0011
0000
1100
0000
1001
,
0000
0000
0000
0001
0010
0001
0000
1000
,
0010
1000
0000
0100
0000
0010
0000
0001
,
0000
0000
0001
0100
,
0001
0000
1000
0100
0000
0100
1000
0000
,
0001
1000
0100
1000
,
0020
0000
0230
0000
,
0301
0000
0000
0000
,
0000
0000
0000
0000
,
0000
0000
0000
0000
;

//---------------dance-single - ----------------
#NOTES:
     dance-single:
     :
     Medium:
     5:
     0.000,0.000,0.000,0.000,0.000:
0000
0000
0000
0000
,
0000
0000
0000
0000
,
0000
0000
0000
0000
,
0000
0000
0000
0000
,
0000
0000
0000
0000
,
0000
0000
0000
0000
,
0000
0000
0000
0000
,
0000
0000
0000
0000
,
0000
0000
0000
0000
,
1000
0100
1000
0000
,
0001
0100
0001
0000
,
0010
0100
0010
0000
,
1001
0000
0000
0000
,
0001
0010
0001
0000
,
1000
0010
1000
0000
,
0002
0000
1000
0000
,
1000
0000
1003
0000
,
1001
0000
0000
0000
,
0110
0000
0000
0000
,
0101
0000
0000
0000
,
1010
0000
0000
0000
,
0001
0000
0000
0000
,
1000
0000
0000
0000
,
0110
0000
0000
0000
,
1001
0000
1001
0000
,
0001
0000
0000
0000
,
1010
0000
0000
0000
,
0101
0000
0000
0000
,
1000
0000
0000
0000
,
0001
0000
0000
0000
,
0110
0000
0000
0000
,
1000
0000
0000
0000
,
1001
0000
0000
0000
,
1000
1000
1000
0100
,
0001
0001
0001
0100
,
1000
1000
1000
0000
,
0100
0100
0100
0000
,
1000
1000
1000
0010
,
0001
0001
0001
0010
,
1000
1000
1000
0000
,
1001
0000
0000
0000
,
1000
1000
1000
0100
,
0010
0010
0010
0001
,
1000
1000
1000
0010
,
0100
0100
0100
0000
,
0011
0000
0000
0000
,
1100
0000
0000
0000
,
2002
0000
0000
0000
,
0000
0000
3003
0000
,
0001
0000
0000
1000
0001
1000
0000
0000
,
0100
0000
1000
0000
,
0100
0000
0000
1000
0100
1000
0000
0000
,
0001
0100
0010
1000
0000
0000
0000
0000
,
0100
0000
0010
0000
,
0100
0000
0000
1001
0000
1001
0000
1001
,
0000
0000
0000
0000
0000
1000
0100
1000
,
0000
0000
0001
0000
,
1000
0000
0000
0001
0010
0001
0000
0000
,
1000
0000
0000
0100
0000
0100
0000
0100
,
0000
0000
0000
0001
0100
0001
0000
0000
,
1000
0000
0100
0000
,
1000
0000
0001
0000
,
0100
0000
0001
0000
,
1000
0000
0001
0000
,
2000
0000
3020
0000
,
1030
0000
0000
0000
,
0000
0000
0000
0000
,
0000
0000
0000
0000
;

//---------------dance-single - ----------------
#NOTES:
     dance-single:
     :
     Easy:
     3:
     0.000,0.000,0.000,0.000,0.000:
0000
0000
0000
0000
,
0000
0000
0000
0000
,
0000
0000
0000
0000
,
0000
0000
0000
0000
,
0000
0000
0000
0000
,
0000
0000
0000
0000
,
0000
0000
0000
0000
,
0000
0000
0000
0000
,
0000
0000
0000
0000
,
1000
1000
0000
0000
,
0000
0000
0000
0000
,
0001
0001
0000
0000
,
0000
0000
0000
0000
,
1000
0000
0000
0000
,
0100
0000
0000
0000
,
0001
0000
0000
0000
,
0000
0000
0000
0000
,
1001
0000
0000
0000
,
1000
0000
0000
0000
,
0001
0000
0000
0000
,
0100
0000
0000
0000
,
0001
0000
0000
0000
,
1000
0000
0000
0000
,
0100
0000
0000
0000
,
1001
0000
1001
0000
,
1000
0000
0000
0000
,
0001
0000
0000
0000
,
0010
0000
0000
0000
,
0001
0000
0000
0000
,
1000
0000
0000
0000
,
0010
0000
0000
0000
,
1000
0000
0000
0000
,
1001
0000
0000
0000
,
1000
1000
1000
0000
,
0001
0001
0001
0000
,
1000
1000
1000
0000
,
0100
0100
0100
0000
,
1000
1000
1000
0000
,
0001
0001
0001
0000
,
0100
0100
0100
0000
,
0001
0001
0001
0000
,
1000
1000
1000
0000
,
0010
0010
0010
0000
,
1000
1000
1000
0000
,
0001
0001
0001
0000
,
1001
0000
0000
0000
,
0110
0000
0000
0000
,
2002
0000
0000
0000
,
0000
0000
3003
0000
,
0001
0000
0010
0000
,
0100
0000
1000
0000
,
0001
0000
0100
0000
,
0002
0000
0003
0000
,
0100
0000
0010
0000
,
2000
0000
0000
0000
,
3002
0000
0000
0000
,
0000
0000
0003
0000
,
1000
0000
0001
0000
,
1000
0000
0000
0100
0000
0100
0000
0100
,
0000
0000
0001
0000
,
1000
0000
0100
0000
,
1000
0000
0001
0000
,
0100
0000
0001
0000
,
1000
0000
0001
0000
,
2000
0000
3020
0000
,
1030
0000
0000
0000
,
0000
0000
0000
0000
,
0000
0000
0000
0000
;
