#TITLE:Beautiful Girl;
#SUBTITLE:Seth Vogt Electro Vanity Remix;
#ARTIST:DJ Keri;
#TITLETRANSLIT:;
#SUBTITLETRANSLIT:;
#ARTISTTRANSLIT:;
#CREDIT:;
#BANNER:Beautiful Girl.png;
#BACKGROUND:Beautiful Girl-BG.png;
#LYRICSPATH:;
#CDTITLE:;
#MUSIC:Beautiful Girl.ogg;
#OFFSET:-0.272;
#SAMPLESTART:46.474;
#SAMPLELENGTH:12.000;
#SELECTABLE:YES;
#BPMS:0.000=128.900;
#STOPS:;
#BGCHANGES:0.000=Beautiful Girl.avi=1.000=1=1=0,
218.000=beautiful-bg.png=1.000=0=0=1,
99999=-nosongbg-=1.000=0=0=0 // don't automatically add -songbackground-
;

//---------------dance-single - ----------------
#NOTES:
     dance-single:
     :
     Easy:
     3:
     0.144,0.193,0.099,0.009,0.000:
0000
0000
0000
0000
,
0000
0000
0000
0000
,
0000
0000
0000
0000
,
0000
0000
0000
0000
,
0000
0000
1000
0000
,
0001
0000
0010
0000
,
0000
0000
0100
0000
,
0000
0000
1001
0000
,
0000
0000
1000
0000
,
0001
0000
1000
0000
,
1000
0000
0001
0000
,
0001
0000
0010
0000
,
0100
0000
1001
0000
,
0100
0000
1000
0000
,
1000
0000
0001
0000
,
0001
0000
0010
0000
,
0100
0000
1001
0000
,
0100
0000
0001
0000
,
0001
0000
1000
0000
,
1000
0000
0010
0000
,
0100
0000
1001
0000
,
0000
0000
1000
1000
,
1000
0000
0001
0001
,
0001
0000
1000
1000
,
1000
0000
0010
0000
,
0100
0000
0001
0001
,
0001
0000
1000
1000
,
1000
0000
1001
0000
,
0110
0000
0020
0000
,
0000
0000
0130
0000
,
0001
0000
1000
0000
,
0100
0000
0010
0000
,
0001
0000
0010
0000
,
0100
0000
1000
0000
,
0100
0000
0010
0000
,
0001
0000
0010
0000
,
0100
0000
1000
0000
,
0001
0000
1001
0000
,
0000
0000
0000
0000
,
0000
0000
0011
0000
,
0000
0000
0000
0000
,
0000
0000
0000
1100
0000
0000
0000
0000
,
0000
0000
0000
0011
0000
0000
0000
0000
,
0000
0000
0000
1000
0000
0000
0000
0000
,
1000
0000
0010
0000
,
1000
0000
0001
1000
,
0001
0000
1000
0001
,
1000
0000
0001
0001
,
1000
0001
0001
0000
,
0000
0000
1000
0100
,
1000
0000
0001
0100
,
0001
0000
1000
1000
,
0100
0100
1000
1000
,
0001
0001
1001
0000
,
0000
0000
0000
0000
,
0000
0000
0000
0000
,
0000
0000
0000
0000
,
0000
0000
0000
0000
,
0000
0000
0000
0000
,
0000
0000
0000
0000
;

//---------------dance-single - ----------------
#NOTES:
     dance-single:
     :
     Medium:
     5:
     0.224,0.271,0.172,0.036,0.000:
0000
0000
0000
0000
,
0000
0000
0000
0000
,
0000
0000
0000
0000
,
0000
0000
0000
0000
,
0000
0000
0000
0000
,
0000
0000
1000
1000
,
0001
0001
0020
0000
,
0000
0000
0130
1000
,
1100
0000
0010
0001
,
0011
0100
1000
0100
,
0010
0001
1001
0000
,
0110
0000
0010
0001
,
0011
0000
0010
1000
,
1010
0000
1000
0010
,
0100
0000
0001
0010
,
0001
0000
1001
0000
,
0001
0000
0100
1000
,
1100
0000
0100
0100
,
0010
0010
0001
1000
,
0001
0000
0010
1000
,
1010
0000
0010
0100
,
0001
0000
0000
0000
1000
0100
1000
0000
,
0001
0010
0001
0000
1000
0000
1000
0000
,
1000
0000
0001
0001
,
0001
0000
0000
0000
1000
0100
1000
0100
,
1000
0000
0000
0000
0010
0001
0010
0000
,
0100
1000
0100
0000
0001
0000
0001
0000
,
0001
0000
1000
1000
,
1000
0000
0200
0000
,
0310
0000
2002
0000
,
3003
0000
1000
0000
,
1001
0000
1100
0000
,
0001
0000
1001
0000
,
0101
0000
0010
0000
,
0100
0000
0110
0000
,
0001
0000
1000
0000
,
1001
0000
0000
0000
1000
0001
1000
0001
,
0100
0000
1100
0000
,
0101
0000
1001
0001
,
0000
0000
0100
0010
,
0000
0000
0001
0100
,
0000
0000
0000
1000
1000
0000
0000
0000
,
0000
0000
0000
0001
0001
0000
0000
0000
,
0000
0000
0000
0010
0010
0000
0000
0000
,
0000
0000
0000
0100
0100
0000
0000
0000
,
0000
0000
0000
0000
1000
0100
1000
0000
,
0001
0010
0001
0000
1000
0000
1000
0000
,
1000
0000
0001
0001
,
0001
0000
0000
0000
0001
0100
0001
0100
,
0001
0000
0000
0000
0100
1000
0100
0000
,
0010
0001
0010
0000
1000
0000
1000
0000
,
1000
0000
0001
0001
,
1000
0000
0001
0001
,
0100
0100
0001
0001
,
1000
1000
0100
0000
,
0000
0000
0000
0000
,
0000
0000
0000
0000
,
0000
0000
0000
0000
,
0000
0000
0000
0000
,
0000
0000
0000
0000
;

//---------------dance-single - ----------------
#NOTES:
     dance-single:
     :
     Hard:
     8:
     0.373,0.416,0.135,0.217,0.045: // measure 1
0000
0000
0000
0000
,  // measure 2
0000
0000
0000
0000
,  // measure 3
0000
0000
0000
0000
,  // measure 4
0000
0000
0000
0000
,  // measure 5
0000
0000
0000
0000
,  // measure 6
0000
0000
1000
0001
,  // measure 7
0100
0010
1000
0000
0001
0000
1001
0000
,  // measure 8
0100
0000
0010
0000
0001
0000
0000
0000
1000
0100
1000
0100
1000
0000
0100
0000
,  // measure 9
1000
0000
0000
0000
1000
0100
0010
0001
,  // measure 10
0100
0000
1000
0100
,  // measure 11
1000
0100
0010
0000
0001
0000
0011
0000
,  // measure 12
0010
0000
0100
0000
1000
0000
0000
0000
0001
0100
0001
0100
0001
0000
0100
0000
,  // measure 13
0001
0000
0000
0000
0001
0100
0010
1000
,  // measure 14
0100
0000
0000
0000
1000
0010
0100
0001
,  // measure 15
0100
0010
1000
0001
0100
0010
1000
0100
,  // measure 16
0010
0001
0010
0000
0002
0000
0000
0000
,  // measure 17
0000
0003
2000
0000
,  // measure 18
0000
0000
3000
0000
0001
0010
0100
1000
,  // measure 19
0100
0010
0001
0000
0100
0010
1000
0100
,  // measure 20
0010
0000
0001
0000
0010
0000
0000
0000
1000
0100
1000
0100
1000
0000
0100
0000
,  // measure 21
1000
0000
0000
0000
0001
0100
0010
1000
,  // measure 22
0001
0000
0000
0000
1000
0000
0100
0010
,  // measure 23
0001
0000
1100
0000
0001
0100
0001
0010
,  // measure 24
0001
0000
1100
0000
1000
0100
0001
0000
,  // measure 25
1000
0000
0010
0000
1000
0100
1000
0010
,  // measure 26
1000
0000
0001
0000
0100
0010
1000
0001
,  // measure 27
0010
0000
1100
0000
0001
1000
0010
0100
,  // measure 28
0002
0000
0000
0000
1003
0100
0010
0000
,  // measure 29
0001
0000
0100
0000
0010
0100
0001
0010
,  // measure 30
0100
1000
0001
1000
0020
0000
0030
0000
,  // measure 31
2000
3000
0200
0300
,  // measure 32
0020
0030
0002
0003
,  // measure 33
0200
0300
0020
0030
,  // measure 34
2000
3000
0200
0300
,  // measure 35
0020
0030
0002
0203
,  // measure 36
0320
2030
3200
0320
,  // measure 37
0032
0000
0203
0000
0310
1000
0100
0010
,  // measure 38
0001
0100
0010
1000
0100
0000
1000
0001
,  // measure 39
1000
0100
0100
0000
0010
0000
0001
1000
,  // measure 40
0001
0100
0100
0000
1000
0000
0001
0010
,  // measure 41
0001
0100
0100
0000
0001
0000
0010
0001
,  // measure 42
0100
0010
1000
0010
0101
0000
0000
0000
,  // measure 43
0000
0000
0000
0100
0001
0000
0000
0000
,  // measure 44
0000
0000
0000
0000
0000
0000
1000
0000
0100
0000
0000
1000
0000
0000
0001
0000
,  // measure 45
0100
0000
0000
0010
0000
0000
0100
0000
0001
0000
0000
1000
0000
0000
0001
0000
,  // measure 46
0010
0000
0000
0001
0000
0000
0000
0000
1001
0000
1000
0000
0010
0000
0100
0000
,  // measure 47
0010
0000
0101
0000
0100
0010
1000
0100
,  // measure 48
0110
0000
0011
0000
1001
0001
0100
0010
,  // measure 49
0100
0000
1100
0000
0010
0100
0001
0100
,  // measure 50
0101
0000
0000
0000
1001
0100
0010
0001
,  // measure 51
1000
0000
0110
0000
1000
0100
0010
0001
,  // measure 52
0200
0300
0010
0100
0000
0001
1000
0010
,  // measure 53
0100
0001
2000
0000
3010
0010
1000
0100
,  // measure 54
0001
0100
1000
0010
0200
0000
0000
0000
,  // measure 55
0000
0300
0000
0000
;
