#VERSION:0.83;
#TITLE:Ruler or Loser;
#SUBTITLE:;
#ARTIST:Maozon feat. Nadia;
#TITLETRANSLIT:;
#SUBTITLETRANSLIT:;
#ARTISTTRANSLIT:;
#GENRE:;
#CREDIT:Tundrus;
#MUSIC:RulerorLoser.mp3;
#BANNER:banner.png;
#BACKGROUND:background.jpg;
#CDTITLE:;
#SAMPLESTART:29.080;
#SAMPLELENGTH:11.034;
#SELECTABLE:YES;
#OFFSET:-1.483;
#BPMS:0.000=174.000
,14.000=348.000
,16.000=174.000
,78.000=348.000
,80.000=174.000
,172.000=348.000
,174.000=174.000
;
#STOPS:15.000=0.150
,15.500=0.200
,78.000=0.200
,79.000=0.150
,172.000=0.200
,172.500=0.150
,173.000=0.200
,173.500=0.150
,174.000=0.150
,286.500=0.180
,302.000=0.185
,317.500=0.150
;
#WARPS:189.500=1.000;
#DISPLAYBPM:174.000;
#BGCHANGES:;
#FGCHANGES:;

//--------------- dance-single - Tundrus ----------------
#NOTEDATA:;
#STEPSTYPE:dance-single;
#DESCRIPTION:Tundrus;
#DIFFICULTY:Easy;
#METER:8;
#RADARVALUES:0,0,0,0,0;
#NOTES:
0000
0000
0000
0000
;

//--------------- dance-single - Tundrus ----------------
#NOTEDATA:;
#STEPSTYPE:dance-single;
#DESCRIPTION:Tundrus;
#DIFFICULTY:Medium;
#METER:10;
#RADARVALUES:0,0,0,0,0;
#NOTES:
0000
0000
0000
0000
,
0000
0000
0000
0000
,
0000
0000
0000
0000
,
0000
0000
0000
0000
,
1001
0000
1000
0001
0100
0000
0100
0000
,
0010
1000
0001
0010
0001
0000
0100
0000
,
0000
0000
1000
0001
0010
0000
0100
0000
,
1000
0000
0100
0000
0010
0000
0001
0010
0001
0000
0000
0000
1000
0000
0000
0000
,
0000
0000
0010
0000
0100
0001
0000
1000
,
0100
0010
0100
1000
0100
0010
0001
0100
,
0001
0010
0100
1000
0001
1000
0010
1000
,
0001
0000
0100
0000
0010
0000
1000
0010
1000
0000
0000
0000
0200
0000
0000
0000
,
0300
0000
0000
0000
1000
0001
0000
0000
0010
0000
0000
0000
1000
0000
0001
0000
,
0010
0100
0000
0000
1000
0000
0000
0000
0001
0000
0000
0000
0101
0000
0000
0000
,
0000
0000
0000
0000
1000
0100
0000
0000
0010
0001
0000
0000
1001
0000
0000
0000
,
0010
1000
0100
0010
0001
0000
0100
0000
,
0000
0000
0000
0000
0001
0000
1000
0001
0000
0000
1000
0000
0001
1000
0000
0000
,
0001
0000
0100
0001
0000
0000
1000
0000
0100
1000
0000
0000
0001
0000
0100
0010
,
4000
0000
3004
0000
,
0043
0000
0000
0030
1001
0000
1001
0000
,
0100
0000
0000
0000
1000
0000
0001
1000
0001
1000
0001
0000
1000
0010
1000
0010
,
1000
0000
1000
0010
0100
0001
0100
0000
0001
0000
0002
0000
0000
0003
1000
0000
,
0200
0000
0300
0000
0010
0000
1000
0010
1000
0010
1000
0000
0001
0100
0001
0100
,
0001
0000
1000
0001
1000
0001
1000
0000
0001
0000
0002
0000
0000
0003
1000
0000
,
0200
0000
0300
0000
0010
0000
0001
0010
0001
0010
0001
0000
0001
1000
0001
1000
,
0001
0000
0001
0000
1000
0100
0010
0000
0001
0000
0002
0000
0000
0003
1000
0000
,
0100
0000
0000
0000
0010
0000
1000
0100
1000
0100
1000
0000
0001
0010
0001
0010
,
0001
0000
0100
0010
0100
0010
0100
0000
0001
0000
0002
0000
0000
0003
1000
0000
,
0200
0000
0300
0000
0001
0000
1000
0010
1000
0010
1000
0000
0001
0010
0001
0010
,
0001
0000
0100
0000
1000
0100
0010
0000
0001
0000
0002
0000
0000
0003
1000
0000
,
0200
0000
0300
0000
0100
0000
1000
0001
1000
0001
1000
0000
0001
0100
0001
0100
,
0001
0000
0001
0010
0001
0010
0001
0000
0001
0000
0002
0000
0000
0003
1000
0000
,
0200
0000
0300
0000
0100
0000
0010
0100
0010
0100
0010
0000
1000
0010
1000
0100
,
1000
0000
0010
0000
0001
0100
0001
0000
0001
0000
0002
0000
0000
0003
1000
0000
,
0100
0000
0100
0000
0100
0000
1000
0000
0010
0001
0010
0000
1000
0100
1000
0000
,
0100
0010
0100
0000
1000
0100
0010
0000
0001
0000
0001
0000
0100
0000
0010
0000
,
0110
0100
0001
0010
0100
0010
0001
0100
,
0010
0100
0001
0010
0100
0010
0002
0000
,
0003
0000
0001
1000
0100
0010
0100
1000
,
0010
0100
0010
1000
0100
0010
0100
0000
,
0001
0000
0000
0001
0000
0000
1000
0000
1000
0000
0000
0000
0001
0000
1000
0000
,
0100
1000
0010
0100
0010
0000
0001
0000
,
1000
0000
0100
0010
0000
0010
0000
0001
,
1100
1010
0011
0101
1001
0100
0110
0000
,
1000
0001
1000
0000
0010
0000
0100
0000
0010
0000
0001
0000
0011
0000
0000
0000
,
1000
0100
1000
0000
0010
0000
0100
0000
0001
0000
0011
0000
0000
0000
0001
0000
,
1000
0000
1000
0000
1000
0000
1000
0000
1000
0000
0001
0000
0000
0100
0000
0000
,
0020
0000
0000
0030
0000
0000
2000
0000
0000
0000
3000
0000
0000
0000
0001
0000
,
0000
0100
0000
0000
0010
0000
0000
0000
1000
0000
0100
0000
0010
0000
0001
0000
,
0000
1000
0000
0010
1000
0000
0000
0000
0100
0000
0010
0000
0100
0000
0004
4000
,
0000
0000
0000
0000
0000
0000
0000
0000
0000
0000
0000
0000
0000
0003
3000
0000
,
0000
0100
0010
1001
0000
0101
0000
0000
,
0000
0100
0001
0010
0000
0100
0000
1100
,
0000
1010
0000
1001
0000
1000
0000
0000
,
0000
0010
0100
0010
0000
0001
0000
1010
,
0000
0000
0101
0000
0100
0001
0100
0000
0000
0000
0010
0000
0000
0000
1000
0000
,
0000
1000
0100
1000
0010
1000
0100
1000
,
0010
1000
0100
1000
0010
1000
0000
1001
,
0000
0001
0010
0001
0100
0001
0010
0001
,
0100
0001
0010
0001
0100
0001
0010
1001
,
0000
0100
1000
0010
0001
0100
0000
0001
,
0000
1000
0100
0022
0000
0033
0000
0000
,
0000
0000
1000
0100
1000
0000
0002
0000
0003
0000
0100
0000
0010
0000
1000
0000
,
0000
0000
0001
0000
0000
0000
0010
0000
0000
0000
1001
0000
0000
0000
0040
0400
,
0000
0000
0000
0000
,
0000
0000
0000
0000
0000
0000
0000
0000
0000
0000
0000
0030
0300
0000
0100
0000
,
0000
1000
0000
0000
0001
0000
0001
0000
0010
0000
0100
0000
0000
0000
0011
0000
,
0000
1000
0202
0000
0000
0000
0303
0100
,
0010
0100
0010
0001
1000
0001
0010
0100
,
0010
0000
0001
0000
0010
0000
0100
1000
0100
0000
0001
0000
1000
0000
0100
0000
,
0010
0000
0100
0000
0010
0000
0001
0010
0001
0000
0010
0000
1000
0000
0001
0000
,
0010
0000
0100
0000
0010
0000
0001
0010
0001
0000
0100
0000
0100
0000
0010
0000
,
1000
0010
0100
0010
0100
0001
1000
0010
,
1000
0000
0001
0000
0010
0100
0010
0000
0010
0000
0001
0000
1000
0000
0010
0000
,
0100
0000
0001
0000
1000
0010
1000
0000
1000
0000
0010
0000
0100
0000
0010
0000
,
1000
0000
0001
0000
0010
0001
0010
0000
0100
0000
0010
0000
1000
0000
0100
0000
,
1000
0100
1000
0010
0100
0001
0010
0001
,
0100
0000
0001
0010
0001
0000
0010
0000
0100
0000
1000
0000
0010
0000
0100
0000
,
0010
0000
1000
0100
1000
0000
0001
0000
0100
0000
0010
0000
0100
0000
0010
0000
,
0100
0000
0001
1000
0001
0000
0100
0000
1000
0000
0100
0000
1000
0000
0001
0000
,
0010
0100
0010
0100
0010
0001
0100
0010
,
0100
0000
0001
0000
0100
0000
0010
0000
1000
0000
0000
0000
0001
0000
1000
0001
,
0000
0000
0001
0000
0100
0001
0000
0000
1000
0000
0010
1000
0000
0000
1000
0000
,
0001
0000
0002
0000
0000
0003
0100
0000
0101
0000
0000
0000
0000
0000
0000
0000
;

//--------------- dance-single - Tundrus ----------------
#NOTEDATA:;
#STEPSTYPE:dance-single;
#DESCRIPTION:Tundrus;
#DIFFICULTY:Hard;
#METER:12;
#RADARVALUES:0,0,0,0,0;
#NOTES:
0000
0000
0000
0000
,
0000
0000
0000
0000
,
0000
0000
0000
0000
,
0000
0000
0000
0000
,
1001
0000
1000
0001
0100
0000
0100
0000
,
0010
1000
0001
0010
0002
0003
0200
0300
,
0000
0000
1000
0001
0020
0030
0200
0300
,
1000
0000
0100
0000
0010
0000
0001
0010
0001
0000
0000
0000
1000
0000
0000
0000
,
0000
0000
0010
0000
0100
0001
0000
1000
,
0100
0010
0100
1000
0100
0010
0001
0100
,
0001
0010
0100
1000
0001
1000
0010
1000
,
0001
0000
0100
0000
0010
0000
1000
0010
1000
0000
0000
0000
0200
0000
0000
0000
,
0300
0000
0000
0000
1000
0001
0000
0000
0010
0000
0000
0000
1000
0000
0001
0000
,
0010
0100
0000
0000
1000
0000
0000
0000
0001
0000
0000
0000
0101
0000
0000
0000
,
0000
0000
0000
0000
1000
0100
0000
0000
0010
0001
0000
0000
1001
0000
0000
0000
,
0010
1000
0100
0010
0002
0000
0203
0000
,
0300
0000
0000
0000
0001
0000
1000
0010
0000
0000
1000
0000
0001
0010
0000
0000
,
0001
0000
0100
0010
0000
0000
1000
0000
0010
0100
0000
0000
0001
0000
0100
0010
,
4000
0000
3004
0000
,
0043
0030
1001
1001
,
0200
0000
0000
0300
1000
0000
0001
0100
0010
1000
0001
0000
1000
0010
1000
0010
,
0100
0000
1000
0010
0100
0001
0100
0000
0001
0000
0002
0000
0003
0000
1000
0000
,
0200
0000
0300
0000
0010
0000
1000
0001
0100
0010
1000
0000
0001
1000
0100
0010
,
0100
0000
1000
0100
0010
0001
0100
0000
0001
0000
0002
0000
0000
0003
1000
0000
,
0200
0000
0300
0000
0010
0000
0001
1000
0100
1000
0010
0000
0001
1000
0100
0010
,
0100
0000
0001
0000
1000
0100
0010
0000
0001
0000
0002
0000
0000
0003
1000
0000
,
0200
0000
0300
0000
0010
0000
1000
0100
0010
0001
0010
0000
0100
1000
0100
0010
,
0001
0000
0010
0100
1000
0100
0010
0000
0001
0000
0002
0000
0000
0003
1000
0000
,
0200
0000
0300
0000
0001
0000
1000
0010
1000
0010
1000
0000
0001
0010
0001
0010
,
0000
0000
0100
0000
0100
1000
0100
0000
0001
0000
0002
0000
0000
0003
1000
0000
,
0200
0000
0300
0000
0100
0000
1000
0100
0010
0001
0100
0000
1000
0010
1000
0010
,
1000
0000
0001
1000
0010
0100
1000
0000
0001
0000
0002
0000
0000
0003
1000
0000
,
0200
0000
0300
0000
0100
0000
0001
0010
0001
0100
0001
0000
1000
0010
1000
0100
,
1000
0000
0010
0000
0001
0100
0001
0000
0001
0000
0002
0000
0000
0003
1000
0000
,
0100
0000
0100
0000
0100
1000
0010
1000
0010
1000
0001
0100
0001
0010
0001
0010
,
0100
0010
0001
0100
0010
0100
0010
0000
0001
0000
0002
0000
0103
0000
0010
0000
,
0110
0100
0001
0010
0100
0010
0001
0100
,
0010
0100
0001
0010
0100
0010
0002
0000
,
0003
0000
0001
1000
0100
0010
0100
1000
,
0010
0100
0010
1000
0100
0010
0200
0000
,
0301
0000
0000
0001
0000
0000
1000
0000
1000
0000
0000
0000
0001
0000
1000
0000
,
0100
0000
1000
0000
0010
0000
0100
0000
0010
0000
0000
0000
0002
0003
0000
0000
,
2000
3000
0000
0000
0100
0000
0010
0000
0000
0000
0010
0000
0000
0000
0001
0000
,
1100
0000
1010
0000
0011
0000
0101
0000
1001
0000
0100
0000
0000
0110
0000
0000
,
1000
0001
1000
0000
0010
0000
0100
0000
0010
0000
0001
0000
0000
0011
0000
0000
,
1000
0100
1000
0000
0010
0000
0100
0000
0001
0000
0011
0000
0000
0000
0001
0000
,
1000
0000
1000
0000
1000
0000
1000
0000
1000
0000
0001
0000
0000
0100
0000
0000
,
0020
0000
0030
2000
0000
3000
0000
0001
,
0000
0100
0000
0000
0010
0000
0000
0000
1000
0000
0100
0000
0010
0000
0001
0000
,
0000
1000
0000
0010
1000
0000
0000
0000
0100
0000
0010
0000
0100
0000
0001
1000
,
0001
1000
0001
1000
0001
1000
0001
1000
0001
1000
0001
1000
0001
1000
0001
0000
,
0000
0100
0010
1001
0000
0101
0000
0000
,
0000
0100
0001
0010
0000
0100
0000
1100
,
0000
1010
0000
1001
0000
2000
0000
3000
,
0000
0010
0100
0010
0000
0001
0000
1010
,
0000
0000
0101
0000
0100
0001
0100
0000
0100
0000
0010
0000
0000
0000
1000
0000
,
0000
1000
0100
1000
0010
1000
0100
1000
,
0010
1000
0100
1000
0010
1000
0000
1001
,
0000
0001
0010
0001
0100
0001
0010
0001
,
0100
0001
0010
0001
0100
0001
0010
1001
,
0000
0100
1000
0010
0001
0100
0000
0001
,
0000
1000
0100
0022
0000
0033
0000
0000
,
0000
0000
1000
0100
1000
0000
0002
0000
0003
0000
0100
0000
0010
0000
2000
0000
,
3000
0000
0002
0000
0003
0000
0020
0000
0030
0000
1001
0000
0000
0000
0010
0100
,
0010
0100
0010
0100
0010
0100
0010
0100
0010
0100
0010
0100
0010
0100
0010
0100
,
0010
0100
0010
0100
0010
0100
0010
0100
0010
0100
0010
0100
0010
0000
0100
0000
,
0000
1000
0000
0000
0001
0000
0001
0000
0010
0000
0100
0000
0000
0000
0011
0000
,
0000
1000
0202
0000
0000
0000
0303
0100
,
0010
0100
0010
0001
1000
0001
0010
0100
,
0010
0000
0001
0000
0010
0000
0100
1000
0100
0000
0001
0000
1000
0000
0100
0000
,
0010
0000
0100
0000
0010
0000
0001
0010
0001
0000
0010
0000
1000
0000
0001
0000
,
0010
0000
0100
0000
0010
0000
0100
0010
0001
0000
0100
0000
0100
0000
0010
0000
,
1000
0010
0100
0010
0100
0001
1000
0010
,
1000
0000
0001
0000
0010
0100
0010
0000
0010
0000
0001
0000
1000
0000
0010
0000
,
0100
0000
0001
0000
1000
0010
1000
0000
1000
0000
0010
0000
0100
0000
0010
0000
,
1000
0000
0001
0000
0010
0100
1000
0000
0100
0000
0010
0000
1000
0000
0100
0000
,
1000
0100
1000
0010
0100
0001
0010
0001
,
0100
0000
0001
0010
0100
0000
0010
0000
0100
0000
0001
0000
0010
0000
0100
0000
,
0010
0000
0001
1000
0010
0000
0001
0000
0100
0000
0010
0000
0100
0000
0010
0000
,
0100
0000
0001
1000
0010
0000
0100
0000
1000
0000
0100
0000
1000
0000
0001
0000
,
0010
0100
0010
0100
0010
0001
0100
0010
,
0100
0000
0001
0000
0100
0000
0010
0000
1000
0000
0000
0000
0001
0000
1000
0100
,
0000
0000
0001
0000
0100
0010
0000
0000
1000
0000
0010
0100
0000
0000
1000
0000
,
0001
0002
0003
0100
0101
0000
0000
0000
;
