#TITLE:POSSESSSSSSSION;
#SUBTITLE:Extended Mix;
#ARTIST:TAG underground;
#TITLETRANSLIT:;
#SUBTITLETRANSLIT:;
#ARTISTTRANSLIT:;
#GENRE:;
#CREDIT:Tundrus;
#MUSIC:POSSESSSSSSSION.mp3;
#BANNER:POSSESSSSSSSION-banner.png;
#BACKGROUND:POSSESSSSSSSION-bg.png;
#CDTITLE:POSSESSSSSSSION-jacket.png;
#SAMPLESTART:73.087;
#SAMPLELENGTH:20.757;
#SELECTABLE:YES;
#OFFSET:-0.277;
#BPMS:0.000=370.000
,257.000=185.000
,288.000=370.000
,544.000=185.000
,605.000=370.000
,725.000=185.000
,726.000=370.000
,982.000=185.000
,1043.000=370.000
,1163.000=185.000
,1164.000=370.000
,1420.000=185.000
,1481.000=370.000
,1601.000=185.000
,1602.000=370.000
,1858.000=185.000
,1919.000=370.000
,2039.000=185.000
,2040.000=370.000
;
#STOPS:288.000=0.324
,604.000=0.973
,725.000=0.973
,1042.000=0.973
,1163.000=0.973
,1480.000=0.973
,1601.000=0.973
,1918.000=0.973
,2039.000=0.973
;
#BGCHANGES:;
#FGCHANGES:;

//--------------- dance-single - Tundrus ----------------
#NOTES:
     dance-single:
     Tundrus:
     Beginner:
     14:
     0,0,0,0,0:
0000
0000
0000
0000
,
0000
0000
0000
0000
,
0000
0000
0000
0000
,
0000
0000
0000
0000
,
0000
0000
0000
0000
,
0000
0000
0000
0000
,
0000
0000
0000
0000
,
0000
0000
0000
0000
,
0000
0010
0000
0010
,
0000
0001
0000
0001
,
0000
0100
0000
0100
,
0000
1000
0000
1000
,
0000
0200
0000
0000
,
0300
0002
0000
0000
,
0003
2000
0000
0000
,
3000
0020
0000
0000
,
0030
0001
0000
0010
,
0000
0001
0000
0001
,
0000
1000
0000
0010
,
0000
1000
0000
1000
,
0000
0100
0000
0010
,
0000
0100
0000
0100
,
0000
0001
0000
1000
,
0000
0001
0000
0001
,
0000
0002
0000
0000
,
0003
2000
0000
0000
,
3000
0002
0000
0000
,
0003
2000
0000
0000
,
3000
0010
0000
0010
,
0000
0001
0000
0001
,
0000
0100
0000
0100
,
0000
1000
0000
1000
,
0000
0010
0000
0010
,
0000
0001
0000
0001
,
0000
0100
0000
0100
,
0000
1000
0000
1000
,
0000
0200
0000
0000
,
0300
0002
0000
0000
,
0003
2000
0000
0000
,
3000
0020
0000
0000
,
0030
0010
0000
0010
,
0000
0001
0000
0001
,
0000
0100
0000
0100
,
0000
1000
0000
1000
,
0000
0200
0000
0000
,
0300
0002
0000
0000
,
0003
2000
0000
0000
,
3000
0020
0000
0000
,
0030
0001
0000
0010
,
0000
0001
0000
0001
,
0000
1000
0000
0010
,
0000
1000
0000
1000
,
0000
0100
0000
0010
,
0000
0100
0000
0100
,
0000
0001
0000
1000
,
0000
0001
0000
0001
,
0000
0002
0000
0000
,
0003
2000
0000
0000
,
3000
0002
0000
0000
,
0003
2000
0000
0000
,
3000
0010
0000
0010
,
0000
0001
0000
0001
,
0000
0100
0000
0100
,
0000
1000
0000
1000
,
0000
0220
0000
0000
,
0000
0000
0000
0000
,
0330
2002
0000
0000
,
0000
0000
3003
0100
,
0100
0001
0100
0000
,
0100
1000
0100
0000
,
0100
0000
0001
0000
0000
1000
0000
0000
,
0001
0000
0000
1000
0000
0000
0001
0000
,
1001
0000
1000
0000
,
0010
0000
0100
0000
,
0001
0000
0100
0000
,
0010
0000
0010
0000
,
1000
0000
0010
0000
,
0100
0000
1000
0000
,
0010
0000
0010
0000
,
0100
0000
0010
0000
,
1000
0000
0100
0000
,
1000
0000
0010
0000
,
1000
0000
0100
0000
,
0010
0000
0001
0000
,
1000
0000
0010
0000
,
0001
0000
0100
0000
,
0010
0000
0001
0000
,
0100
0000
1000
0000
,
0010
0000
1000
0000
,
0010
0000
0100
0000
,
0001
0000
0100
0000
,
0010
0000
0010
0000
,
1000
0000
0010
0000
,
0100
0000
1000
0000
,
0010
0000
0010
0000
,
0100
0000
0010
0000
,
1000
0000
0100
0000
,
1000
0000
0010
0000
,
1000
0000
0100
0000
,
0010
0000
0001
0000
,
1000
0000
0010
0000
,
0001
0000
0100
0000
,
0010
0000
0001
0000
,
0100
0000
1000
0000
,
0010
0000
0000
0000
,
1000
0000
0000
0000
,
0100
0000
0000
0000
,
0001
0000
0000
0000
,
0010
0000
0000
0000
,
1000
0000
0000
0000
,
0100
0000
0000
0000
,
0001
0000
0000
0000
,
0010
0000
0000
0000
,
0001
0000
0000
0000
,
0100
0000
0000
0000
,
1000
0000
0000
0000
,
0010
0000
0000
0000
,
0001
0000
0000
0000
,
0100
0000
0000
0000
,
0001
0000
0000
0000
,
1000
0000
0000
0000
,
0100
0000
0000
0000
,
0001
0000
0000
0000
,
0010
0000
0000
0000
,
1000
0000
0000
0000
,
0100
0000
0000
0000
,
0001
0000
0000
0000
,
0010
0000
0000
0000
,
0001
0000
0000
0000
,
0100
0000
0000
0000
,
1000
0000
0000
0000
,
0010
0000
0000
0000
,
0001
0000
0000
0000
,
0100
0000
0000
0000
,
0100
0000
0000
0000
,
2002
0000
0000
3003
,
2000
0000
0000
3000
,
0020
0000
0000
0030
,
2000
0000
0000
3000
,
0002
0000
0000
0003
,
2000
0000
0000
3000
,
0020
0000
0000
0030
,
2000
0000
0000
3000
,
0002
0000
0000
0003
,
1000
0000
0010
0000
,
0001
0000
0100
0000
,
1000
0000
0010
0000
,
0001
0000
0100
0000
,
1000
0000
0010
0000
,
0001
0000
0100
0000
,
2000
0000
0002
3003
,
2002
3003
0100
0000
0000
0000
0001
0000
,
0000
0010
0000
0100
,
0000
1000
0000
0100
,
0000
0010
0000
0010
,
0000
0001
0000
0010
,
0000
0100
0000
0001
,
0000
0010
0000
0010
,
0000
0100
0000
0010
,
0000
0001
0000
0100
,
0000
0001
0000
0010
,
0000
0001
0000
0100
,
0000
0010
0000
1000
,
0000
0001
0000
0010
,
0000
1000
0000
0100
,
0000
0010
0000
1000
,
0000
0100
0000
0001
,
0000
0010
0000
0100
,
0000
0001
0000
0010
,
0000
0100
0000
1000
,
0000
0100
0000
0010
,
0000
0010
0000
0001
,
0000
0010
0000
0100
,
0000
0001
0000
0010
,
0000
0010
0000
0100
,
0000
0010
0000
0001
,
0000
0100
0000
0001
,
0000
0010
0000
0001
,
0000
0100
0000
0010
,
0000
1000
0000
0001
,
0000
0010
0000
1000
,
0000
0000
2002
3003
0100
0000
0000
0000
,
0001
0000
0010
0000
,
0100
0000
1000
0000
,
0100
0000
0010
0000
,
0010
0000
0001
0000
,
0010
0000
0100
0000
,
0001
0000
0010
0000
,
0010
0000
0100
0000
,
0010
0000
0001
0000
,
0100
0000
0001
0000
,
0010
0000
0001
0000
,
0100
0000
0010
0000
,
1000
0000
0001
0000
,
0010
0000
1000
0000
,
0100
0000
0010
0000
,
1000
0000
0100
0000
,
0001
0000
0010
0000
,
0100
0000
0001
0000
,
0010
0000
0100
0000
,
1000
0000
0100
0000
,
0010
0000
0010
0000
,
0001
0000
0010
0000
,
0100
0000
0001
0000
,
0010
0000
0010
0000
,
0100
0000
0010
0000
,
0001
0000
0100
0000
,
0001
0000
0010
0000
,
0001
0000
0100
0000
,
0010
0000
1000
0000
,
0001
0000
0010
0000
,
1000
0000
0100
0000
,
0010
0000
1000
0000
,
0100
0000
0010
0000
,
0000
0000
1000
0000
,
0000
0000
0100
0000
,
0000
0000
0001
0000
,
0000
0000
0010
0000
,
0000
0000
1000
0000
,
0000
0000
0100
0000
,
0000
0000
0001
0000
,
0000
0000
0010
0000
,
0000
0000
0001
0000
,
0000
0000
0100
0000
,
0000
0000
1000
0000
,
0000
0000
0010
0000
,
0000
0000
0001
0000
,
0000
0000
0100
0000
,
0000
0000
0001
0000
,
0000
0000
1000
0000
,
0000
0000
0100
0000
,
0000
0000
0001
0000
,
0000
0000
0010
0000
,
0000
0000
1000
0000
,
0000
0000
0100
0000
,
0000
0000
0001
0000
,
0000
0000
0010
0000
,
0000
0000
0001
0000
,
0000
0000
0100
0000
,
0000
0000
1000
0000
,
0000
0000
0010
0000
,
0000
0000
0001
0000
,
0000
0000
0100
0000
,
0000
0000
0100
0000
,
0000
0000
2002
0000
,
0000
3003
2000
0000
,
0000
3000
0020
0000
,
0000
0030
2000
0000
,
0000
3000
0002
0000
,
0000
0003
2000
0000
,
0000
3000
0020
0000
,
0000
0030
2000
0000
,
0000
3000
0002
0000
,
0000
0003
1000
0000
,
0010
0000
0001
0000
,
0100
0000
1000
0000
,
0010
0000
0001
0000
,
0100
0000
1000
0000
,
0010
0000
0001
0000
,
0100
0000
2000
0000
,
0002
0000
3003
0000
2002
3003
0100
0000
,
0000
0001
0000
0010
,
0000
0100
0000
1000
,
0000
0100
0000
0010
,
0000
0010
0000
0001
,
0000
0010
0000
0100
,
0000
0001
0000
0010
,
0000
0010
0000
0100
,
0000
0010
0000
0001
,
0000
0100
0000
0001
,
0000
0010
0000
0001
,
0000
0100
0000
0010
,
0000
1000
0000
0001
,
0000
0010
0000
1000
,
0000
0100
0000
0010
,
0000
1000
0000
0100
,
0000
0001
0000
0010
,
0000
0100
0000
0001
,
0000
0010
0000
0100
,
0000
1000
0000
0100
,
0000
0010
0000
0010
,
0000
0001
0000
0010
,
0000
0100
0000
0001
,
0000
0010
0000
0010
,
0000
0100
0000
0010
,
0000
0001
0000
0100
,
0000
0001
0000
0010
,
0000
0001
0000
0100
,
0000
0010
0000
1000
,
0000
0001
0000
0010
,
0000
0000
1000
0000
0000
0000
2002
3003
,
0100
0000
0001
0000
,
0010
0000
0100
0000
,
1000
0000
0100
0000
,
0010
0000
0010
0000
,
0001
0000
0010
0000
,
0100
0000
0001
0000
,
0010
0000
0010
0000
,
0100
0000
0010
0000
,
0001
0000
0100
0000
,
0001
0000
0010
0000
,
0001
0000
0100
0000
,
0010
0000
1000
0000
,
0001
0000
0010
0000
,
1000
0000
0100
0000
,
0010
0000
1000
0000
,
0100
0000
0001
0000
,
0010
0000
0100
0000
,
0001
0000
0010
0000
,
0100
0000
1000
0000
,
0100
0000
0010
0000
,
0010
0000
0001
0000
,
0010
0000
0100
0000
,
0001
0000
0010
0000
,
0010
0000
0100
0000
,
0010
0000
0001
0000
,
0100
0000
0001
0000
,
0010
0000
0001
0000
,
0100
0000
0010
0000
,
1000
0000
0001
0000
,
0010
0000
1000
0000
,
0100
0000
0010
0000
,
1000
0000
0100
0000
,
0010
0000
0000
0000
,
1000
0000
0000
0000
,
0100
0000
0000
0000
,
0001
0000
0000
0000
,
0010
0000
0000
0000
,
1000
0000
0000
0000
,
0100
0000
0000
0000
,
0001
0000
0000
0000
,
0010
0000
0000
0000
,
0001
0000
0000
0000
,
0100
0000
0000
0000
,
1000
0000
0000
0000
,
0010
0000
0000
0000
,
0001
0000
0000
0000
,
0100
0000
0000
0000
,
0001
0000
0000
0000
,
1000
0000
0000
0000
,
0100
0000
0000
0000
,
0001
0000
0000
0000
,
0010
0000
0000
0000
,
1000
0000
0000
0000
,
0100
0000
0000
0000
,
0001
0000
0000
0000
,
0010
0000
0000
0000
,
0001
0000
0000
0000
,
0100
0000
0000
0000
,
1000
0000
0000
0000
,
0010
0000
0000
0000
,
0001
0000
0000
0000
,
0100
0000
0000
0000
,
0100
0000
0000
0000
,
2002
0000
0000
3003
,
2000
0000
0000
3000
,
0020
0000
0000
0030
,
2000
0000
0000
3000
,
0002
0000
0000
0003
,
2000
0000
0000
3000
,
0020
0000
0000
0030
,
2000
0000
0000
3000
,
0002
0000
0000
0003
,
1000
0000
0010
0000
,
0001
0000
0100
0000
,
1000
0000
0010
0000
,
0001
0000
0100
0000
,
1000
0000
0010
0000
,
0001
0000
0100
0000
,
2000
0000
0002
3003
,
2002
3003
0100
0000
0000
0000
0001
0000
,
0000
0010
0000
0100
,
0000
1000
0000
0100
,
0000
0010
0000
0010
,
0000
0001
0000
0010
,
0000
0100
0000
0001
,
0000
0010
0000
0010
,
0000
0100
0000
0010
,
0000
0001
0000
0100
,
0000
0001
0000
0010
,
0000
0001
0000
0100
,
0000
0010
0000
1000
,
0000
0001
0000
0010
,
0000
1000
0000
0100
,
0000
0010
0000
1000
,
0000
0100
0000
0001
,
0000
0010
0000
0100
,
0000
0001
0000
0010
,
0000
0100
0000
1000
,
0000
0100
0000
0010
,
0000
0010
0000
0001
,
0000
0010
0000
0100
,
0000
0001
0000
0010
,
0000
0010
0000
0100
,
0000
0010
0000
0001
,
0000
0100
0000
0001
,
0000
0010
0000
0001
,
0000
0100
0000
0010
,
0000
1000
0000
0001
,
0000
0010
0000
1000
,
0000
0000
2002
3003
0100
0000
0000
0000
,
0001
0000
0010
0000
,
0100
0000
1000
0000
,
0100
0000
0010
0000
,
0010
0000
0001
0000
,
0010
0000
0100
0000
,
0001
0000
0010
0000
,
0010
0000
0100
0000
,
0010
0000
0001
0000
,
0100
0000
0001
0000
,
0010
0000
0001
0000
,
0100
0000
0010
0000
,
1000
0000
0001
0000
,
0010
0000
1000
0000
,
0100
0000
0010
0000
,
1000
0000
0100
0000
,
0001
0000
0010
0000
,
0100
0000
0001
0000
,
0010
0000
0100
0000
,
1000
0000
0100
0000
,
0010
0000
0010
0000
,
0001
0000
0010
0000
,
0100
0000
0001
0000
,
0010
0000
0010
0000
,
0100
0000
0010
0000
,
0001
0000
0100
0000
,
0001
0000
0010
0000
,
0001
0000
0100
0000
,
0010
0000
1000
0000
,
0001
0000
0010
0000
,
1000
0000
0100
0000
,
0010
0000
1000
0000
,
0100
0000
0010
0000
,
0000
0000
1000
0000
,
0000
0000
0100
0000
,
0000
0000
0001
0000
,
0000
0000
0010
0000
,
0000
0000
1000
0000
,
0000
0000
0100
0000
,
0000
0000
0001
0000
,
0000
0000
0010
0000
,
0000
0000
0001
0000
,
0000
0000
0100
0000
,
0000
0000
1000
0000
,
0000
0000
0010
0000
,
0000
0000
0001
0000
,
0000
0000
0100
0000
,
0000
0000
0001
0000
,
0000
0000
1000
0000
,
0000
0000
0100
0000
,
0000
0000
0001
0000
,
0000
0000
0010
0000
,
0000
0000
1000
0000
,
0000
0000
0100
0000
,
0000
0000
0001
0000
,
0000
0000
0010
0000
,
0000
0000
0001
0000
,
0000
0000
0100
0000
,
0000
0000
1000
0000
,
0000
0000
0010
0000
,
0000
0000
0001
0000
,
0000
0000
0100
0000
,
0000
0000
0100
0000
,
0000
0000
2002
0000
,
0000
3003
2000
0000
,
0000
3000
0020
0000
,
0000
0030
2000
0000
,
0000
3000
0002
0000
,
0000
0003
2000
0000
,
0000
3000
0020
0000
,
0000
0030
2000
0000
,
0000
3000
0002
0000
,
0000
0003
1000
0000
,
0010
0000
0001
0000
,
0100
0000
1000
0000
,
0010
0000
0001
0000
,
0100
0000
1000
0000
,
0010
0000
0001
0000
,
0100
0000
2000
0000
,
0002
0000
3003
0000
2002
3003
0100
0000
,
0000
0001
0000
0010
,
0000
0100
0000
1000
,
0000
0100
0000
0010
,
0000
0010
0000
0001
,
0000
0010
0000
0100
,
0000
0001
0000
0010
,
0000
0010
0000
0100
,
0000
0010
0000
0001
,
0000
0100
0000
0001
,
0000
0010
0000
0001
,
0000
0100
0000
0010
,
0000
1000
0000
0001
,
0000
0010
0000
1000
,
0000
0100
0000
0010
,
0000
1000
0000
0100
,
0000
0001
0000
0010
,
0000
0100
0000
0001
,
0000
0010
0000
0100
,
0000
1000
0000
0100
,
0000
0010
0000
0010
,
0000
0001
0000
0010
,
0000
0100
0000
0001
,
0000
0010
0000
0010
,
0000
0100
0000
0010
,
0000
0001
0000
0100
,
0000
0001
0000
0010
,
0000
0001
0000
0100
,
0000
0010
0000
1000
,
0000
0001
0000
0010
,
0000
0000
1000
0000
0000
0000
2002
3003
,
0100
0000
0001
0000
,
0010
0000
0100
0000
,
1000
0000
0100
0000
,
0010
0000
0010
0000
,
0001
0000
0010
0000
,
0100
0000
0001
0000
,
0010
0000
0010
0000
,
0100
0000
0010
0000
,
0001
0000
0100
0000
,
0001
0000
0010
0000
,
0001
0000
0100
0000
,
0010
0000
1000
0000
,
0001
0000
0010
0000
,
1000
0000
0100
0000
,
0010
0000
1000
0000
,
0100
0000
0001
0000
,
0010
0000
0100
0000
,
0001
0000
0010
0000
,
0100
0000
1000
0000
,
0100
0000
0010
0000
,
0010
0000
0001
0000
,
0010
0000
0100
0000
,
0001
0000
0010
0000
,
0010
0000
0100
0000
,
0010
0000
0001
0000
,
0100
0000
0001
0000
,
0010
0000
0001
0000
,
0100
0000
0010
0000
,
1000
0000
0001
0000
,
0010
0000
1000
0000
,
0100
0000
0010
0000
,
1000
0000
0100
0000
,
0010
0000
0010
0000
,
0010
0100
0010
0000
,
0001
0000
0001
0000
,
0001
1000
0001
0000
,
0100
0000
0100
0000
,
0100
0010
0100
0000
,
1000
0000
1000
0000
,
1000
0001
1000
0000
,
0100
0000
0001
0000
,
1000
0000
0100
0000
,
0010
0000
1000
0000
,
0001
0000
0100
0000
,
0010
0000
0100
0000
,
0001
0000
0010
0000
,
0001
0000
0100
0000
,
1000
0000
0001
0000
,
0010
0000
0010
0000
,
0010
0100
0010
0000
,
0001
0000
0001
0000
,
0001
1000
0001
0000
,
0100
0000
0100
0000
,
0100
0010
0100
0000
,
1000
0000
1000
0000
,
1000
0001
1000
0000
,
0100
0000
0001
0000
,
1000
0000
0100
0000
,
0010
0000
1000
0000
,
0001
0000
0100
0000
,
0010
0000
0100
0000
,
0001
0000
0010
0000
,
0001
0000
0100
0000
,
1000
0000
0001
0000
,
0010
0000
0000
0000
,
1000
0000
0000
0000
,
0100
0000
0000
0000
,
0001
0000
0000
0000
,
0010
0000
0000
0000
,
1000
0000
0000
0000
,
0100
0000
0000
0000
,
0001
0000
0000
0000
,
0010
0000
0000
0000
,
0001
0000
0000
0000
,
0100
0000
0000
0000
,
1000
0000
0000
0000
,
0010
0000
0000
0000
,
0001
0000
0000
0000
,
0100
0000
0000
0000
,
1000
0000
0000
0000
,
0200
0000
0000
0300
,
2000
0000
0000
3000
,
0200
0000
0000
0300
,
0002
0000
0000
0003
,
0200
0000
0000
0300
,
2000
0000
0000
3000
,
0200
0000
0000
0300
,
0002
0000
0000
0003
,
2000
0000
0000
3000
,
0002
0000
0000
0003
,
2000
0000
0000
3000
,
0002
0000
0000
0003
,
0020
0000
0000
0030
,
0002
0000
0000
0003
,
0200
0000
0000
0300
,
0020
0000
0000
0030
,
2002
0000
0000
0000
,
0000
0000
0000
0000
,
0000
0000
0000
0000
,
0000
0000
0000
3003
;

//--------------- dance-single - Tundrus ----------------
#NOTES:
     dance-single:
     Tundrus:
     Easy:
     20:
     0,0,0,0,0:
0000
0000
0000
0000
,
0000
0000
0000
0000
,
0000
0000
0000
0000
,
0000
0000
0000
0000
,
0000
0000
0000
0000
,
0000
0000
0000
0000
,
0000
0000
0000
0000
,
0000
0000
0000
0000
,
0000
0100
0001
0100
,
0000
0100
0010
0100
,
0000
0010
1000
0010
,
0000
0100
1000
0100
,
0000
0010
0100
0010
,
0000
1000
0100
1000
,
0000
0001
1000
0001
,
0000
0100
0001
0100
,
0000
1000
0000
0100
,
0000
1000
0100
1000
,
0000
0001
0000
0100
,
0000
0001
0100
0001
,
0000
0010
0000
0100
,
0000
0010
0100
0010
,
0000
1000
0000
0001
,
0000
1000
0001
1000
,
0000
1000
0000
0100
,
0000
1000
0100
1000
,
0000
0001
0000
0100
,
0000
0001
0100
0001
,
0000
0010
0000
0100
,
0000
0010
0100
0010
,
0000
1000
0000
0001
,
0000
1000
0001
1000
,
0000
0001
1000
0001
,
0000
0001
0100
0001
,
0000
0001
0010
0001
,
0000
0001
1000
0001
,
0000
1000
0001
1000
,
0000
1000
0100
1000
,
0000
1000
0010
1000
,
0000
1000
0001
1000
,
0000
0100
0001
0100
,
0000
0100
0010
0100
,
0000
0010
1000
0010
,
0000
0100
1000
0100
,
0000
0010
0100
0010
,
0000
1000
0100
1000
,
0000
0001
1000
0001
,
0000
0100
0001
0100
,
0000
1000
0000
0100
,
0000
1000
0100
1000
,
0000
0001
0000
0100
,
0000
0001
0100
0001
,
0000
0010
0000
0100
,
0000
0010
0100
0010
,
0000
1000
0000
0001
,
0000
1000
0001
1000
,
0000
1000
0000
0010
,
0000
0001
0000
0010
,
0000
1000
0000
0010
,
0000
0001
0000
0010
,
0000
0100
0001
0100
,
0000
1000
0100
1000
,
0000
0010
0001
0010
,
0000
1000
0010
1000
,
0000
0220
0000
0000
,
0000
0000
0000
0000
,
0330
0000
0002
0000
0000
2000
0000
0000
,
0000
0000
3003
0010
,
0010
0000
1000
0000
0010
0000
0000
0100
,
0001
0000
0010
0000
0100
0000
0000
1000
,
0001
0000
1000
0000
0000
0001
0000
0000
,
1000
0000
0000
0001
0000
0000
0110
0000
,
1001
0000
0001
0000
,
0100
1000
0010
0000
,
1000
0001
0010
0000
,
0100
1000
0100
0000
,
0001
0000
0100
0000
,
0010
0100
0001
0000
,
0100
0010
0100
0000
,
0010
1000
0100
0000
,
0001
0000
0010
0000
,
0001
0010
0100
0000
,
0001
1000
0010
0000
,
0100
0010
1000
0000
,
0001
0000
0100
0000
,
1000
0001
0010
0000
,
0100
0001
1000
0000
,
0010
1000
0001
0000
,
1000
0000
0001
0000
,
0100
1000
0010
0000
,
1000
0001
0010
0000
,
0100
1000
0100
0000
,
0001
0000
0100
0000
,
0010
0100
0001
0000
,
0100
0010
0100
0000
,
0010
1000
0100
0000
,
0001
0000
0010
0000
,
0001
0010
0100
0000
,
0001
1000
0010
0000
,
0100
0010
1000
0000
,
0001
0000
0100
0000
,
1000
0001
0010
0000
,
0100
0001
1000
0000
,
0010
1000
0001
0000
,
0100
0000
0000
0000
0100
0000
0000
0000
0100
0000
0000
0000
,
0001
0000
0000
0000
0001
0000
0000
0000
0001
0000
0000
0000
,
0010
0000
0000
0000
0010
0000
0000
0000
0010
0000
0000
0000
,
1000
0000
0000
0000
1000
0000
0000
0000
1000
0000
0000
0000
,
0100
0000
0000
0000
0100
0000
0000
0000
0100
0000
0000
0000
,
0001
0000
0000
0000
0001
0000
0000
0000
0001
0000
0000
0000
,
0010
0000
0000
0000
0010
0000
0000
0000
0010
0000
0000
0000
,
1000
0000
0000
0000
1000
0000
0000
0000
1000
0000
0000
0000
,
0100
0000
0000
0000
0100
0000
0000
0000
0100
0000
0000
0000
,
1000
0000
0000
0000
1000
0000
0000
0000
1000
0000
0000
0000
,
0010
0000
0000
0000
0010
0000
0000
0000
0010
0000
0000
0000
,
0001
0000
0000
0000
0001
0000
0000
0000
0001
0000
0000
0000
,
0100
0000
0000
0000
0100
0000
0000
0000
0100
0000
0000
0000
,
1000
0000
0000
0000
1000
0000
0000
0000
1000
0000
0000
0000
,
0010
0000
0000
0000
0010
0000
0000
0000
0010
0000
0000
0000
,
0001
0000
0000
0000
0001
0000
0000
0000
0001
0000
0000
0000
,
0100
0000
0000
0000
0100
0000
0000
0000
0100
0000
0000
0000
,
0001
0000
0000
0000
0001
0000
0000
0000
0001
0000
0000
0000
,
0010
0000
0000
0000
0010
0000
0000
0000
0010
0000
0000
0000
,
1000
0000
0000
0000
1000
0000
0000
0000
1000
0000
0000
0000
,
0100
0000
0000
0000
0100
0000
0000
0000
0100
0000
0000
0000
,
0001
0000
0000
0000
0001
0000
0000
0000
0001
0000
0000
0000
,
0010
0000
0000
0000
0010
0000
0000
0000
0010
0000
0000
0000
,
1000
0000
0000
0000
1000
0000
0000
0000
1000
0000
0000
0000
,
0100
0000
0000
0000
0100
0000
0000
0000
0100
0000
0000
0000
,
1000
0000
0000
0000
1000
0000
0000
0000
1000
0000
0000
0000
,
0010
0000
0000
0000
0010
0000
0000
0000
0010
0000
0000
0000
,
0001
0000
0000
0000
0001
0000
0000
0000
0001
0000
0000
0000
,
0100
0000
0000
0000
0100
0000
0000
0000
0100
0000
0000
0000
,
1000
0000
0000
0000
1000
0000
0000
0000
1000
0000
0000
0000
,
0010
0000
0000
0000
0010
0000
0000
0000
0010
0000
0000
0000
,
2002
0000
0000
3003
,
0002
1000
0000
1000
,
0203
0010
0000
0010
,
0302
0010
0000
0010
,
2003
0000
0000
0000
0000
0000
0000
0000
0000
0000
0000
0000
0000
0000
0000
0000
0000
0000
0000
0000
0000
0000
0000
0000
0000
0000
0000
0000
0000
0000
0000
0000
0000
0000
0000
0000
0000
0000
0000
0000
0000
0000
0000
0000
0000
0000
0000
0000
0100
0000
0000
0000
0000
0000
0000
0000
0000
0000
0000
0000
0000
0000
0000
0000
0000
0000
0000
0000
0000
0000
0000
0000
0000
0000
0000
0000
0000
0000
0000
0000
0000
0000
0000
0000
0000
0000
0000
0000
0000
0000
0000
0000
0000
0000
0000
0000
0000
0000
0000
0000
0000
0000
0000
0000
0000
0000
0000
0000
0000
0000
0000
0000
0000
0000
0000
0000
0000
0000
0000
0000
0000
0000
0000
0000
0000
0000
0000
0000
0000
0000
0000
0000
0000
0000
0000
0000
0000
0000
0000
0000
0000
0000
0000
0000
0100
0000
0000
0000
0000
0000
0000
0000
0000
0000
0000
0000
0000
0000
0000
0000
0000
0000
0000
0000
0000
0000
0000
0000
0000
0000
0000
0000
0000
0000
0000
0000
0000
0000
0000
0000
0000
0000
0000
0000
0000
0000
0000
0000
0000
0000
0000
3000
,
0002
1000
0000
1000
,
0203
0010
0000
0010
,
0302
0010
0000
0010
,
2003
0000
0000
0000
0000
0000
0000
0000
0000
0000
0000
0000
0000
0000
0000
0000
0000
0000
0000
0000
0000
0000
0000
0000
0000
0000
0000
0000
0000
0000
0000
0000
0000
0000
0000
0000
0000
0000
0000
0000
0000
0000
0000
0000
0000
0000
0000
0000
0100
0000
0000
0000
0000
0000
0000
0000
0000
0000
0000
0000
0000
0000
0000
0000
0000
0000
0000
0000
0000
0000
0000
0000
0000
0000
0000
0000
0000
0000
0000
0000
0000
0000
0000
0000
0000
0000
0000
0000
0000
0000
0000
0000
0000
0000
0000
0000
0000
0000
0000
0000
0000
0000
0000
0000
0000
0000
0000
0000
0000
0000
0000
0000
0000
0000
0000
0000
0000
0000
0000
0000
0000
0000
0000
0000
0000
0000
0000
0000
0000
0000
0000
0000
0000
0000
0000
0000
0000
0000
0000
0000
0000
0000
0000
0000
0100
0000
0000
0000
0000
0000
0000
0000
0000
0000
0000
0000
0000
0000
0000
0000
0000
0000
0000
0000
0000
0000
0000
0000
0000
0000
0000
0000
0000
0000
0000
0000
0000
0000
0000
0000
0000
0000
0000
0000
0000
0000
0000
0000
0000
0000
0000
3000
,
0001
0001
0100
0100
,
1000
1000
0010
0010
,
0001
0001
0100
0100
,
1000
1000
0010
0010
,
0001
0001
0100
0100
,
1000
1000
0010
0010
,
0002
0000
2000
3003
,
2002
3003
0010
0000
0000
0000
1000
0000
,
0000
0100
0001
0010
,
0000
0001
1000
0010
,
0000
0100
0001
0100
,
0000
1000
0000
0100
,
0000
0010
0100
1000
,
0000
0100
0010
0100
,
0000
0010
0001
0100
,
0000
1000
0000
0010
,
0000
1000
0010
0100
,
0000
1000
0001
0010
,
0000
0100
0010
0001
,
0000
1000
0000
0100
,
0000
0001
1000
0010
,
0000
0100
1000
0001
,
0000
0010
0001
1000
,
0000
0010
0000
1000
,
0000
0100
0001
0010
,
0000
0001
1000
0010
,
0000
0100
0001
0100
,
0000
1000
0000
0100
,
0000
0010
0100
1000
,
0000
0100
0010
0100
,
0000
0010
0001
0100
,
0000
1000
0000
0010
,
0000
1000
0010
0100
,
0000
1000
0001
0010
,
0000
0100
0010
0001
,
0000
1000
0000
0100
,
0000
0001
1000
0010
,
0000
0000
2002
3003
0010
0000
0000
0000
,
1000
0000
0100
0001
,
0010
0000
0001
1000
,
0010
0000
0100
0001
,
0100
0000
1000
0000
,
0100
0000
0010
0100
,
1000
0000
0100
0010
,
0100
0000
0010
0001
,
0100
0000
1000
0000
,
0010
0000
1000
0010
,
0100
0000
1000
0001
,
0010
0000
0100
0010
,
0001
0000
1000
0000
,
0100
0000
0001
1000
,
0010
0000
0100
1000
,
0001
0000
0010
0001
,
1000
0000
0010
0000
,
1000
0000
0100
0001
,
0010
0000
0001
1000
,
0010
0000
0100
0001
,
0100
0000
1000
0000
,
0100
0000
0010
0100
,
1000
0000
0100
0010
,
0100
0000
0010
0001
,
0100
0000
1000
0000
,
0010
0000
1000
0010
,
0100
0000
1000
0001
,
0010
0000
0100
0010
,
0001
0000
1000
0000
,
0100
0000
0001
1000
,
0010
0000
0100
1000
,
0001
0000
0010
0001
,
1000
0000
0000
0000
0000
0000
0100
0000
0000
0000
0100
0000
,
0000
0000
0100
0000
0000
0000
0001
0000
0000
0000
0001
0000
,
0000
0000
0001
0000
0000
0000
0010
0000
0000
0000
0010
0000
,
0000
0000
0010
0000
0000
0000
1000
0000
0000
0000
1000
0000
,
0000
0000
1000
0000
0000
0000
0100
0000
0000
0000
0100
0000
,
0000
0000
0100
0000
0000
0000
0001
0000
0000
0000
0001
0000
,
0000
0000
0001
0000
0000
0000
0010
0000
0000
0000
0010
0000
,
0000
0000
0010
0000
0000
0000
1000
0000
0000
0000
1000
0000
,
0000
0000
1000
0000
0000
0000
0100
0000
0000
0000
0100
0000
,
0000
0000
0100
0000
0000
0000
1000
0000
0000
0000
1000
0000
,
0000
0000
1000
0000
0000
0000
0010
0000
0000
0000
0010
0000
,
0000
0000
0010
0000
0000
0000
0001
0000
0000
0000
0001
0000
,
0000
0000
0001
0000
0000
0000
0100
0000
0000
0000
0100
0000
,
0000
0000
0100
0000
0000
0000
1000
0000
0000
0000
1000
0000
,
0000
0000
1000
0000
0000
0000
0010
0000
0000
0000
0010
0000
,
0000
0000
0010
0000
0000
0000
0001
0000
0000
0000
0001
0000
,
0000
0000
0001
0000
0000
0000
0100
0000
0000
0000
0100
0000
,
0000
0000
0100
0000
0000
0000
0001
0000
0000
0000
0001
0000
,
0000
0000
0001
0000
0000
0000
0010
0000
0000
0000
0010
0000
,
0000
0000
0010
0000
0000
0000
1000
0000
0000
0000
1000
0000
,
0000
0000
1000
0000
0000
0000
0100
0000
0000
0000
0100
0000
,
0000
0000
0100
0000
0000
0000
0001
0000
0000
0000
0001
0000
,
0000
0000
0001
0000
0000
0000
0010
0000
0000
0000
0010
0000
,
0000
0000
0010
0000
0000
0000
1000
0000
0000
0000
1000
0000
,
0000
0000
1000
0000
0000
0000
0100
0000
0000
0000
0100
0000
,
0000
0000
0100
0000
0000
0000
1000
0000
0000
0000
1000
0000
,
0000
0000
1000
0000
0000
0000
0010
0000
0000
0000
0010
0000
,
0000
0000
0010
0000
0000
0000
0001
0000
0000
0000
0001
0000
,
0000
0000
0001
0000
0000
0000
0100
0000
0000
0000
0100
0000
,
0000
0000
0100
0000
0000
0000
1000
0000
0000
0000
1000
0000
,
0000
0000
1000
0000
0000
0000
0010
0000
0000
0000
0010
0000
,
0000
0000
0010
0000
0000
0000
2002
0000
0000
0000
0000
0000
,
0000
3003
0002
1000
,
0000
1000
0203
0010
,
0000
0010
0302
0010
,
0000
0010
2003
0100
,
0000
0000
0000
0000
0000
0000
0000
0000
0000
0000
0000
0000
0000
0000
0000
0000
0000
0000
0000
0000
0000
0000
0000
0000
0000
0000
0000
0000
0000
0000
0000
0000
0000
0000
0000
0000
0000
0000
0000
0000
0000
0000
0000
0000
0000
0000
0000
0000
0100
0000
0000
0000
0000
0000
0000
0000
0000
0000
0000
0000
0000
0000
0000
0000
0000
0000
0000
0000
0000
0000
0000
0000
0000
0000
0000
0000
0000
0000
0000
0000
0000
0000
0000
0000
0000
0000
0000
0000
0000
0000
0000
0000
0000
0000
0000
3000
0002
0000
0000
0000
0000
0000
0000
0000
0000
0000
0000
0000
0000
0000
0000
0000
0000
0000
0000
0000
0000
0000
0000
0000
0000
0000
0000
0000
0000
0000
0000
0000
0000
0000
0000
0000
0000
0000
0000
0000
0000
0000
0000
0000
0000
0000
0000
0000
1000
0000
0000
0000
0000
0000
0000
0000
0000
0000
0000
0000
0000
0000
0000
0000
0000
0000
0000
0000
0000
0000
0000
0000
0000
0000
0000
0000
0000
0000
0000
0000
0000
0000
0000
0000
0000
0000
0000
0000
0000
0000
0000
0000
0000
0000
0000
0000
,
0000
1000
0203
0010
,
0000
0010
0302
0010
,
0000
0010
2003
0100
,
0000
0000
0000
0000
0000
0000
0000
0000
0000
0000
0000
0000
0000
0000
0000
0000
0000
0000
0000
0000
0000
0000
0000
0000
0000
0000
0000
0000
0000
0000
0000
0000
0000
0000
0000
0000
0000
0000
0000
0000
0000
0000
0000
0000
0000
0000
0000
0000
0100
0000
0000
0000
0000
0000
0000
0000
0000
0000
0000
0000
0000
0000
0000
0000
0000
0000
0000
0000
0000
0000
0000
0000
0000
0000
0000
0000
0000
0000
0000
0000
0000
0000
0000
0000
0000
0000
0000
0000
0000
0000
0000
0000
0000
0000
0000
3000
0001
0000
0000
0000
0000
0000
0000
0000
0000
0000
0000
0000
0000
0000
0000
0000
0000
0000
0000
0000
0000
0000
0000
0000
0000
0000
0000
0000
0000
0000
0000
0000
0000
0000
0000
0000
0000
0000
0000
0000
0000
0000
0000
0000
0000
0000
0000
0000
0001
0000
0000
0000
0000
0000
0000
0000
0000
0000
0000
0000
0000
0000
0000
0000
0000
0000
0000
0000
0000
0000
0000
0000
0000
0000
0000
0000
0000
0000
0000
0000
0000
0000
0000
0000
0000
0000
0000
0000
0000
0000
0000
0000
0000
0000
0000
0000
,
0100
0100
1000
1000
,
0010
0010
0001
0001
,
0100
0100
1000
1000
,
0010
0010
0001
0001
,
0100
0100
1000
1000
,
0010
0010
0002
0000
,
2000
0000
3003
0000
2002
3003
0010
0000
,
0000
1000
0000
0100
,
0001
0010
0000
0001
,
1000
0010
0000
0100
,
0001
0100
0000
1000
,
0000
0100
0000
0010
,
0100
1000
0000
0100
,
0010
0100
0000
0010
,
0001
0100
0000
1000
,
0000
0010
0000
1000
,
0010
0100
0000
1000
,
0001
0010
0000
0100
,
0010
0001
0000
1000
,
0000
0100
0000
0001
,
1000
0010
0000
0100
,
1000
0001
0000
0010
,
0001
1000
0000
0010
,
0000
1000
0000
0100
,
0001
0010
0000
0001
,
1000
0010
0000
0100
,
0001
0100
0000
1000
,
0000
0100
0000
0010
,
0100
1000
0000
0100
,
0010
0100
0000
0010
,
0001
0100
0000
1000
,
0000
0010
0000
1000
,
0010
0100
0000
1000
,
0001
0010
0000
0100
,
0010
0001
0000
1000
,
0000
0100
0000
0001
,
1000
0000
0010
0000
0000
0000
2002
3003
,
0010
0000
1000
0000
,
0100
0001
0010
0000
,
0001
1000
0010
0000
,
0100
0001
0100
0000
,
1000
0000
0100
0000
,
0010
0100
1000
0000
,
0100
0010
0100
0000
,
0010
0001
0100
0000
,
1000
0000
0010
0000
,
1000
0010
0100
0000
,
1000
0001
0010
0000
,
0100
0010
0001
0000
,
1000
0000
0100
0000
,
0001
1000
0010
0000
,
0100
1000
0001
0000
,
0010
0001
1000
0000
,
0010
0000
1000
0000
,
0100
0001
0010
0000
,
0001
1000
0010
0000
,
0100
0001
0100
0000
,
1000
0000
0100
0000
,
0010
0100
1000
0000
,
0100
0010
0100
0000
,
0010
0001
0100
0000
,
1000
0000
0010
0000
,
1000
0010
0100
0000
,
1000
0001
0010
0000
,
0100
0010
0001
0000
,
1000
0000
0100
0000
,
0001
1000
0010
0000
,
0100
1000
0001
0000
,
0010
0001
1000
0000
,
0100
0000
0000
0000
0100
0000
0000
0000
0100
0000
0000
0000
,
0001
0000
0000
0000
0001
0000
0000
0000
0001
0000
0000
0000
,
0010
0000
0000
0000
0010
0000
0000
0000
0010
0000
0000
0000
,
1000
0000
0000
0000
1000
0000
0000
0000
1000
0000
0000
0000
,
0100
0000
0000
0000
0100
0000
0000
0000
0100
0000
0000
0000
,
0001
0000
0000
0000
0001
0000
0000
0000
0001
0000
0000
0000
,
0010
0000
0000
0000
0010
0000
0000
0000
0010
0000
0000
0000
,
1000
0000
0000
0000
1000
0000
0000
0000
1000
0000
0000
0000
,
0100
0000
0000
0000
0100
0000
0000
0000
0100
0000
0000
0000
,
1000
0000
0000
0000
1000
0000
0000
0000
1000
0000
0000
0000
,
0010
0000
0000
0000
0010
0000
0000
0000
0010
0000
0000
0000
,
0001
0000
0000
0000
0001
0000
0000
0000
0001
0000
0000
0000
,
0100
0000
0000
0000
0100
0000
0000
0000
0100
0000
0000
0000
,
1000
0000
0000
0000
1000
0000
0000
0000
1000
0000
0000
0000
,
0010
0000
0000
0000
0010
0000
0000
0000
0010
0000
0000
0000
,
0001
0000
0000
0000
0001
0000
0000
0000
0001
0000
0000
0000
,
0100
0000
0000
0000
0100
0000
0000
0000
0100
0000
0000
0000
,
0001
0000
0000
0000
0001
0000
0000
0000
0001
0000
0000
0000
,
0010
0000
0000
0000
0010
0000
0000
0000
0010
0000
0000
0000
,
1000
0000
0000
0000
1000
0000
0000
0000
1000
0000
0000
0000
,
0100
0000
0000
0000
0100
0000
0000
0000
0100
0000
0000
0000
,
0001
0000
0000
0000
0001
0000
0000
0000
0001
0000
0000
0000
,
0010
0000
0000
0000
0010
0000
0000
0000
0010
0000
0000
0000
,
1000
0000
0000
0000
1000
0000
0000
0000
1000
0000
0000
0000
,
0100
0000
0000
0000
0100
0000
0000
0000
0100
0000
0000
0000
,
1000
0000
0000
0000
1000
0000
0000
0000
1000
0000
0000
0000
,
0010
0000
0000
0000
0010
0000
0000
0000
0010
0000
0000
0000
,
0001
0000
0000
0000
0001
0000
0000
0000
0001
0000
0000
0000
,
0100
0000
0000
0000
0100
0000
0000
0000
0100
0000
0000
0000
,
1000
0000
0000
0000
1000
0000
0000
0000
1000
0000
0000
0000
,
0010
0000
0000
0000
0010
0000
0000
0000
0010
0000
0000
0000
,
2002
0000
0000
3003
,
0002
1000
0000
1000
,
0203
0010
0000
0010
,
0302
0010
0000
0010
,
2003
0000
0000
0000
0000
0000
0000
0000
0000
0000
0000
0000
0000
0000
0000
0000
0000
0000
0000
0000
0000
0000
0000
0000
0000
0000
0000
0000
0000
0000
0000
0000
0000
0000
0000
0000
0000
0000
0000
0000
0000
0000
0000
0000
0000
0000
0000
0000
0100
0000
0000
0000
0000
0000
0000
0000
0000
0000
0000
0000
0000
0000
0000
0000
0000
0000
0000
0000
0000
0000
0000
0000
0000
0000
0000
0000
0000
0000
0000
0000
0000
0000
0000
0000
0000
0000
0000
0000
0000
0000
0000
0000
0000
0000
0000
0000
0000
0000
0000
0000
0000
0000
0000
0000
0000
0000
0000
0000
0000
0000
0000
0000
0000
0000
0000
0000
0000
0000
0000
0000
0000
0000
0000
0000
0000
0000
0000
0000
0000
0000
0000
0000
0000
0000
0000
0000
0000
0000
0000
0000
0000
0000
0000
0000
0100
0000
0000
0000
0000
0000
0000
0000
0000
0000
0000
0000
0000
0000
0000
0000
0000
0000
0000
0000
0000
0000
0000
0000
0000
0000
0000
0000
0000
0000
0000
0000
0000
0000
0000
0000
0000
0000
0000
0000
0000
0000
0000
0000
0000
0000
0000
3000
,
0002
1000
0000
1000
,
0203
0010
0000
0010
,
0302
0010
0000
0010
,
2003
0000
0000
0000
0000
0000
0000
0000
0000
0000
0000
0000
0000
0000
0000
0000
0000
0000
0000
0000
0000
0000
0000
0000
0000
0000
0000
0000
0000
0000
0000
0000
0000
0000
0000
0000
0000
0000
0000
0000
0000
0000
0000
0000
0000
0000
0000
0000
0100
0000
0000
0000
0000
0000
0000
0000
0000
0000
0000
0000
0000
0000
0000
0000
0000
0000
0000
0000
0000
0000
0000
0000
0000
0000
0000
0000
0000
0000
0000
0000
0000
0000
0000
0000
0000
0000
0000
0000
0000
0000
0000
0000
0000
0000
0000
0000
0000
0000
0000
0000
0000
0000
0000
0000
0000
0000
0000
0000
0000
0000
0000
0000
0000
0000
0000
0000
0000
0000
0000
0000
0000
0000
0000
0000
0000
0000
0000
0000
0000
0000
0000
0000
0000
0000
0000
0000
0000
0000
0000
0000
0000
0000
0000
0000
0100
0000
0000
0000
0000
0000
0000
0000
0000
0000
0000
0000
0000
0000
0000
0000
0000
0000
0000
0000
0000
0000
0000
0000
0000
0000
0000
0000
0000
0000
0000
0000
0000
0000
0000
0000
0000
0000
0000
0000
0000
0000
0000
0000
0000
0000
0000
3000
,
0001
0001
0100
0100
,
1000
1000
0010
0010
,
0001
0001
0100
0100
,
1000
1000
0010
0010
,
0001
0001
0100
0100
,
1000
1000
0010
0010
,
0002
0000
2000
3003
,
2002
3003
0010
0000
0000
0000
1000
0000
,
0000
0100
0001
0010
,
0000
0001
1000
0010
,
0000
0100
0001
0100
,
0000
1000
0000
0100
,
0000
0010
0100
1000
,
0000
0100
0010
0100
,
0000
0010
0001
0100
,
0000
1000
0000
0010
,
0000
1000
0010
0100
,
0000
1000
0001
0010
,
0000
0100
0010
0001
,
0000
1000
0000
0100
,
0000
0001
1000
0010
,
0000
0100
1000
0001
,
0000
0010
0001
1000
,
0000
0010
0000
1000
,
0000
0100
0001
0010
,
0000
0001
1000
0010
,
0000
0100
0001
0100
,
0000
1000
0000
0100
,
0000
0010
0100
1000
,
0000
0100
0010
0100
,
0000
0010
0001
0100
,
0000
1000
0000
0010
,
0000
1000
0010
0100
,
0000
1000
0001
0010
,
0000
0100
0010
0001
,
0000
1000
0000
0100
,
0000
0001
1000
0010
,
0000
0000
2002
3003
0010
0000
0000
0000
,
1000
0000
0100
0001
,
0010
0000
0001
1000
,
0010
0000
0100
0001
,
0100
0000
1000
0000
,
0100
0000
0010
0100
,
1000
0000
0100
0010
,
0100
0000
0010
0001
,
0100
0000
1000
0000
,
0010
0000
1000
0010
,
0100
0000
1000
0001
,
0010
0000
0100
0010
,
0001
0000
1000
0000
,
0100
0000
0001
1000
,
0010
0000
0100
1000
,
0001
0000
0010
0001
,
1000
0000
0010
0000
,
1000
0000
0100
0001
,
0010
0000
0001
1000
,
0010
0000
0100
0001
,
0100
0000
1000
0000
,
0100
0000
0010
0100
,
1000
0000
0100
0010
,
0100
0000
0010
0001
,
0100
0000
1000
0000
,
0010
0000
1000
0010
,
0100
0000
1000
0001
,
0010
0000
0100
0010
,
0001
0000
1000
0000
,
0100
0000
0001
1000
,
0010
0000
0100
1000
,
0001
0000
0010
0001
,
1000
0000
0000
0000
0000
0000
0100
0000
0000
0000
0100
0000
,
0000
0000
0100
0000
0000
0000
0001
0000
0000
0000
0001
0000
,
0000
0000
0001
0000
0000
0000
0010
0000
0000
0000
0010
0000
,
0000
0000
0010
0000
0000
0000
1000
0000
0000
0000
1000
0000
,
0000
0000
1000
0000
0000
0000
0100
0000
0000
0000
0100
0000
,
0000
0000
0100
0000
0000
0000
0001
0000
0000
0000
0001
0000
,
0000
0000
0001
0000
0000
0000
0010
0000
0000
0000
0010
0000
,
0000
0000
0010
0000
0000
0000
1000
0000
0000
0000
1000
0000
,
0000
0000
1000
0000
0000
0000
0100
0000
0000
0000
0100
0000
,
0000
0000
0100
0000
0000
0000
1000
0000
0000
0000
1000
0000
,
0000
0000
1000
0000
0000
0000
0010
0000
0000
0000
0010
0000
,
0000
0000
0010
0000
0000
0000
0001
0000
0000
0000
0001
0000
,
0000
0000
0001
0000
0000
0000
0100
0000
0000
0000
0100
0000
,
0000
0000
0100
0000
0000
0000
1000
0000
0000
0000
1000
0000
,
0000
0000
1000
0000
0000
0000
0010
0000
0000
0000
0010
0000
,
0000
0000
0010
0000
0000
0000
0001
0000
0000
0000
0001
0000
,
0000
0000
0001
0000
0000
0000
0100
0000
0000
0000
0100
0000
,
0000
0000
0100
0000
0000
0000
0001
0000
0000
0000
0001
0000
,
0000
0000
0001
0000
0000
0000
0010
0000
0000
0000
0010
0000
,
0000
0000
0010
0000
0000
0000
1000
0000
0000
0000
1000
0000
,
0000
0000
1000
0000
0000
0000
0100
0000
0000
0000
0100
0000
,
0000
0000
0100
0000
0000
0000
0001
0000
0000
0000
0001
0000
,
0000
0000
0001
0000
0000
0000
0010
0000
0000
0000
0010
0000
,
0000
0000
0010
0000
0000
0000
1000
0000
0000
0000
1000
0000
,
0000
0000
1000
0000
0000
0000
0100
0000
0000
0000
0100
0000
,
0000
0000
0100
0000
0000
0000
1000
0000
0000
0000
1000
0000
,
0000
0000
1000
0000
0000
0000
0010
0000
0000
0000
0010
0000
,
0000
0000
0010
0000
0000
0000
0001
0000
0000
0000
0001
0000
,
0000
0000
0001
0000
0000
0000
0100
0000
0000
0000
0100
0000
,
0000
0000
0100
0000
0000
0000
1000
0000
0000
0000
1000
0000
,
0000
0000
1000
0000
0000
0000
0010
0000
0000
0000
0010
0000
,
0000
0000
0010
0000
0000
0000
2002
0000
0000
0000
0000
0000
,
0000
3003
0002
1000
,
0000
1000
0203
0010
,
0000
0010
0302
0010
,
0000
0010
2003
0100
,
0000
0000
0000
0000
0000
0000
0000
0000
0000
0000
0000
0000
0000
0000
0000
0000
0000
0000
0000
0000
0000
0000
0000
0000
0000
0000
0000
0000
0000
0000
0000
0000
0000
0000
0000
0000
0000
0000
0000
0000
0000
0000
0000
0000
0000
0000
0000
0000
0100
0000
0000
0000
0000
0000
0000
0000
0000
0000
0000
0000
0000
0000
0000
0000
0000
0000
0000
0000
0000
0000
0000
0000
0000
0000
0000
0000
0000
0000
0000
0000
0000
0000
0000
0000
0000
0000
0000
0000
0000
0000
0000
0000
0000
0000
0000
3000
0002
0000
0000
0000
0000
0000
0000
0000
0000
0000
0000
0000
0000
0000
0000
0000
0000
0000
0000
0000
0000
0000
0000
0000
0000
0000
0000
0000
0000
0000
0000
0000
0000
0000
0000
0000
0000
0000
0000
0000
0000
0000
0000
0000
0000
0000
0000
0000
1000
0000
0000
0000
0000
0000
0000
0000
0000
0000
0000
0000
0000
0000
0000
0000
0000
0000
0000
0000
0000
0000
0000
0000
0000
0000
0000
0000
0000
0000
0000
0000
0000
0000
0000
0000
0000
0000
0000
0000
0000
0000
0000
0000
0000
0000
0000
0000
,
0000
1000
0203
0010
,
0000
0010
0302
0010
,
0000
0010
2003
0100
,
0000
0000
0000
0000
0000
0000
0000
0000
0000
0000
0000
0000
0000
0000
0000
0000
0000
0000
0000
0000
0000
0000
0000
0000
0000
0000
0000
0000
0000
0000
0000
0000
0000
0000
0000
0000
0000
0000
0000
0000
0000
0000
0000
0000
0000
0000
0000
0000
0100
0000
0000
0000
0000
0000
0000
0000
0000
0000
0000
0000
0000
0000
0000
0000
0000
0000
0000
0000
0000
0000
0000
0000
0000
0000
0000
0000
0000
0000
0000
0000
0000
0000
0000
0000
0000
0000
0000
0000
0000
0000
0000
0000
0000
0000
0000
3000
0001
0000
0000
0000
0000
0000
0000
0000
0000
0000
0000
0000
0000
0000
0000
0000
0000
0000
0000
0000
0000
0000
0000
0000
0000
0000
0000
0000
0000
0000
0000
0000
0000
0000
0000
0000
0000
0000
0000
0000
0000
0000
0000
0000
0000
0000
0000
0000
0001
0000
0000
0000
0000
0000
0000
0000
0000
0000
0000
0000
0000
0000
0000
0000
0000
0000
0000
0000
0000
0000
0000
0000
0000
0000
0000
0000
0000
0000
0000
0000
0000
0000
0000
0000
0000
0000
0000
0000
0000
0000
0000
0000
0000
0000
0000
0000
,
0100
0100
1000
1000
,
0010
0010
0001
0001
,
0100
0100
1000
1000
,
0010
0010
0001
0001
,
0100
0100
1000
1000
,
0010
0010
0002
0000
,
2000
0000
3003
0000
2002
3003
0010
0000
,
0000
1000
0000
0100
,
0001
0010
0000
0001
,
1000
0010
0000
0100
,
0001
0100
0000
1000
,
0000
0100
0000
0010
,
0100
1000
0000
0100
,
0010
0100
0000
0010
,
0001
0100
0000
1000
,
0000
0010
0000
1000
,
0010
0100
0000
1000
,
0001
0010
0000
0100
,
0010
0001
0000
1000
,
0000
0100
0000
0001
,
1000
0010
0000
0100
,
1000
0001
0000
0010
,
0001
1000
0000
0010
,
0000
1000
0000
0100
,
0001
0010
0000
0001
,
1000
0010
0000
0100
,
0001
0100
0000
1000
,
0000
0100
0000
0010
,
0100
1000
0000
0100
,
0010
0100
0000
0010
,
0001
0100
0000
1000
,
0000
0010
0000
1000
,
0010
0100
0000
1000
,
0001
0010
0000
0100
,
0010
0001
0000
1000
,
0000
0100
0000
0001
,
1000
0000
0010
0000
0000
0000
2002
3003
,
0010
0000
1000
0000
,
0100
0001
0010
0000
,
0001
1000
0010
0000
,
0100
0001
0100
0000
,
1000
0000
0100
0000
,
0010
0100
1000
0000
,
0100
0010
0100
0000
,
0010
0001
0100
0000
,
1000
0000
0010
0000
,
1000
0010
0100
0000
,
1000
0001
0010
0000
,
0100
0010
0001
0000
,
1000
0000
0100
0000
,
0001
1000
0010
0000
,
0100
1000
0001
0000
,
0010
0001
1000
0000
,
0010
0000
1000
0000
,
0100
0001
0010
0000
,
0001
1000
0010
0000
,
0100
0001
0100
0000
,
1000
0000
0100
0000
,
0010
0100
1000
0000
,
0100
0010
0100
0000
,
0010
0001
0100
0000
,
1000
0000
0010
0000
,
1000
0010
0100
0000
,
1000
0001
0010
0000
,
0100
0010
0001
0000
,
1000
0000
0100
0000
,
0001
1000
0010
0000
,
0100
1000
0001
0000
,
0010
0001
1000
0000
,
0100
0010
0100
0010
,
0100
0010
0100
0000
,
1000
0001
1000
0001
,
1000
0001
1000
0000
,
0010
1000
0010
1000
,
0010
1000
0010
0000
,
0100
0001
0100
0001
,
0100
0001
0100
0000
,
0010
0100
1000
0000
,
0001
0100
0010
0000
,
0010
0100
0001
0000
,
1000
0100
0010
0000
,
1000
0001
0010
0001
,
1000
0010
0100
0001
,
1000
0100
0010
0001
,
0010
0100
1000
0000
,
0100
0010
0100
0010
,
0100
0010
0100
0000
,
1000
0001
1000
0001
,
1000
0001
1000
0000
,
0010
1000
0010
1000
,
0010
1000
0010
0000
,
0100
0001
0100
0001
,
0100
0001
0100
0000
,
0010
0100
1000
0000
,
0001
0100
0010
0000
,
0010
0100
0001
0000
,
1000
0100
0010
0000
,
1000
0001
0010
0001
,
1000
0010
0100
0001
,
1000
0100
0010
0001
,
0010
0100
1000
0000
,
0100
0000
0000
0000
0100
0000
0000
0000
0100
0000
0000
0000
,
0001
0000
0000
0000
0001
0000
0000
0000
0001
0000
0000
0000
,
0010
0000
0000
0000
0010
0000
0000
0000
0010
0000
0000
0000
,
1000
0000
0000
0000
1000
0000
0000
0000
1000
0000
0000
0000
,
0100
0000
0000
0000
0100
0000
0000
0000
0100
0000
0000
0000
,
0001
0000
0000
0000
0001
0000
0000
0000
0001
0000
0000
0000
,
0010
0000
0000
0000
0010
0000
0000
0000
0010
0000
0000
0000
,
1000
0000
0000
0000
1000
0000
0000
0000
1000
0000
0000
0000
,
0100
0000
0000
0000
0100
0000
0000
0000
0100
0000
0000
0000
,
1000
0000
0000
0000
1000
0000
0000
0000
1000
0000
0000
0000
,
0010
0000
0000
0000
0010
0000
0000
0000
0010
0000
0000
0000
,
0001
0000
0000
0000
0001
0000
0000
0000
0001
0000
0000
0000
,
0100
0000
0000
0000
0100
0000
0000
0000
0100
0000
0000
0000
,
1000
0000
0000
0000
1000
0000
0000
0000
1000
0000
0000
0000
,
0010
0000
0000
0000
0010
0000
0000
0000
0010
0000
0000
0000
,
0001
0000
0000
0000
0001
0000
0000
0000
0001
0000
0000
0000
,
0100
0000
0000
0000
0100
0000
0000
0000
0100
0000
0000
0000
,
0001
0000
0000
0000
0100
0000
0000
0000
1000
0000
0000
0000
,
0100
0000
0000
0000
0100
0000
0000
0000
0100
0000
0000
0000
,
1000
0000
0000
0000
0100
0000
0000
0000
0001
0000
0000
0000
,
0100
0000
0000
0000
0100
0000
0000
0000
0100
0000
0000
0000
,
0001
0000
0000
0000
0100
0000
0000
0000
1000
0000
0000
0000
,
0100
0000
0000
0000
0100
0000
0000
0000
0100
0000
0000
0000
,
1000
0000
0000
0000
0100
0000
0000
0000
0001
0000
0000
0000
,
0001
0000
0000
0000
0100
0000
0000
0000
1000
0000
0000
0000
,
1000
0000
0000
0000
0100
0000
0000
0000
0001
0000
0000
0000
,
0001
0000
0000
0000
0010
0000
0000
0000
1000
0000
0000
0000
,
1000
0000
0000
0000
0010
0000
0000
0000
0001
0000
0000
0000
,
0100
0000
0000
0000
0100
0000
0000
0000
0100
0000
0000
0000
,
1000
0000
0000
0000
1000
0000
0000
0000
1000
0000
0000
0000
,
0010
0000
0000
0000
0010
0000
0000
0000
0010
0000
0000
0000
,
0220
0000
0000
0330
,
2002
0000
0000
0000
,
0000
0000
0000
0000
,
0000
0000
0000
0000
,
0000
0000
0000
3003
;

//--------------- dance-single - Tundrus ----------------
#NOTES:
     dance-single:
     Tundrus:
     Medium:
     28:
     0,0,0,0,0:
0000
0000
0000
0000
,
0000
0000
0000
0000
,
0000
0000
0000
0000
,
0000
0000
0000
0000
,
0000
0000
0000
0000
,
0000
0000
0000
0000
,
0000
0000
0000
0000
,
0000
0000
0000
0000
,
0000
0100
1000
0100
,
1000
0100
0010
0100
,
0010
0001
0010
0001
,
0010
0001
0100
0001
,
0100
0010
0100
0020
,
0030
0001
0100
0002
,
0003
1000
0001
2000
,
3000
0100
1000
0200
,
0300
0001
1000
0100
,
0010
0001
0010
0001
,
0000
0100
0010
0001
,
0100
0010
1000
0010
,
0000
0100
0010
0001
,
0100
0010
1000
0010
,
0000
1000
0010
1000
,
0001
0010
0001
1000
,
0000
0001
0100
0010
,
0000
1000
0100
0010
,
0000
0001
0100
0010
,
0000
1000
0100
0010
,
0000
0100
1000
0100
,
1000
0001
0100
0001
,
0100
0010
1000
0010
,
1000
0001
0010
0001
,
0000
0100
0010
0100
,
0000
0001
0100
0001
,
0000
1000
0010
1000
,
0000
0010
0001
0010
,
0002
0000
0003
1000
,
0000
0001
0100
0010
,
0000
1000
0100
0010
,
0000
0001
0010
0001
,
0010
0100
1000
0100
,
1000
0100
0010
0100
,
0010
0001
0010
0001
,
0010
0001
0100
0001
,
0100
0010
0100
0020
,
0030
0001
0100
0002
,
0003
1000
0001
2000
,
3000
0100
1000
0200
,
0300
0001
1000
0100
,
0010
0001
0010
0001
,
0000
0100
0010
0001
,
0100
0010
1000
0010
,
0000
0100
0010
0001
,
0100
0010
1000
0010
,
0000
1000
0010
1000
,
0001
0010
0001
1000
,
0000
0001
0100
0010
,
0000
1000
0100
0010
,
0000
0001
0100
0010
,
0000
1000
0100
0010
,
0000
0100
1000
0100
,
1000
0001
0100
0001
,
0100
0010
1000
0010
,
1000
0001
0010
0001
,
0000
0220
0000
0000
,
0000
0000
0000
0000
,
0330
0001
2000
0000
0000
0002
0000
0000
,
0000
0000
3003
0110
,
0110
0000
0001
0001
0010
0100
0000
0100
,
1000
0000
0010
0010
0100
0001
0000
0001
,
1000
0001
0001
0000
1000
1100
0000
0001
,
0101
0000
1000
1001
0000
0010
0100
0010
,
0110
0001
1000
0010
,
0100
0001
0010
0010
,
0001
0000
1000
0000
0010
0000
0100
0010
,
0100
0001
0100
0001
,
1000
0010
0100
0001
,
0100
0010
1000
1000
,
0100
0000
0010
0000
0100
0000
0010
0001
,
0010
0001
0100
0010
,
1000
0001
0010
0001
,
1000
0010
0100
0010
,
1000
0000
0001
0000
0010
0000
0100
0010
,
0100
0010
0001
1000
,
0100
1000
0001
0100
,
0001
1000
0010
1000
,
0100
0000
1000
0000
0001
0000
0010
0100
,
0010
0001
1000
0010
,
0100
0001
1000
0010
,
0100
0001
0010
0010
,
0001
0000
1000
0000
0010
0000
0100
0010
,
0100
0001
0100
0001
,
1000
0010
0100
0001
,
0100
0010
1000
1000
,
0100
0000
0010
0000
0100
0000
0010
0001
,
0010
0001
0100
0010
,
1000
0001
0010
0001
,
1000
0010
0100
0010
,
1000
0000
0001
0000
0010
0000
0100
0010
,
0100
0010
0001
1000
,
0100
1000
0001
0100
,
0001
1000
0010
1000
,
0100
0000
1000
0000
0001
0000
0010
0100
,
0010
0001
1000
0010
,
0100
0000
0000
0000
0001
0000
0000
0000
0101
0000
0000
0000
,
0010
0000
0000
0000
1000
0000
0000
0000
1010
0000
0000
0000
,
0001
0000
0000
0000
0010
0000
0000
0000
0011
0000
0000
0000
,
0100
0000
0000
0000
1000
0000
0000
0000
1100
0000
0000
0000
,
0010
0000
0000
0000
1000
0000
0000
0000
1010
0000
0000
0000
,
0001
0000
0000
0000
0010
0000
0000
0000
0011
0000
0000
0000
,
0100
0000
0000
0000
1000
0000
0000
0000
1100
0000
0000
0000
,
0001
0000
0000
0000
0100
0000
0000
0000
0101
0000
0000
0000
,
1100
0000
0000
0000
1100
0000
0000
0000
1100
0000
0000
0000
,
0011
0000
0000
0000
0011
0000
0000
0000
0011
0000
0000
0000
,
0101
0000
0000
0000
0101
0000
0000
0000
0101
0000
0000
0000
,
1010
0000
0000
0000
1010
0000
0000
0000
1010
0000
0000
0000
,
1100
0000
0000
0000
1100
0000
0000
0000
1100
0000
0000
0000
,
0101
0000
0000
0000
0101
0000
0000
0000
0101
0000
0000
0000
,
0110
0000
0000
0000
0110
0000
0000
0000
0110
0000
0000
0000
,
1001
0000
0000
0000
1001
0000
0000
0000
1001
0000
0000
0000
,
0100
0000
0000
0000
0001
0000
0000
0000
0101
0000
0000
0000
,
0010
0000
0000
0000
1000
0000
0000
0000
1010
0000
0000
0000
,
0001
0000
0000
0000
0010
0000
0000
0000
0011
0000
0000
0000
,
0100
0000
0000
0000
1000
0000
0000
0000
1100
0000
0000
0000
,
0010
0000
0000
0000
1000
0000
0000
0000
1010
0000
0000
0000
,
0001
0000
0000
0000
0010
0000
0000
0000
0011
0000
0000
0000
,
0100
0000
0000
0000
1000
0000
0000
0000
1100
0000
0000
0000
,
0001
0000
0000
0000
0100
0000
0000
0000
0101
0000
0000
0000
,
1100
0000
0000
0000
1100
0000
0000
0000
1100
0000
0000
0000
,
0011
0000
0000
0000
0011
0000
0000
0000
0011
0000
0000
0000
,
0101
0000
0000
0000
0101
0000
0000
0000
0101
0000
0000
0000
,
1010
0000
0000
0000
1010
0000
0000
0000
1010
0000
0000
0000
,
1100
0000
0000
0000
1100
0000
0000
0000
1100
0000
0000
0000
,
0101
0000
0000
0000
0101
0000
0000
0000
0101
0000
0000
0000
,
0110
0000
0000
0000
0110
0000
0000
0000
0110
0000
0000
0000
,
2002
0000
0000
3003
,
2000
0001
0000
0001
,
3200
0010
0000
0010
,
2300
0010
0000
0010
,
3002
0000
0000
0000
0000
0000
0000
0000
0000
0000
0000
0000
0000
0000
0000
0000
0000
0000
0000
0000
0000
0000
0000
0000
0000
0000
0000
0000
0000
0000
0000
0000
0000
0000
0000
0000
0000
0000
0000
0000
0000
0000
0000
0000
0000
0000
0000
0000
0100
0000
0000
0000
0000
0000
0000
0000
0000
0000
0000
0000
0000
0000
0000
0000
0000
0000
0000
0000
0000
0000
0000
0000
0000
0000
0000
0000
0000
0000
0000
0000
0000
0000
0000
0000
0000
0000
0000
0000
0000
0000
0000
0000
0000
0000
0000
0000
0000
0000
0000
0000
0000
0000
0000
0000
0000
0000
0000
0000
0000
0000
0000
0000
0000
0000
0000
0000
0000
0000
0000
0000
0000
0000
0000
0000
0000
0000
0000
0000
0000
0000
0000
0000
0000
0000
0000
0000
0000
0000
0000
0000
0000
0000
0000
0000
0100
0000
0000
0000
0000
0000
0000
0000
0000
0000
0000
0000
0000
0000
0000
0000
0000
0000
0000
0000
0000
0000
0000
0000
0000
0000
0000
0000
0000
0000
0000
0000
0000
0000
0000
0000
0000
0000
0000
0000
0000
0000
0000
0000
0000
0000
0000
0003
,
2000
0001
0000
0001
,
3200
0010
0000
0010
,
2300
0010
0000
0010
,
3002
0000
0000
0000
0000
0000
0000
0000
0000
0000
0000
0000
0000
0000
0000
0000
0000
0000
0000
0000
0000
0000
0000
0000
0000
0000
0000
0000
0000
0000
0000
0000
0000
0000
0000
0000
0000
0000
0000
0000
0000
0000
0000
0000
0000
0000
0000
0000
0100
0000
0000
0000
0000
0000
0000
0000
0000
0000
0000
0000
0000
0000
0000
0000
0000
0000
0000
0000
0000
0000
0000
0000
0000
0000
0000
0000
0000
0000
0000
0000
0000
0000
0000
0000
0000
0000
0000
0000
0000
0000
0000
0000
0000
0000
0000
0000
0000
0000
0000
0000
0000
0000
0000
0000
0000
0000
0000
0000
0000
0000
0000
0000
0000
0000
0000
0000
0000
0000
0000
0000
0000
0000
0000
0000
0000
0000
0000
0000
0000
0000
0000
0000
0000
0000
0000
0000
0000
0000
0000
0000
0000
0000
0000
0000
0100
0000
0000
0000
0000
0000
0000
0000
0000
0000
0000
0000
0000
0000
0000
0000
0000
0000
0000
0000
0000
0000
0000
0000
0000
0000
0000
0000
0000
0000
0000
0000
0000
0000
0000
0000
0000
0000
0000
0000
0000
0000
0000
0000
0000
0000
0000
0003
,
1000
0100
1000
0000
1000
0010
1000
0000
,
0001
0010
0001
0000
0001
0100
0001
0000
,
1000
0100
1000
0000
1000
0010
1000
0000
,
0001
0010
0001
0000
0001
0100
0001
0000
,
1000
0100
1000
0000
1000
0010
1000
0000
,
0001
0010
0001
0000
0001
0100
0001
0000
,
1000
0100
0001
0100
1000
0010
0001
0010
,
2000
3000
0010
0000
1000
0000
0001
0000
,
0010
0100
1000
0010
,
0010
1000
0001
0010
,
0100
0010
0100
0000
1000
0000
0100
0000
,
1000
0001
0010
0100
,
1000
0100
0010
0001
,
0001
0100
0010
0100
,
0010
1000
0010
0000
1000
0000
0100
0000
,
0010
0001
1000
0010
,
1000
0001
0010
0100
,
0010
0001
1000
0010
,
0100
0010
0100
0000
0010
0000
1000
0000
,
0001
0100
0001
1000
,
0100
1000
0001
0010
,
0001
0100
0001
1000
,
0010
0100
0010
0000
1000
0000
0001
0000
,
0010
0010
1000
0001
,
0010
0100
1000
0010
,
0010
1000
0001
0010
,
0100
0010
0100
0000
1000
0000
0100
0000
,
1000
0001
0010
0100
,
1000
0100
0010
0001
,
0001
0100
0010
0100
,
0010
1000
0010
0000
1000
0000
0100
0000
,
0010
0001
1000
0010
,
1000
0001
0010
0100
,
0010
0001
1000
0010
,
0100
0010
0100
0000
0010
0000
1000
0000
,
0001
0100
0001
1000
,
0100
1000
0001
0010
,
0001
0000
2000
3000
0100
0000
0001
0000
,
1000
0010
0100
0001
,
0010
0010
0001
1000
,
0010
0000
0100
0010
0100
0000
0001
0000
,
0100
0001
1000
0010
,
0100
0001
0100
0010
,
1000
1000
0100
0010
,
0100
0000
0010
0001
0010
0000
0001
0000
,
0100
0010
1000
0001
,
0010
0001
1000
0010
,
0100
0010
1000
0001
,
0010
0000
0100
0010
0100
0000
0010
0000
,
0001
1000
0100
1000
,
0001
0100
0001
1000
,
0010
1000
0100
1000
,
0001
0000
0010
0100
0010
0000
0001
0000
,
1000
0010
0100
0001
,
1000
0010
0100
0001
,
0010
0010
0001
1000
,
0010
0000
0100
0010
0100
0000
0001
0000
,
0100
0001
1000
0010
,
0100
0001
0100
0010
,
1000
1000
0100
0010
,
0100
0000
0010
0001
0010
0000
0001
0000
,
0100
0010
1000
0001
,
0010
0001
1000
0010
,
0100
0010
1000
0001
,
0010
0000
0100
0010
0100
0000
0010
0000
,
0001
1000
0100
1000
,
0001
0100
0001
1000
,
0010
1000
0100
1000
,
0001
0000
0010
0100
0010
0000
0001
0000
,
1000
0000
0000
0010
0000
0000
0100
0000
0000
0000
0001
0000
,
0000
0000
0101
0000
0000
0000
0010
0000
0000
0000
1000
0000
,
0000
0000
1010
0000
0000
0000
0001
0000
0000
0000
0010
0000
,
0000
0000
0011
0000
0000
0000
0100
0000
0000
0000
1000
0000
,
0000
0000
1100
0000
0000
0000
0010
0000
0000
0000
1000
0000
,
0000
0000
1010
0000
0000
0000
0001
0000
0000
0000
0010
0000
,
0000
0000
0011
0000
0000
0000
0100
0000
0000
0000
1000
0000
,
0000
0000
1100
0000
0000
0000
0001
0000
0000
0000
0100
0000
,
0000
0000
0101
0000
0000
0000
1100
0000
0000
0000
1100
0000
,
0000
0000
1100
0000
0000
0000
0011
0000
0000
0000
0011
0000
,
0000
0000
0011
0000
0000
0000
0101
0000
0000
0000
0101
0000
,
0000
0000
0101
0000
0000
0000
1010
0000
0000
0000
1010
0000
,
0000
0000
1010
0000
0000
0000
1100
0000
0000
0000
1100
0000
,
0000
0000
1100
0000
0000
0000
0101
0000
0000
0000
0101
0000
,
0000
0000
0101
0000
0000
0000
0110
0000
0000
0000
0110
0000
,
0000
0000
0110
0000
0000
0000
1001
0000
0000
0000
1001
0000
,
0000
0000
1001
0000
0000
0000
0100
0000
0000
0000
0001
0000
,
0000
0000
0101
0000
0000
0000
0010
0000
0000
0000
1000
0000
,
0000
0000
1010
0000
0000
0000
0001
0000
0000
0000
0010
0000
,
0000
0000
0011
0000
0000
0000
0100
0000
0000
0000
1000
0000
,
0000
0000
1100
0000
0000
0000
0010
0000
0000
0000
1000
0000
,
0000
0000
1010
0000
0000
0000
0001
0000
0000
0000
0010
0000
,
0000
0000
0011
0000
0000
0000
0100
0000
0000
0000
1000
0000
,
0000
0000
1100
0000
0000
0000
0001
0000
0000
0000
0100
0000
,
0000
0000
0101
0000
0000
0000
1100
0000
0000
0000
1100
0000
,
0000
0000
1100
0000
0000
0000
0011
0000
0000
0000
0011
0000
,
0000
0000
0011
0000
0000
0000
0101
0000
0000
0000
0101
0000
,
0000
0000
0101
0000
0000
0000
1010
0000
0000
0000
1010
0000
,
0000
0000
1010
0000
0000
0000
1100
0000
0000
0000
1100
0000
,
0000
0000
1100
0000
0000
0000
0101
0000
0000
0000
0101
0000
,
0000
0000
0101
0000
0000
0000
0110
0000
0000
0000
0110
0000
,
0000
0000
0110
0000
0000
0000
2002
0000
0000
0000
0000
0000
,
0000
3003
2000
0001
,
0000
0001
3200
0010
,
0000
0010
2300
0010
,
0000
0010
3002
0100
,
0000
0000
0000
0000
0000
0000
0000
0000
0000
0000
0000
0000
0000
0000
0000
0000
0000
0000
0000
0000
0000
0000
0000
0000
0000
0000
0000
0000
0000
0000
0000
0000
0000
0000
0000
0000
0000
0000
0000
0000
0000
0000
0000
0000
0000
0000
0000
0000
0100
0000
0000
0000
0000
0000
0000
0000
0000
0000
0000
0000
0000
0000
0000
0000
0000
0000
0000
0000
0000
0000
0000
0000
0000
0000
0000
0000
0000
0000
0000
0000
0000
0000
0000
0000
0000
0000
0000
0000
0000
0000
0000
0000
0000
0000
0000
0003
2000
0000
0000
0000
0000
0000
0000
0000
0000
0000
0000
0000
0000
0000
0000
0000
0000
0000
0000
0000
0000
0000
0000
0000
0000
0000
0000
0000
0000
0000
0000
0000
0000
0000
0000
0000
0000
0000
0000
0000
0000
0000
0000
0000
0000
0000
0000
0000
0001
0000
0000
0000
0000
0000
0000
0000
0000
0000
0000
0000
0000
0000
0000
0000
0000
0000
0000
0000
0000
0000
0000
0000
0000
0000
0000
0000
0000
0000
0000
0000
0000
0000
0000
0000
0000
0000
0000
0000
0000
0000
0000
0000
0000
0000
0000
0000
,
0000
0001
3200
0010
,
0000
0010
2300
0010
,
0000
0010
3002
0100
,
0000
0000
0000
0000
0000
0000
0000
0000
0000
0000
0000
0000
0000
0000
0000
0000
0000
0000
0000
0000
0000
0000
0000
0000
0000
0000
0000
0000
0000
0000
0000
0000
0000
0000
0000
0000
0000
0000
0000
0000
0000
0000
0000
0000
0000
0000
0000
0000
0100
0000
0000
0000
0000
0000
0000
0000
0000
0000
0000
0000
0000
0000
0000
0000
0000
0000
0000
0000
0000
0000
0000
0000
0000
0000
0000
0000
0000
0000
0000
0000
0000
0000
0000
0000
0000
0000
0000
0000
0000
0000
0000
0000
0000
0000
0000
0003
1000
0000
0000
0000
0000
0000
0000
0000
0000
0000
0000
0000
0000
0000
0000
0000
0000
0000
0000
0000
0000
0000
0000
0000
0100
0000
0000
0000
0000
0000
0000
0000
0000
0000
0000
0000
0000
0000
0000
0000
0000
0000
0000
0000
0000
0000
0000
0000
1000
0000
0000
0000
0000
0000
0000
0000
0000
0000
0000
0000
0000
0000
0000
0000
0000
0000
0000
0000
0000
0000
0000
0000
0000
0000
0000
0000
0000
0000
0000
0000
0000
0000
0000
0000
0000
0000
0000
0000
0000
0000
0000
0000
0000
0000
0000
0000
,
1000
0010
1000
0000
0001
0010
0001
0000
,
0001
0100
0001
0000
1000
0100
1000
0000
,
1000
0010
1000
0000
0001
0010
0001
0000
,
0001
0100
0001
0000
1000
0100
1000
0000
,
1000
0010
1000
0000
0001
0010
0001
0000
,
0001
0100
0001
0000
1000
0100
0001
0100
,
1000
0010
0001
0010
2000
3000
0010
0000
,
1000
0001
0010
0100
,
1000
0010
0010
1000
,
0001
0000
0010
0000
0100
0010
0100
0000
,
1000
0100
1000
0001
,
0010
0100
1000
0100
,
0010
0001
0001
0100
,
0010
0000
0100
0000
0010
1000
0010
0000
,
1000
0100
0010
0001
,
1000
0010
1000
0001
,
0010
0100
0010
0001
,
1000
0000
0010
0000
0100
0010
0100
0000
,
0010
1000
0001
0100
,
0001
1000
0100
1000
,
0001
0010
0001
0100
,
0001
0000
1000
0000
0010
0100
0010
0000
,
1000
0001
0010
0010
,
1000
0001
0010
0100
,
1000
0010
0010
1000
,
0001
0000
0010
0000
0100
0010
0100
0000
,
1000
0100
1000
0001
,
0010
0100
1000
0100
,
0010
0001
0001
0100
,
0010
0000
0100
0000
0010
1000
0010
0000
,
1000
0100
0010
0001
,
1000
0010
1000
0001
,
0010
0100
0010
0001
,
1000
0000
0010
0000
0100
0010
0100
0000
,
0010
1000
0001
0100
,
0001
1000
0100
1000
,
0001
0000
0010
0000
0001
0000
2000
3000
,
0100
0001
1000
0010
,
0100
0001
0010
0010
,
0001
0000
1000
0000
0010
0000
0100
0010
,
0100
0001
0100
0001
,
1000
0010
0100
0001
,
0100
0010
1000
1000
,
0100
0000
0010
0000
0100
0000
0010
0001
,
0010
0001
0100
0010
,
1000
0001
0010
0001
,
1000
0010
0100
0010
,
1000
0000
0001
0000
0010
0000
0100
0010
,
0100
0010
0001
1000
,
0100
1000
0001
0100
,
0001
1000
0010
1000
,
0100
0000
1000
0000
0001
0000
0010
0100
,
0010
0001
1000
0010
,
0100
0001
1000
0010
,
0100
0001
0010
0010
,
0001
0000
1000
0000
0010
0000
0100
0010
,
0100
0001
0100
0001
,
1000
0010
0100
0001
,
0100
0010
1000
1000
,
0100
0000
0010
0000
0100
0000
0010
0001
,
0010
0001
0100
0010
,
1000
0001
0010
0001
,
1000
0010
0100
0010
,
1000
0000
0001
0000
0010
0000
0100
0010
,
0100
0010
0001
1000
,
0100
1000
0001
0100
,
0001
1000
0010
1000
,
0100
0000
1000
0000
0001
0000
0010
0100
,
0010
0001
1000
0010
,
0100
0000
0000
0000
0001
0000
0000
0000
0101
0000
0000
0000
,
0010
0000
0000
0000
1000
0000
0000
0000
1010
0000
0000
0000
,
0001
0000
0000
0000
0010
0000
0000
0000
0011
0000
0000
0000
,
0100
0000
0000
0000
1000
0000
0000
0000
1100
0000
0000
0000
,
0010
0000
0000
0000
1000
0000
0000
0000
1010
0000
0000
0000
,
0001
0000
0000
0000
0010
0000
0000
0000
0011
0000
0000
0000
,
0100
0000
0000
0000
1000
0000
0000
0000
1100
0000
0000
0000
,
0001
0000
0000
0000
0100
0000
0000
0000
0101
0000
0000
0000
,
1100
0000
0000
0000
1100
0000
0000
0000
1100
0000
0000
0000
,
0011
0000
0000
0000
0011
0000
0000
0000
0011
0000
0000
0000
,
0101
0000
0000
0000
0101
0000
0000
0000
0101
0000
0000
0000
,
1010
0000
0000
0000
1010
0000
0000
0000
1010
0000
0000
0000
,
1100
0000
0000
0000
1100
0000
0000
0000
1100
0000
0000
0000
,
0101
0000
0000
0000
0101
0000
0000
0000
0101
0000
0000
0000
,
0110
0000
0000
0000
0110
0000
0000
0000
0110
0000
0000
0000
,
1001
0000
0000
0000
1001
0000
0000
0000
1001
0000
0000
0000
,
0100
0000
0000
0000
0001
0000
0000
0000
0101
0000
0000
0000
,
0010
0000
0000
0000
1000
0000
0000
0000
1010
0000
0000
0000
,
0001
0000
0000
0000
0010
0000
0000
0000
0011
0000
0000
0000
,
0100
0000
0000
0000
1000
0000
0000
0000
1100
0000
0000
0000
,
0010
0000
0000
0000
1000
0000
0000
0000
1010
0000
0000
0000
,
0001
0000
0000
0000
0010
0000
0000
0000
0011
0000
0000
0000
,
0100
0000
0000
0000
1000
0000
0000
0000
1100
0000
0000
0000
,
0001
0000
0000
0000
0100
0000
0000
0000
0101
0000
0000
0000
,
1100
0000
0000
0000
1100
0000
0000
0000
1100
0000
0000
0000
,
0011
0000
0000
0000
0011
0000
0000
0000
0011
0000
0000
0000
,
0101
0000
0000
0000
0101
0000
0000
0000
0101
0000
0000
0000
,
1010
0000
0000
0000
1010
0000
0000
0000
1010
0000
0000
0000
,
1100
0000
0000
0000
1100
0000
0000
0000
1100
0000
0000
0000
,
0101
0000
0000
0000
0101
0000
0000
0000
0101
0000
0000
0000
,
0110
0000
0000
0000
0110
0000
0000
0000
0110
0000
0000
0000
,
2002
0000
0000
3003
,
2000
0001
0000
0001
,
3200
0010
0000
0010
,
2300
0010
0000
0010
,
3002
0000
0000
0000
0000
0000
0000
0000
0000
0000
0000
0000
0000
0000
0000
0000
0000
0000
0000
0000
0000
0000
0000
0000
0000
0000
0000
0000
0000
0000
0000
0000
0000
0000
0000
0000
0000
0000
0000
0000
0000
0000
0000
0000
0000
0000
0000
0000
0100
0000
0000
0000
0000
0000
0000
0000
0000
0000
0000
0000
0000
0000
0000
0000
0000
0000
0000
0000
0000
0000
0000
0000
0000
0000
0000
0000
0000
0000
0000
0000
0000
0000
0000
0000
0000
0000
0000
0000
0000
0000
0000
0000
0000
0000
0000
0000
0000
0000
0000
0000
0000
0000
0000
0000
0000
0000
0000
0000
0000
0000
0000
0000
0000
0000
0000
0000
0000
0000
0000
0000
0000
0000
0000
0000
0000
0000
0000
0000
0000
0000
0000
0000
0000
0000
0000
0000
0000
0000
0000
0000
0000
0000
0000
0000
0100
0000
0000
0000
0000
0000
0000
0000
0000
0000
0000
0000
0000
0000
0000
0000
0000
0000
0000
0000
0000
0000
0000
0000
0000
0000
0000
0000
0000
0000
0000
0000
0000
0000
0000
0000
0000
0000
0000
0000
0000
0000
0000
0000
0000
0000
0000
0003
,
2000
0001
0000
0001
,
3200
0010
0000
0010
,
2300
0010
0000
0010
,
3002
0000
0000
0000
0000
0000
0000
0000
0000
0000
0000
0000
0000
0000
0000
0000
0000
0000
0000
0000
0000
0000
0000
0000
0000
0000
0000
0000
0000
0000
0000
0000
0000
0000
0000
0000
0000
0000
0000
0000
0000
0000
0000
0000
0000
0000
0000
0000
0100
0000
0000
0000
0000
0000
0000
0000
0000
0000
0000
0000
0000
0000
0000
0000
0000
0000
0000
0000
0000
0000
0000
0000
0000
0000
0000
0000
0000
0000
0000
0000
0000
0000
0000
0000
0000
0000
0000
0000
0000
0000
0000
0000
0000
0000
0000
0000
0000
0000
0000
0000
0000
0000
0000
0000
0000
0000
0000
0000
0000
0000
0000
0000
0000
0000
0000
0000
0000
0000
0000
0000
0000
0000
0000
0000
0000
0000
0000
0000
0000
0000
0000
0000
0000
0000
0000
0000
0000
0000
0000
0000
0000
0000
0000
0000
0100
0000
0000
0000
0000
0000
0000
0000
0000
0000
0000
0000
0000
0000
0000
0000
0000
0000
0000
0000
0000
0000
0000
0000
0000
0000
0000
0000
0000
0000
0000
0000
0000
0000
0000
0000
0000
0000
0000
0000
0000
0000
0000
0000
0000
0000
0000
0003
,
1000
0100
1000
0000
1000
0010
1000
0000
,
0001
0010
0001
0000
0001
0100
0001
0000
,
1000
0100
1000
0000
1000
0010
1000
0000
,
0001
0010
0001
0000
0001
0100
0001
0000
,
1000
0100
1000
0000
1000
0010
1000
0000
,
0001
0010
0001
0000
0001
0100
0001
0000
,
1000
0100
0001
0100
1000
0010
0001
0010
,
2000
3000
0010
0000
1000
0000
0001
0000
,
0010
0100
1000
0010
,
0010
1000
0001
0010
,
0100
0010
0100
0000
1000
0000
0100
0000
,
1000
0001
0010
0100
,
1000
0100
0010
0001
,
0001
0100
0010
0100
,
0010
1000
0010
0000
1000
0000
0100
0000
,
0010
0001
1000
0010
,
1000
0001
0010
0100
,
0010
0001
1000
0010
,
0100
0010
0100
0000
0010
0000
1000
0000
,
0001
0100
0001
1000
,
0100
1000
0001
0010
,
0001
0100
0001
1000
,
0010
0100
0010
0000
1000
0000
0001
0000
,
0010
0010
1000
0001
,
0010
0100
1000
0010
,
0010
1000
0001
0010
,
0100
0010
0100
0000
1000
0000
0100
0000
,
1000
0001
0010
0100
,
1000
0100
0010
0001
,
0001
0100
0010
0100
,
0010
1000
0010
0000
1000
0000
0100
0000
,
0010
0001
1000
0010
,
1000
0001
0010
0100
,
0010
0001
1000
0010
,
0100
0010
0100
0000
0010
0000
1000
0000
,
0001
0100
0001
1000
,
0100
1000
0001
0010
,
0001
0000
2000
3000
0100
0000
0001
0000
,
1000
0010
0100
0001
,
0010
0010
0001
1000
,
0010
0000
0100
0010
0100
0000
0001
0000
,
0100
0001
1000
0010
,
0100
0001
0100
0010
,
1000
1000
0100
0010
,
0100
0000
0010
0001
0010
0000
0001
0000
,
0100
0010
1000
0001
,
0010
0001
1000
0010
,
0100
0010
1000
0001
,
0010
0000
0100
0010
0100
0000
0010
0000
,
0001
1000
0100
1000
,
0001
0100
0001
1000
,
0010
1000
0100
1000
,
0001
0000
0010
0100
0010
0000
0001
0000
,
1000
0010
0100
0001
,
1000
0010
0100
0001
,
0010
0010
0001
1000
,
0010
0000
0100
0010
0100
0000
0001
0000
,
0100
0001
1000
0010
,
0100
0001
0100
0010
,
1000
1000
0100
0010
,
0100
0000
0010
0001
0010
0000
0001
0000
,
0100
0010
1000
0001
,
0010
0001
1000
0010
,
0100
0010
1000
0001
,
0010
0000
0100
0010
0100
0000
0010
0000
,
0001
1000
0100
1000
,
0001
0100
0001
1000
,
0010
1000
0100
1000
,
0001
0000
0010
0100
0010
0000
0001
0000
,
1000
0000
0000
0010
0000
0000
0100
0000
0000
0000
0001
0000
,
0000
0000
0101
0000
0000
0000
0010
0000
0000
0000
1000
0000
,
0000
0000
1010
0000
0000
0000
0001
0000
0000
0000
0010
0000
,
0000
0000
0011
0000
0000
0000
0100
0000
0000
0000
1000
0000
,
0000
0000
1100
0000
0000
0000
0010
0000
0000
0000
1000
0000
,
0000
0000
1010
0000
0000
0000
0001
0000
0000
0000
0010
0000
,
0000
0000
0011
0000
0000
0000
0100
0000
0000
0000
1000
0000
,
0000
0000
1100
0000
0000
0000
0001
0000
0000
0000
0100
0000
,
0000
0000
0101
0000
0000
0000
1100
0000
0000
0000
1100
0000
,
0000
0000
1100
0000
0000
0000
0011
0000
0000
0000
0011
0000
,
0000
0000
0011
0000
0000
0000
0101
0000
0000
0000
0101
0000
,
0000
0000
0101
0000
0000
0000
1010
0000
0000
0000
1010
0000
,
0000
0000
1010
0000
0000
0000
1100
0000
0000
0000
1100
0000
,
0000
0000
1100
0000
0000
0000
0101
0000
0000
0000
0101
0000
,
0000
0000
0101
0000
0000
0000
0110
0000
0000
0000
0110
0000
,
0000
0000
0110
0000
0000
0000
1001
0000
0000
0000
1001
0000
,
0000
0000
1001
0000
0000
0000
0100
0000
0000
0000
0001
0000
,
0000
0000
0101
0000
0000
0000
0010
0000
0000
0000
1000
0000
,
0000
0000
1010
0000
0000
0000
0001
0000
0000
0000
0010
0000
,
0000
0000
0011
0000
0000
0000
0100
0000
0000
0000
1000
0000
,
0000
0000
1100
0000
0000
0000
0010
0000
0000
0000
1000
0000
,
0000
0000
1010
0000
0000
0000
0001
0000
0000
0000
0010
0000
,
0000
0000
0011
0000
0000
0000
0100
0000
0000
0000
1000
0000
,
0000
0000
1100
0000
0000
0000
0001
0000
0000
0000
0100
0000
,
0000
0000
0101
0000
0000
0000
1100
0000
0000
0000
1100
0000
,
0000
0000
1100
0000
0000
0000
0011
0000
0000
0000
0011
0000
,
0000
0000
0011
0000
0000
0000
0101
0000
0000
0000
0101
0000
,
0000
0000
0101
0000
0000
0000
1010
0000
0000
0000
1010
0000
,
0000
0000
1010
0000
0000
0000
1100
0000
0000
0000
1100
0000
,
0000
0000
1100
0000
0000
0000
0101
0000
0000
0000
0101
0000
,
0000
0000
0101
0000
0000
0000
0110
0000
0000
0000
0110
0000
,
0000
0000
0110
0000
0000
0000
2002
0000
0000
0000
0000
0000
,
0000
3003
2000
0001
,
0000
0001
3200
0010
,
0000
0010
2300
0010
,
0000
0010
3002
0100
,
0000
0000
0000
0000
0000
0000
0000
0000
0000
0000
0000
0000
0000
0000
0000
0000
0000
0000
0000
0000
0000
0000
0000
0000
0000
0000
0000
0000
0000
0000
0000
0000
0000
0000
0000
0000
0000
0000
0000
0000
0000
0000
0000
0000
0000
0000
0000
0000
0100
0000
0000
0000
0000
0000
0000
0000
0000
0000
0000
0000
0000
0000
0000
0000
0000
0000
0000
0000
0000
0000
0000
0000
0000
0000
0000
0000
0000
0000
0000
0000
0000
0000
0000
0000
0000
0000
0000
0000
0000
0000
0000
0000
0000
0000
0000
0003
2000
0000
0000
0000
0000
0000
0000
0000
0000
0000
0000
0000
0000
0000
0000
0000
0000
0000
0000
0000
0000
0000
0000
0000
0000
0000
0000
0000
0000
0000
0000
0000
0000
0000
0000
0000
0000
0000
0000
0000
0000
0000
0000
0000
0000
0000
0000
0000
0001
0000
0000
0000
0000
0000
0000
0000
0000
0000
0000
0000
0000
0000
0000
0000
0000
0000
0000
0000
0000
0000
0000
0000
0000
0000
0000
0000
0000
0000
0000
0000
0000
0000
0000
0000
0000
0000
0000
0000
0000
0000
0000
0000
0000
0000
0000
0000
,
0000
0001
3200
0010
,
0000
0010
2300
0010
,
0000
0010
3002
0100
,
0000
0000
0000
0000
0000
0000
0000
0000
0000
0000
0000
0000
0000
0000
0000
0000
0000
0000
0000
0000
0000
0000
0000
0000
0000
0000
0000
0000
0000
0000
0000
0000
0000
0000
0000
0000
0000
0000
0000
0000
0000
0000
0000
0000
0000
0000
0000
0000
0100
0000
0000
0000
0000
0000
0000
0000
0000
0000
0000
0000
0000
0000
0000
0000
0000
0000
0000
0000
0000
0000
0000
0000
0000
0000
0000
0000
0000
0000
0000
0000
0000
0000
0000
0000
0000
0000
0000
0000
0000
0000
0000
0000
0000
0000
0000
0003
1000
0000
0000
0000
0000
0000
0000
0000
0000
0000
0000
0000
0000
0000
0000
0000
0000
0000
0000
0000
0000
0000
0000
0000
0100
0000
0000
0000
0000
0000
0000
0000
0000
0000
0000
0000
0000
0000
0000
0000
0000
0000
0000
0000
0000
0000
0000
0000
1000
0000
0000
0000
0000
0000
0000
0000
0000
0000
0000
0000
0000
0000
0000
0000
0000
0000
0000
0000
0000
0000
0000
0000
0000
0000
0000
0000
0000
0000
0000
0000
0000
0000
0000
0000
0000
0000
0000
0000
0000
0000
0000
0000
0000
0000
0000
0000
,
1000
0010
1000
0000
0001
0010
0001
0000
,
0001
0100
0001
0000
1000
0100
1000
0000
,
1000
0010
1000
0000
0001
0010
0001
0000
,
0001
0100
0001
0000
1000
0100
1000
0000
,
1000
0010
1000
0000
0001
0010
0001
0000
,
0001
0100
0001
0000
1000
0100
0001
0100
,
1000
0010
0001
0010
2000
3000
0010
0000
,
1000
0001
0010
0100
,
1000
0010
0010
1000
,
0001
0000
0010
0000
0100
0010
0100
0000
,
1000
0100
1000
0001
,
0010
0100
1000
0100
,
0010
0001
0001
0100
,
0010
0000
0100
0000
0010
1000
0010
0000
,
1000
0100
0010
0001
,
1000
0010
1000
0001
,
0010
0100
0010
0001
,
1000
0000
0010
0000
0100
0010
0100
0000
,
0010
1000
0001
0100
,
0001
1000
0100
1000
,
0001
0010
0001
0100
,
0001
0000
1000
0000
0010
0100
0010
0000
,
1000
0001
0010
0010
,
1000
0001
0010
0100
,
1000
0010
0010
1000
,
0001
0000
0010
0000
0100
0010
0100
0000
,
1000
0100
1000
0001
,
0010
0100
1000
0100
,
0010
0001
0001
0100
,
0010
0000
0100
0000
0010
1000
0010
0000
,
1000
0100
0010
0001
,
1000
0010
1000
0001
,
0010
0100
0010
0001
,
1000
0000
0010
0000
0100
0010
0100
0000
,
0010
1000
0001
0100
,
0001
1000
0100
1000
,
0001
0000
0010
0000
0001
0000
2000
3000
,
0100
0001
1000
0010
,
0100
0001
0010
0010
,
0001
0000
1000
0000
0010
0000
0100
0010
,
0100
0001
0100
0001
,
1000
0010
0100
0001
,
0100
0010
1000
1000
,
0100
0000
0010
0000
0100
0000
0010
0001
,
0010
0001
0100
0010
,
1000
0001
0010
0001
,
1000
0010
0100
0010
,
1000
0000
0001
0000
0010
0000
0100
0010
,
0100
0010
0001
1000
,
0100
1000
0001
0100
,
0001
1000
0010
1000
,
0100
0000
1000
0000
0001
0000
0010
0100
,
0010
0001
1000
0010
,
0010
1000
0001
0010
,
0100
1000
0010
0010
,
1000
0000
0001
0000
0010
0000
0100
0010
,
0100
1000
0100
1000
,
0001
0010
0100
1000
,
0100
0010
0001
0001
,
0100
0000
0010
0000
0100
0000
0010
1000
,
0010
1000
0100
0010
,
0001
1000
0010
1000
,
0001
0010
0100
0010
,
0001
0000
1000
0000
0010
0000
0100
0010
,
0100
0010
1000
0001
,
0100
0001
1000
0100
,
1000
0001
0010
0001
,
0100
0000
0001
0000
1000
0000
0010
0100
,
0010
1000
0001
0010
,
0100
0010
0020
1030
,
0010
0020
0031
0010
,
0001
0000
1000
0000
0020
0000
0130
0010
,
0100
0010
1000
0100
,
1000
0010
0020
0031
,
0010
0020
1030
0010
,
1000
0000
0001
0000
0020
0000
0130
0010
,
0100
0010
0001
0100
,
0010
0100
0001
0100
,
1000
0000
0100
0000
0010
0000
1000
0100
,
1000
0100
0010
0100
,
0001
0000
0100
0000
0010
0000
0001
0100
,
0001
0000
0000
0000
0010
0000
1000
0100
,
1000
0000
0000
0000
0010
0000
0001
0010
,
0001
1000
0010
1000
,
0010
0100
0010
1000
,
0100
0010
0020
1030
,
0010
0020
0031
0010
,
0001
0000
1000
0000
0020
0000
0130
0010
,
0100
0010
1000
0100
,
1000
0010
0020
0031
,
0010
0020
1030
0010
,
1000
0000
0001
0000
0020
0000
0130
0010
,
0100
0010
0001
0100
,
0010
0100
0001
0100
,
1000
0000
0100
0000
0010
0000
1000
0100
,
1000
0100
0010
0100
,
0001
0000
0100
0000
0010
0000
0001
0100
,
0001
0000
0000
0000
0010
0000
1000
0100
,
1000
0000
0000
0000
0010
0000
0001
0010
,
0001
1000
0010
1000
,
0010
0100
0010
0000
,
0100
0000
0000
0000
1000
0000
0000
0000
1100
0000
0000
0000
,
0010
0000
0000
0000
0001
0000
0000
0000
0011
0000
0000
0000
,
1000
0000
0000
0000
0010
0000
0000
0000
1010
0000
0000
0000
,
0100
0000
0000
0000
0001
0000
0000
0000
0101
0000
0000
0000
,
0010
0000
0000
0000
0001
0000
0000
0000
0011
0000
0000
0000
,
1000
0000
0000
0000
0010
0000
0000
0000
1010
0000
0000
0000
,
0100
0000
0000
0000
0001
0000
0000
0000
0101
0000
0000
0000
,
1000
0000
0000
0000
0100
0000
0000
0000
1100
0000
0000
0000
,
0101
0000
0000
0000
0101
0000
0000
0000
0101
0000
0000
0000
,
1010
0000
0000
0000
1010
0000
0000
0000
1010
0000
0000
0000
,
1100
0000
0000
0000
1100
0000
0000
0000
1100
0000
0000
0000
,
0011
0000
0000
0000
0011
0000
0000
0000
0011
0000
0000
0000
,
0101
0000
0000
0000
0101
0000
0000
0000
0101
0000
0000
0000
,
1100
0000
0000
0000
1100
0000
0000
0000
1100
0000
0000
0000
,
0110
0000
0000
0000
0110
0000
0000
0000
0110
0000
0000
0000
,
1001
0000
0000
0000
1001
0000
0000
0000
1001
0000
0000
0000
,
0100
0000
0000
0000
0100
0000
0000
0000
0100
0000
0000
0000
,
1010
0000
0000
0000
0101
0000
0000
0000
1010
0000
0000
0000
,
0001
0000
0000
0000
0001
0000
0000
0000
0001
0000
0000
0000
,
1100
0000
0000
0000
0011
0000
0000
0000
1100
0000
0000
0000
,
0010
0000
0000
0000
0010
0000
0000
0000
0010
0000
0000
0000
,
0011
0000
0000
0000
1100
0000
0000
0000
0011
0000
0000
0000
,
0100
0000
0000
0000
0100
0000
0000
0000
0100
0000
0000
0000
,
0110
0000
0000
0000
1001
0000
0000
0000
0110
0000
0000
0000
,
1100
0000
0000
0000
0101
0000
0000
0000
1100
0000
0000
0000
,
0011
0000
0000
0000
1010
0000
0000
0000
0011
0000
0000
0000
,
0101
0000
0000
0000
0110
0000
0000
0000
0101
0000
0000
0000
,
1010
0000
0000
0000
0110
0000
0000
0000
1010
0000
0000
0000
,
1100
0000
0000
0000
0101
0000
0000
0000
0011
0000
0000
0000
,
0101
0000
0000
0000
1100
0000
0000
0000
1010
0000
0000
0000
,
1001
0000
0000
0000
0110
0000
0000
0000
1001
0000
0000
0000
,
0220
0000
0000
0330
,
2002
0000
0000
0000
,
0000
0000
0000
0000
,
0000
0000
0000
0000
,
0000
0000
0000
3003
;

//--------------- dance-single - Tundrus ----------------
#NOTES:
     dance-single:
     Tundrus:
     Hard:
     34:
     0,0,0,0,0:
0000
0000
0000
0000
,
0000
0000
0000
0000
,
0000
0000
0000
0000
,
0000
0000
0000
0000
,
0000
0000
0000
0000
,
0000
0000
0000
0000
,
0000
0000
0000
0000
,
0000
0000
0000
0000
,
0000
0010
0001
1000
,
0010
0100
0010
1000
,
0100
0010
0001
0100
,
0010
0100
0001
1000
,
0100
1000
0010
0100
,
0001
0010
0100
1000
,
0001
1000
0100
0010
,
0100
1000
0010
0100
,
0010
1000
0001
0010
,
0100
1000
0100
1000
,
0100
0010
0100
1000
,
0010
0100
0001
0100
,
0001
0010
0100
1000
,
0100
0001
0100
1000
,
0100
0001
0100
0001
,
0100
0001
0100
1000
,
0010
1000
0010
0100
,
0001
0010
0100
1000
,
0010
0100
0001
0010
,
0100
1000
0010
0100
,
0001
0010
0001
0010
,
0001
1000
0010
1000
,
0010
0100
0001
0100
,
0001
1000
0100
1000
,
0100
0010
0100
0010
,
0100
1000
0001
1000
,
0010
1000
0100
0010
,
0100
1000
0100
0010
,
0001
0100
0010
0100
,
0010
1000
0001
0100
,
0001
0100
0010
1000
,
0100
0010
0100
0010
,
0001
0010
0001
1000
,
0010
0100
0010
1000
,
0100
0010
0001
0100
,
0010
0100
0001
1000
,
0100
1000
0010
0100
,
0001
0010
0100
1000
,
0001
1000
0100
0010
,
0100
1000
0010
0100
,
0010
1000
0001
0010
,
0100
1000
0100
1000
,
0100
0010
0100
1000
,
0010
0100
0001
0100
,
0001
0010
0100
1000
,
0100
0001
0100
1000
,
0100
0001
0100
0001
,
0100
0001
0100
1000
,
0010
1000
0010
0100
,
0001
0010
0100
1000
,
0010
0100
0001
0010
,
0100
1000
0010
0100
,
0001
0010
0001
0010
,
0001
1000
0010
1000
,
0010
0100
0001
0100
,
0001
1000
0100
1000
,
0100
0220
0000
0000
,
0000
0000
0000
0000
,
0330
1000
0002
0000
0000
2000
0000
0000
,
0000
0000
3003
0011
,
1100
0000
0000
0000
1000
0000
1000
0000
0100
0000
0010
0100
0010
0100
0010
0000
,
0001
0000
0100
0010
0100
0000
0100
0000
0010
0000
1000
0100
1000
0100
1000
0000
,
0001
0000
1000
0100
1000
0000
0001
0000
0010
0000
0101
0000
0000
0000
0010
0000
,
1100
0000
0010
1001
0000
0100
0010
0100
,
0110
0000
1000
0000
0001
0000
0100
0010
,
0100
0000
0001
0000
1000
0100
1000
0000
,
0001
0100
0001
0000
0010
0000
0100
0010
,
0100
1000
0010
0100
,
0001
0010
0001
0000
1000
0000
0010
0100
,
0010
0000
0100
0000
0001
1000
0001
0000
,
0010
0100
0010
0000
0100
0000
1000
0010
,
1000
0001
0010
0100
,
0010
0001
0100
0000
0010
0000
0100
0001
,
0010
0000
0100
0000
0010
0001
0100
0000
,
0010
1000
0100
0000
0010
0000
0100
1000
,
0010
1000
0001
0010
,
0100
1000
0001
0000
0100
0000
0001
1000
,
0100
0000
0010
0000
0100
1000
0001
0000
,
0100
0001
1000
0000
0100
0000
1000
0010
,
0100
0001
1000
0100
,
0010
0000
1000
0000
0001
0000
0100
0010
,
0100
0000
0001
0000
1000
0100
1000
0000
,
0001
0100
0001
0000
0010
0000
0100
0010
,
0100
1000
0010
0100
,
0001
0010
0001
0000
1000
0000
0010
0100
,
0010
0000
0100
0000
0001
1000
0001
0000
,
0010
0100
0010
0000
0100
0000
1000
0010
,
1000
0001
0010
0100
,
0010
0001
0100
0000
0010
0000
0100
0001
,
0010
0000
0100
0000
0010
0001
0100
0000
,
0010
1000
0100
0000
0010
0000
0100
1000
,
0010
1000
0001
0010
,
0100
1000
0001
0000
0100
0000
0001
1000
,
0100
0000
0010
0000
0100
1000
0001
0000
,
0100
0001
1000
0000
0100
0000
1000
0010
,
0100
0001
1000
0100
,
0011
0000
0000
0000
1100
0000
0000
0000
0101
0000
0000
0000
,
1010
0000
0000
0000
0101
0000
0000
0000
1100
0000
0000
0000
,
0011
0000
0000
0000
1001
0000
0000
0000
0101
0000
0000
0000
,
1010
0000
0000
0000
1001
0000
0000
0000
1100
0000
0000
0000
,
1010
0000
0000
0000
0101
0000
0000
0000
1100
0000
0000
0000
,
0011
0000
0000
0000
1100
0000
0000
0000
0101
0000
0000
0000
,
1010
0000
0000
0000
1001
0000
0000
0000
1100
0000
0000
0000
,
0011
0000
0000
0000
1001
0000
0000
0000
0101
0000
0000
0000
,
1010
0000
0000
0000
0011
0000
0000
0000
0101
0000
0000
0000
,
1100
0000
0000
0000
0101
0000
0000
0000
0011
0000
0000
0000
,
1010
0000
0000
0000
0101
0000
0000
0000
1100
0000
0000
0000
,
0011
0000
0000
0000
1100
0000
0000
0000
0101
0000
0000
0000
,
0011
0000
0000
0000
1010
0000
0000
0000
1100
0000
0000
0000
,
0101
0000
0000
0000
1100
0000
0000
0000
1010
0000
0000
0000
,
0011
0000
0000
0000
1100
0000
0000
0000
0101
0000
0000
0000
,
1100
0000
0000
0000
0101
0000
0000
0000
1010
0000
0000
0000
,
0011
0000
0000
0000
1100
0000
0000
0000
0101
0000
0000
0000
,
1010
0000
0000
0000
0101
0000
0000
0000
1100
0000
0000
0000
,
0011
0000
0000
0000
1001
0000
0000
0000
0101
0000
0000
0000
,
1010
0000
0000
0000
1001
0000
0000
0000
1100
0000
0000
0000
,
1010
0000
0000
0000
0101
0000
0000
0000
1100
0000
0000
0000
,
0011
0000
0000
0000
1100
0000
0000
0000
0101
0000
0000
0000
,
1010
0000
0000
0000
1001
0000
0000
0000
1100
0000
0000
0000
,
0011
0000
0000
0000
1001
0000
0000
0000
0101
0000
0000
0000
,
1010
0000
0000
0000
0011
0000
0000
0000
0101
0000
0000
0000
,
1100
0000
0000
0000
0101
0000
0000
0000
0011
0000
0000
0000
,
1010
0000
0000
0000
0101
0000
0000
0000
1100
0000
0000
0000
,
0011
0000
0000
0000
1100
0000
0000
0000
0101
0000
0000
0000
,
0011
0000
0000
0000
1010
0000
0000
0000
1100
0000
0000
0000
,
0101
0000
0000
0000
1100
0000
0000
0000
1010
0000
0000
0000
,
0011
0000
0000
0000
1100
0000
0000
0000
0101
0000
0000
0000
,
2002
0000
0000
3003
,
0002
1000
0000
1000
,
0023
0100
0000
0100
,
0032
0100
0000
0100
,
2003
0000
0000
0000
0000
0000
0000
0000
0000
0000
0000
0000
0000
0000
0000
0000
0000
0000
0000
0000
0000
0000
0000
0000
0000
0000
0000
0000
0000
0000
0000
0000
0000
0000
0000
0000
0000
0000
0000
0000
0000
0000
0000
0000
0000
0000
0000
0000
0010
0000
0000
0000
0000
0000
0000
0000
0000
0000
0000
0000
0000
0000
0000
0000
0000
0000
0000
0000
0000
0000
0000
0000
0000
0000
0000
0000
0000
0000
0000
0000
0000
0000
0000
0000
0000
0000
0000
0000
0000
0000
0000
0000
0000
0000
0000
0000
0000
0000
0000
0000
0000
0000
0000
0000
0000
0000
0000
0000
0000
0000
0000
0000
0000
0000
0000
0000
0000
0000
0000
0000
0000
0000
0000
0000
0000
0000
0000
0000
0000
0000
0000
0000
0000
0000
0000
0000
0000
0000
0000
0000
0000
0000
0000
0000
0010
0000
0000
0000
0000
0000
0000
0000
0000
0000
0000
0000
0000
0000
0000
0000
0000
0000
0000
0000
0000
0000
0000
0000
0000
0000
0000
0000
0000
0000
0000
0000
0000
0000
0000
0000
0000
0000
0000
0000
0000
0000
0000
0000
0000
0000
0000
3000
,
0002
1000
0000
1000
,
0023
0100
0000
0100
,
0032
0100
0000
0100
,
2003
0000
0000
0000
0000
0000
0000
0000
0000
0000
0000
0000
0000
0000
0000
0000
0000
0000
0000
0000
0000
0000
0000
0000
0000
0000
0000
0000
0000
0000
0000
0000
0000
0000
0000
0000
0000
0000
0000
0000
0000
0000
0000
0000
0000
0000
0000
0000
0010
0000
0000
0000
0000
0000
0000
0000
0000
0000
0000
0000
0000
0000
0000
0000
0000
0000
0000
0000
0000
0000
0000
0000
0000
0000
0000
0000
0000
0000
0000
0000
0000
0000
0000
0000
0000
0000
0000
0000
0000
0000
0000
0000
0000
0000
0000
0000
0000
0000
0000
0000
0000
0000
0000
0000
0000
0000
0000
0000
0000
0000
0000
0000
0000
0000
0000
0000
0000
0000
0000
0000
0000
0000
0000
0000
0000
0000
0000
0000
0000
0000
0000
0000
0000
0000
0000
0000
0000
0000
0000
0000
0000
0000
0000
0000
0010
0000
0000
0000
0000
0000
0000
0000
0000
0000
0000
0000
0000
0000
0000
0000
0000
0000
0000
0000
0000
0000
0000
0000
0000
0000
0000
0000
0000
0000
0000
0000
0000
0000
0000
0000
0000
0000
0000
0000
0000
0000
0000
0000
0000
0000
0000
3000
,
0001
0010
0001
0010
0001
0100
0001
0100
,
0010
1000
0010
1000
0100
1000
0100
1000
,
0001
0010
0001
0010
0001
0100
0001
0100
,
0010
1000
0010
1000
0100
1000
0100
1000
,
0001
0010
0001
0010
0001
0100
0001
0100
,
0010
1000
0010
1000
0100
1000
0100
1000
,
0010
1000
0010
1000
0001
0100
0001
0100
0001
0010
0001
0010
0100
1000
0100
1000
,
0002
0003
0100
0010
0100
0000
1000
0000
,
0100
0010
0100
0000
1000
0000
0001
0100
,
0001
0000
1000
0100
1000
0000
0010
0000
,
0100
0010
0100
0000
0001
0000
0010
0000
,
0100
0000
1000
0010
1000
0000
0001
0000
,
0010
0100
0010
0000
0100
0000
1000
0001
,
1000
0000
0010
0100
0010
0000
0100
0000
,
0001
0010
0001
0000
1000
0000
0010
0000
,
0100
0000
0010
1000
0100
0000
0010
0000
,
0100
1000
0010
0000
0100
0000
0010
1000
,
0100
0000
0010
0001
0100
0000
0010
0000
,
0100
0001
0010
0000
0001
0000
1000
0000
,
0010
0000
0100
0001
1000
0000
0100
0000
,
1000
0001
0100
0000
0010
0000
0100
0001
,
1000
0000
0100
1000
0001
0000
0100
0000
,
0001
0010
0100
0000
1000
0000
0001
0000
,
0100
0000
0100
0010
0100
0000
1000
0000
,
0100
0010
0100
0000
1000
0000
0001
0100
,
0001
0000
1000
0100
1000
0000
0010
0000
,
0100
0010
0100
0000
0001
0000
0010
0000
,
0100
0000
1000
0010
1000
0000
0001
0000
,
0010
0100
0010
0000
0100
0000
1000
0001
,
1000
0000
0010
0100
0010
0000
0100
0000
,
0001
0010
0001
0000
1000
0000
0010
0000
,
0100
0000
0010
1000
0100
0000
0010
0000
,
0100
1000
0010
0000
0100
0000
0010
1000
,
0100
0000
0010
0001
0100
0000
0010
0000
,
0100
0001
0010
0000
0001
0000
1000
0000
,
0010
0000
0100
0001
1000
0000
0100
0000
,
1000
0001
0100
0000
0010
0000
0100
0001
,
1000
0000
0200
0300
0100
0010
0100
0000
,
1000
0000
0100
0010
0100
0000
1000
0000
,
0001
0100
0001
0000
1000
0100
1000
0000
,
0010
0000
0100
0010
0100
0000
0001
0000
,
0010
0000
0100
0000
1000
0010
1000
0000
,
0001
0000
0010
0100
0010
0000
0100
0000
,
1000
0001
1000
0000
0010
0100
0010
0000
,
0100
0000
0001
0010
0001
0000
1000
0000
,
0010
0000
0100
0000
0010
1000
0100
0000
,
0010
0000
0100
1000
0010
0000
0100
0000
,
0010
1000
0100
0000
0010
0001
0100
0000
,
0010
0000
0100
0001
0010
0000
0001
0000
,
1000
0000
0010
0000
0100
0001
1000
0000
,
0100
0000
1000
0001
0100
0000
0010
0000
,
0100
0001
1000
0000
0100
1000
0001
0000
,
0100
0000
0001
0010
0100
0000
1000
0000
,
0001
0000
0100
0000
0100
0010
0100
0000
,
1000
0000
0100
0010
0100
0000
1000
0000
,
0001
0100
0001
0000
1000
0100
1000
0000
,
0010
0000
0100
0010
0100
0000
0001
0000
,
0010
0000
0100
0000
1000
0010
1000
0000
,
0001
0000
0010
0100
0010
0000
0100
0000
,
1000
0001
1000
0000
0010
0100
0010
0000
,
0100
0000
0001
0010
0001
0000
1000
0000
,
0010
0000
0100
0000
0010
1000
0100
0000
,
0010
0000
0100
1000
0010
0000
0100
0000
,
0010
1000
0100
0000
0010
0001
0100
0000
,
0010
0000
0100
0001
0010
0000
0001
0000
,
1000
0000
0010
0000
0100
0001
1000
0000
,
0100
0000
1000
0001
0100
0000
0010
0000
,
0100
0001
1000
0000
0100
1000
0001
0000
,
0100
0000
0001
0010
0100
0000
1000
0000
,
0001
0000
0000
0100
0000
0000
0011
0000
0000
0000
1100
0000
,
0000
0000
0101
0000
0000
0000
1010
0000
0000
0000
0101
0000
,
0000
0000
1100
0000
0000
0000
0011
0000
0000
0000
1001
0000
,
0000
0000
0101
0000
0000
0000
1010
0000
0000
0000
1001
0000
,
0000
0000
1100
0000
0000
0000
1010
0000
0000
0000
0101
0000
,
0000
0000
1100
0000
0000
0000
0011
0000
0000
0000
1100
0000
,
0000
0000
0101
0000
0000
0000
1010
0000
0000
0000
1001
0000
,
0000
0000
1100
0000
0000
0000
0011
0000
0000
0000
1001
0000
,
0000
0000
0101
0000
0000
0000
1010
0000
0000
0000
0011
0000
,
0000
0000
0101
0000
0000
0000
1100
0000
0000
0000
0101
0000
,
0000
0000
0011
0000
0000
0000
1010
0000
0000
0000
0101
0000
,
0000
0000
1100
0000
0000
0000
0011
0000
0000
0000
1100
0000
,
0000
0000
0101
0000
0000
0000
0011
0000
0000
0000
1010
0000
,
0000
0000
1100
0000
0000
0000
0101
0000
0000
0000
1100
0000
,
0000
0000
1010
0000
0000
0000
0011
0000
0000
0000
1100
0000
,
0000
0000
0101
0000
0000
0000
1100
0000
0000
0000
0101
0000
,
0000
0000
1010
0000
0000
0000
0011
0000
0000
0000
1100
0000
,
0000
0000
0101
0000
0000
0000
1010
0000
0000
0000
0101
0000
,
0000
0000
1100
0000
0000
0000
0011
0000
0000
0000
1001
0000
,
0000
0000
0101
0000
0000
0000
1010
0000
0000
0000
1001
0000
,
0000
0000
1100
0000
0000
0000
1010
0000
0000
0000
0101
0000
,
0000
0000
1100
0000
0000
0000
0011
0000
0000
0000
1100
0000
,
0000
0000
0101
0000
0000
0000
1010
0000
0000
0000
1001
0000
,
0000
0000
1100
0000
0000
0000
0011
0000
0000
0000
1001
0000
,
0000
0000
0101
0000
0000
0000
1010
0000
0000
0000
0011
0000
,
0000
0000
0101
0000
0000
0000
1100
0000
0000
0000
0101
0000
,
0000
0000
0011
0000
0000
0000
1010
0000
0000
0000
0101
0000
,
0000
0000
1100
0000
0000
0000
0011
0000
0000
0000
1100
0000
,
0000
0000
0101
0000
0000
0000
0011
0000
0000
0000
1010
0000
,
0000
0000
1100
0000
0000
0000
0101
0000
0000
0000
1100
0000
,
0000
0000
1010
0000
0000
0000
0011
0000
0000
0000
1100
0000
,
0000
0000
0101
0000
0000
0000
2002
0000
0000
0000
0000
0000
,
0000
3003
0002
1000
,
0000
1000
0023
0100
,
0000
0100
0032
0100
,
0000
0100
2003
0010
,
0000
0000
0000
0000
0000
0000
0000
0000
0000
0000
0000
0000
0000
0000
0000
0000
0000
0000
0000
0000
0000
0000
0000
0000
0000
0000
0000
0000
0000
0000
0000
0000
0000
0000
0000
0000
0000
0000
0000
0000
0000
0000
0000
0000
0000
0000
0000
0000
0010
0000
0000
0000
0000
0000
0000
0000
0000
0000
0000
0000
0000
0000
0000
0000
0000
0000
0000
0000
0000
0000
0000
0000
0000
0000
0000
0000
0000
0000
0000
0000
0000
0000
0000
0000
0000
0000
0000
0000
0000
0000
0000
0000
0000
0000
0000
3000
0002
0000
0000
0000
0000
0000
0000
0000
0000
0000
0000
0000
0000
0000
0000
0000
0000
0000
0000
0000
0000
0000
0000
0000
0000
0000
0000
0000
0000
0000
0000
0000
0000
0000
0000
0000
0000
0000
0000
0000
0000
0000
0000
0000
0000
0000
0000
0000
1000
0000
0000
0000
0000
0000
0000
0000
0000
0000
0000
0000
0000
0000
0000
0000
0000
0000
0000
0000
0000
0000
0000
0000
0000
0000
0000
0000
0000
0000
0000
0000
0000
0000
0000
0000
0000
0000
0000
0000
0000
0000
0000
0000
0000
0000
0000
0000
,
0000
1000
0023
0100
,
0000
0100
0032
0100
,
0000
0100
2003
0010
,
0000
0000
0000
0000
0000
0000
0000
0000
0000
0000
0000
0000
0000
0000
0000
0000
0000
0000
0000
0000
0000
0000
0000
0000
0000
0000
0000
0000
0000
0000
0000
0000
0000
0000
0000
0000
0000
0000
0000
0000
0000
0000
0000
0000
0000
0000
0000
0000
0010
0000
0000
0000
0000
0000
0000
0000
0000
0000
0000
0000
0000
0000
0000
0000
0000
0000
0000
0000
0000
0000
0000
0000
0000
0000
0000
0000
0000
0000
0000
0000
0000
0000
0000
0000
0000
0000
0000
0000
0000
0000
0000
0000
0000
0000
0000
3000
0001
0000
0000
0000
0000
0000
0000
0000
0000
0000
0000
0000
0000
0000
0000
0000
0000
0000
0000
0000
0000
0000
0000
0000
0010
0000
0000
0000
0000
0000
0000
0000
0000
0000
0000
0000
0000
0000
0000
0000
0000
0000
0000
0000
0000
0000
0000
0000
0001
0000
0000
0000
0000
0000
0000
0000
0000
0000
0000
0000
0000
0000
0000
0000
0000
0000
0000
0000
0000
0000
0000
0000
0010
0000
0000
0000
0000
0000
0000
0000
0000
0000
0000
0000
0000
0000
0000
0000
0000
0000
0000
0000
0000
0000
0000
0000
,
0001
0100
0001
0100
0010
1000
0010
1000
,
0100
1000
0100
1000
0001
0010
0001
0010
,
0001
0100
0001
0100
0010
1000
0010
1000
,
0100
1000
0100
1000
0001
0010
0001
0010
,
0001
0100
0001
0100
0010
1000
0010
1000
,
0100
0000
1000
0000
0100
0000
1000
0000
0010
1000
0010
1000
0001
0100
0001
0100
,
0001
0010
0001
0010
0100
1000
0100
1000
0002
0000
0003
0000
0100
0000
0010
0000
,
0100
0000
1000
0000
0100
0010
0100
0000
,
1000
0000
0001
0100
0001
0000
1000
0100
,
1000
0000
0010
0000
0100
0010
0100
0000
,
0001
0000
0010
0000
0100
0000
1000
0010
,
1000
0000
0001
0000
0010
0100
0010
0000
,
0100
0000
1000
0001
1000
0000
0010
0100
,
0010
0000
0100
0000
0001
0010
0001
0000
,
1000
0000
0010
0000
0100
0000
0010
1000
,
0100
0000
0010
0000
0100
1000
0010
0000
,
0100
0000
0010
1000
0100
0000
0010
0001
,
0100
0000
0010
0000
0100
0001
0010
0000
,
0001
0000
1000
0000
0010
0000
0100
0001
,
1000
0000
0100
0000
1000
0001
0100
0000
,
0010
0000
0100
0001
1000
0000
0100
1000
,
0001
0000
0100
0000
0001
0010
0100
0000
,
1000
0000
0001
0000
0100
0000
0100
0010
,
0100
0000
1000
0000
0100
0010
0100
0000
,
1000
0000
0001
0100
0001
0000
1000
0100
,
1000
0000
0010
0000
0100
0010
0100
0000
,
0001
0000
0010
0000
0100
0000
1000
0010
,
1000
0000
0001
0000
0010
0100
0010
0000
,
0100
0000
1000
0001
1000
0000
0010
0100
,
0010
0000
0100
0000
0001
0010
0001
0000
,
1000
0000
0010
0000
0100
0000
0010
1000
,
0100
0000
0010
0000
0100
1000
0010
0000
,
0100
0000
0010
1000
0100
0000
0010
0001
,
0100
0000
0010
0000
0100
0001
0010
0000
,
0001
0000
1000
0000
0010
0000
0100
0001
,
1000
0000
0100
0000
1000
0001
0100
0000
,
0010
0000
0100
0001
1000
0000
0200
0300
,
0100
0010
0100
0000
1000
0000
0100
0010
,
0100
0000
1000
0000
0001
0100
0001
0000
,
1000
0100
1000
0000
0010
0000
0100
0010
,
0100
0001
0010
0100
,
1000
0010
1000
0000
0001
0000
0010
0100
,
0010
0000
0100
0000
1000
0001
1000
0000
,
0010
0100
0010
0000
0100
0000
0001
0010
,
0001
1000
0010
0100
,
0010
1000
0100
0000
0010
0000
0100
1000
,
0010
0000
0100
0000
0010
1000
0100
0000
,
0010
0001
0100
0000
0010
0000
0100
0001
,
0010
0001
1000
0010
,
0100
0001
1000
0000
0100
0000
1000
0001
,
0100
0000
0010
0000
0100
0001
1000
0000
,
0100
1000
0001
0000
0100
0000
0001
0010
,
0100
1000
0001
0100
,
0100
0010
0100
0000
1000
0000
0100
0010
,
0100
0000
1000
0000
0001
0100
0001
0000
,
1000
0100
1000
0000
0010
0000
0100
0010
,
0100
0001
0010
0100
,
1000
0010
1000
0000
0001
0000
0010
0100
,
0010
0000
0100
0000
1000
0001
1000
0000
,
0010
0100
0010
0000
0100
0000
0001
0010
,
0001
1000
0010
0100
,
0010
1000
0100
0000
0010
0000
0100
1000
,
0010
0000
0100
0000
0010
1000
0100
0000
,
0010
0001
0100
0000
0010
0000
0100
0001
,
0010
0001
1000
0010
,
0100
0001
1000
0000
0100
0000
1000
0001
,
0100
0000
0010
0000
0100
0001
1000
0000
,
0100
1000
0001
0000
0100
0000
0001
0010
,
0100
1000
0001
0100
,
0011
0000
0000
0000
1100
0000
0000
0000
0101
0000
0000
0000
,
1010
0000
0000
0000
0101
0000
0000
0000
1100
0000
0000
0000
,
0011
0000
0000
0000
1001
0000
0000
0000
0101
0000
0000
0000
,
1010
0000
0000
0000
1001
0000
0000
0000
1100
0000
0000
0000
,
1010
0000
0000
0000
0101
0000
0000
0000
1100
0000
0000
0000
,
0011
0000
0000
0000
1100
0000
0000
0000
0101
0000
0000
0000
,
1010
0000
0000
0000
1001
0000
0000
0000
1100
0000
0000
0000
,
0011
0000
0000
0000
1001
0000
0000
0000
0101
0000
0000
0000
,
1010
0000
0000
0000
0011
0000
0000
0000
0101
0000
0000
0000
,
1100
0000
0000
0000
0101
0000
0000
0000
0011
0000
0000
0000
,
1010
0000
0000
0000
0101
0000
0000
0000
1100
0000
0000
0000
,
0011
0000
0000
0000
1100
0000
0000
0000
0101
0000
0000
0000
,
0011
0000
0000
0000
1010
0000
0000
0000
1100
0000
0000
0000
,
0101
0000
0000
0000
1100
0000
0000
0000
1010
0000
0000
0000
,
0011
0000
0000
0000
1100
0000
0000
0000
0101
0000
0000
0000
,
1100
0000
0000
0000
0101
0000
0000
0000
1010
0000
0000
0000
,
0011
0000
0000
0000
1100
0000
0000
0000
0101
0000
0000
0000
,
1010
0000
0000
0000
0101
0000
0000
0000
1100
0000
0000
0000
,
0011
0000
0000
0000
1001
0000
0000
0000
0101
0000
0000
0000
,
1010
0000
0000
0000
1001
0000
0000
0000
1100
0000
0000
0000
,
1010
0000
0000
0000
0101
0000
0000
0000
1100
0000
0000
0000
,
0011
0000
0000
0000
1100
0000
0000
0000
0101
0000
0000
0000
,
1010
0000
0000
0000
1001
0000
0000
0000
1100
0000
0000
0000
,
0011
0000
0000
0000
1001
0000
0000
0000
0101
0000
0000
0000
,
1010
0000
0000
0000
0011
0000
0000
0000
0101
0000
0000
0000
,
1100
0000
0000
0000
0101
0000
0000
0000
0011
0000
0000
0000
,
1010
0000
0000
0000
0101
0000
0000
0000
1100
0000
0000
0000
,
0011
0000
0000
0000
1100
0000
0000
0000
0101
0000
0000
0000
,
0011
0000
0000
0000
1010
0000
0000
0000
1100
0000
0000
0000
,
0101
0000
0000
0000
1100
0000
0000
0000
1010
0000
0000
0000
,
0011
0000
0000
0000
1100
0000
0000
0000
0101
0000
0000
0000
,
2002
0000
0000
3003
,
0002
1000
0000
1000
,
0023
0100
0000
0100
,
0032
0100
0000
0100
,
2003
0000
0000
0000
0000
0000
0000
0000
0000
0000
0000
0000
0000
0000
0000
0000
0000
0000
0000
0000
0000
0000
0000
0000
0000
0000
0000
0000
0000
0000
0000
0000
0000
0000
0000
0000
0000
0000
0000
0000
0000
0000
0000
0000
0000
0000
0000
0000
0010
0000
0000
0000
0000
0000
0000
0000
0000
0000
0000
0000
0000
0000
0000
0000
0000
0000
0000
0000
0000
0000
0000
0000
0000
0000
0000
0000
0000
0000
0000
0000
0000
0000
0000
0000
0000
0000
0000
0000
0000
0000
0000
0000
0000
0000
0000
0000
0000
0000
0000
0000
0000
0000
0000
0000
0000
0000
0000
0000
0000
0000
0000
0000
0000
0000
0000
0000
0000
0000
0000
0000
0000
0000
0000
0000
0000
0000
0000
0000
0000
0000
0000
0000
0000
0000
0000
0000
0000
0000
0000
0000
0000
0000
0000
0000
0010
0000
0000
0000
0000
0000
0000
0000
0000
0000
0000
0000
0000
0000
0000
0000
0000
0000
0000
0000
0000
0000
0000
0000
0000
0000
0000
0000
0000
0000
0000
0000
0000
0000
0000
0000
0000
0000
0000
0000
0000
0000
0000
0000
0000
0000
0000
3000
,
0002
1000
0000
1000
,
0023
0100
0000
0100
,
0032
0100
0000
0100
,
2003
0000
0000
0000
0000
0000
0000
0000
0000
0000
0000
0000
0000
0000
0000
0000
0000
0000
0000
0000
0000
0000
0000
0000
0000
0000
0000
0000
0000
0000
0000
0000
0000
0000
0000
0000
0000
0000
0000
0000
0000
0000
0000
0000
0000
0000
0000
0000
0010
0000
0000
0000
0000
0000
0000
0000
0000
0000
0000
0000
0000
0000
0000
0000
0000
0000
0000
0000
0000
0000
0000
0000
0000
0000
0000
0000
0000
0000
0000
0000
0000
0000
0000
0000
0000
0000
0000
0000
0000
0000
0000
0000
0000
0000
0000
0000
0000
0000
0000
0000
0000
0000
0000
0000
0000
0000
0000
0000
0000
0000
0000
0000
0000
0000
0000
0000
0000
0000
0000
0000
0000
0000
0000
0000
0000
0000
0000
0000
0000
0000
0000
0000
0000
0000
0000
0000
0000
0000
0000
0000
0000
0000
0000
0000
0010
0000
0000
0000
0000
0000
0000
0000
0000
0000
0000
0000
0000
0000
0000
0000
0000
0000
0000
0000
0000
0000
0000
0000
0000
0000
0000
0000
0000
0000
0000
0000
0000
0000
0000
0000
0000
0000
0000
0000
0000
0000
0000
0000
0000
0000
0000
3000
,
0001
0010
0001
0010
0001
0100
0001
0100
,
0010
1000
0010
1000
0100
1000
0100
1000
,
0001
0010
0001
0010
0001
0100
0001
0100
,
0010
1000
0010
1000
0100
1000
0100
1000
,
0001
0010
0001
0010
0001
0100
0001
0100
,
0010
1000
0010
1000
0100
1000
0100
1000
,
0010
1000
0010
1000
0001
0100
0001
0100
0001
0010
0001
0010
0100
1000
0100
1000
,
0002
0003
0100
0010
0100
0000
1000
0000
,
0100
0010
0100
0000
1000
0000
0001
0100
,
0001
0000
1000
0100
1000
0000
0010
0000
,
0100
0010
0100
0000
0001
0000
0010
0000
,
0100
0000
1000
0010
1000
0000
0001
0000
,
0010
0100
0010
0000
0100
0000
1000
0001
,
1000
0000
0010
0100
0010
0000
0100
0000
,
0001
0010
0001
0000
1000
0000
0010
0000
,
0100
0000
0010
1000
0100
0000
0010
0000
,
0100
1000
0010
0000
0100
0000
0010
1000
,
0100
0000
0010
0001
0100
0000
0010
0000
,
0100
0001
0010
0000
0001
0000
1000
0000
,
0010
0000
0100
0001
1000
0000
0100
0000
,
1000
0001
0100
0000
0010
0000
0100
0001
,
1000
0000
0100
1000
0001
0000
0100
0000
,
0001
0010
0100
0000
1000
0000
0001
0000
,
0100
0000
0100
0010
0100
0000
1000
0000
,
0100
0010
0100
0000
1000
0000
0001
0100
,
0001
0000
1000
0100
1000
0000
0010
0000
,
0100
0010
0100
0000
0001
0000
0010
0000
,
0100
0000
1000
0010
1000
0000
0001
0000
,
0010
0100
0010
0000
0100
0000
1000
0001
,
1000
0000
0010
0100
0010
0000
0100
0000
,
0001
0010
0001
0000
1000
0000
0010
0000
,
0100
0000
0010
1000
0100
0000
0010
0000
,
0100
1000
0010
0000
0100
0000
0010
1000
,
0100
0000
0010
0001
0100
0000
0010
0000
,
0100
0001
0010
0000
0001
0000
1000
0000
,
0010
0000
0100
0001
1000
0000
0100
0000
,
1000
0001
0100
0000
0010
0000
0100
0001
,
1000
0000
0200
0300
0100
0010
0100
0000
,
1000
0000
0100
0010
0100
0000
1000
0000
,
0001
0100
0001
0000
1000
0100
1000
0000
,
0010
0000
0100
0010
0100
0000
0001
0000
,
0010
0000
0100
0000
1000
0010
1000
0000
,
0001
0000
0010
0100
0010
0000
0100
0000
,
1000
0001
1000
0000
0010
0100
0010
0000
,
0100
0000
0001
0010
0001
0000
1000
0000
,
0010
0000
0100
0000
0010
1000
0100
0000
,
0010
0000
0100
1000
0010
0000
0100
0000
,
0010
1000
0100
0000
0010
0001
0100
0000
,
0010
0000
0100
0001
0010
0000
0001
0000
,
1000
0000
0010
0000
0100
0001
1000
0000
,
0100
0000
1000
0001
0100
0000
0010
0000
,
0100
0001
1000
0000
0100
1000
0001
0000
,
0100
0000
0001
0010
0100
0000
1000
0000
,
0001
0000
0100
0000
0100
0010
0100
0000
,
1000
0000
0100
0010
0100
0000
1000
0000
,
0001
0100
0001
0000
1000
0100
1000
0000
,
0010
0000
0100
0010
0100
0000
0001
0000
,
0010
0000
0100
0000
1000
0010
1000
0000
,
0001
0000
0010
0100
0010
0000
0100
0000
,
1000
0001
1000
0000
0010
0100
0010
0000
,
0100
0000
0001
0010
0001
0000
1000
0000
,
0010
0000
0100
0000
0010
1000
0100
0000
,
0010
0000
0100
1000
0010
0000
0100
0000
,
0010
1000
0100
0000
0010
0001
0100
0000
,
0010
0000
0100
0001
0010
0000
0001
0000
,
1000
0000
0010
0000
0100
0001
1000
0000
,
0100
0000
1000
0001
0100
0000
0010
0000
,
0100
0001
1000
0000
0100
1000
0001
0000
,
0100
0000
0001
0010
0100
0000
1000
0000
,
0001
0000
0000
0100
0000
0000
0011
0000
0000
0000
1100
0000
,
0000
0000
0101
0000
0000
0000
1010
0000
0000
0000
0101
0000
,
0000
0000
1100
0000
0000
0000
0011
0000
0000
0000
1001
0000
,
0000
0000
0101
0000
0000
0000
1010
0000
0000
0000
1001
0000
,
0000
0000
1100
0000
0000
0000
1010
0000
0000
0000
0101
0000
,
0000
0000
1100
0000
0000
0000
0011
0000
0000
0000
1100
0000
,
0000
0000
0101
0000
0000
0000
1010
0000
0000
0000
1001
0000
,
0000
0000
1100
0000
0000
0000
0011
0000
0000
0000
1001
0000
,
0000
0000
0101
0000
0000
0000
1010
0000
0000
0000
0011
0000
,
0000
0000
0101
0000
0000
0000
1100
0000
0000
0000
0101
0000
,
0000
0000
0011
0000
0000
0000
1010
0000
0000
0000
0101
0000
,
0000
0000
1100
0000
0000
0000
0011
0000
0000
0000
1100
0000
,
0000
0000
0101
0000
0000
0000
0011
0000
0000
0000
1010
0000
,
0000
0000
1100
0000
0000
0000
0101
0000
0000
0000
1100
0000
,
0000
0000
1010
0000
0000
0000
0011
0000
0000
0000
1100
0000
,
0000
0000
0101
0000
0000
0000
1100
0000
0000
0000
0101
0000
,
0000
0000
1010
0000
0000
0000
0011
0000
0000
0000
1100
0000
,
0000
0000
0101
0000
0000
0000
1010
0000
0000
0000
0101
0000
,
0000
0000
1100
0000
0000
0000
0011
0000
0000
0000
1001
0000
,
0000
0000
0101
0000
0000
0000
1010
0000
0000
0000
1001
0000
,
0000
0000
1100
0000
0000
0000
1010
0000
0000
0000
0101
0000
,
0000
0000
1100
0000
0000
0000
0011
0000
0000
0000
1100
0000
,
0000
0000
0101
0000
0000
0000
1010
0000
0000
0000
1001
0000
,
0000
0000
1100
0000
0000
0000
0011
0000
0000
0000
1001
0000
,
0000
0000
0101
0000
0000
0000
1010
0000
0000
0000
0011
0000
,
0000
0000
0101
0000
0000
0000
1100
0000
0000
0000
0101
0000
,
0000
0000
0011
0000
0000
0000
1010
0000
0000
0000
0101
0000
,
0000
0000
1100
0000
0000
0000
0011
0000
0000
0000
1100
0000
,
0000
0000
0101
0000
0000
0000
0011
0000
0000
0000
1010
0000
,
0000
0000
1100
0000
0000
0000
0101
0000
0000
0000
1100
0000
,
0000
0000
1010
0000
0000
0000
0011
0000
0000
0000
1100
0000
,
0000
0000
0101
0000
0000
0000
2002
0000
0000
0000
0000
0000
,
0000
3003
0002
1000
,
0000
1000
0023
0100
,
0000
0100
0032
0100
,
0000
0100
2003
0010
,
0000
0000
0000
0000
0000
0000
0000
0000
0000
0000
0000
0000
0000
0000
0000
0000
0000
0000
0000
0000
0000
0000
0000
0000
0000
0000
0000
0000
0000
0000
0000
0000
0000
0000
0000
0000
0000
0000
0000
0000
0000
0000
0000
0000
0000
0000
0000
0000
0010
0000
0000
0000
0000
0000
0000
0000
0000
0000
0000
0000
0000
0000
0000
0000
0000
0000
0000
0000
0000
0000
0000
0000
0000
0000
0000
0000
0000
0000
0000
0000
0000
0000
0000
0000
0000
0000
0000
0000
0000
0000
0000
0000
0000
0000
0000
3000
0002
0000
0000
0000
0000
0000
0000
0000
0000
0000
0000
0000
0000
0000
0000
0000
0000
0000
0000
0000
0000
0000
0000
0000
0000
0000
0000
0000
0000
0000
0000
0000
0000
0000
0000
0000
0000
0000
0000
0000
0000
0000
0000
0000
0000
0000
0000
0000
1000
0000
0000
0000
0000
0000
0000
0000
0000
0000
0000
0000
0000
0000
0000
0000
0000
0000
0000
0000
0000
0000
0000
0000
0000
0000
0000
0000
0000
0000
0000
0000
0000
0000
0000
0000
0000
0000
0000
0000
0000
0000
0000
0000
0000
0000
0000
0000
,
0000
1000
0023
0100
,
0000
0100
0032
0100
,
0000
0100
2003
0010
,
0000
0000
0000
0000
0000
0000
0000
0000
0000
0000
0000
0000
0000
0000
0000
0000
0000
0000
0000
0000
0000
0000
0000
0000
0000
0000
0000
0000
0000
0000
0000
0000
0000
0000
0000
0000
0000
0000
0000
0000
0000
0000
0000
0000
0000
0000
0000
0000
0010
0000
0000
0000
0000
0000
0000
0000
0000
0000
0000
0000
0000
0000
0000
0000
0000
0000
0000
0000
0000
0000
0000
0000
0000
0000
0000
0000
0000
0000
0000
0000
0000
0000
0000
0000
0000
0000
0000
0000
0000
0000
0000
0000
0000
0000
0000
3000
0001
0000
0000
0000
0000
0000
0000
0000
0000
0000
0000
0000
0000
0000
0000
0000
0000
0000
0000
0000
0000
0000
0000
0000
0010
0000
0000
0000
0000
0000
0000
0000
0000
0000
0000
0000
0000
0000
0000
0000
0000
0000
0000
0000
0000
0000
0000
0000
0001
0000
0000
0000
0000
0000
0000
0000
0000
0000
0000
0000
0000
0000
0000
0000
0000
0000
0000
0000
0000
0000
0000
0000
0010
0000
0000
0000
0000
0000
0000
0000
0000
0000
0000
0000
0000
0000
0000
0000
0000
0000
0000
0000
0000
0000
0000
0000
,
0001
0100
0001
0100
0010
1000
0010
1000
,
0100
1000
0100
1000
0001
0010
0001
0010
,
0001
0100
0001
0100
0010
1000
0010
1000
,
0100
1000
0100
1000
0001
0010
0001
0010
,
0001
0100
0001
0100
0010
1000
0010
1000
,
0100
0000
1000
0000
0100
0000
1000
0000
0010
1000
0010
1000
0001
0100
0001
0100
,
0001
0010
0001
0010
0100
1000
0100
1000
0002
0000
0003
0000
0100
0000
0010
0000
,
0100
0000
1000
0000
0100
0010
0100
0000
,
1000
0000
0001
0100
0001
0000
1000
0100
,
1000
0000
0010
0000
0100
0010
0100
0000
,
0001
0000
0010
0000
0100
0000
1000
0010
,
1000
0000
0001
0000
0010
0100
0010
0000
,
0100
0000
1000
0001
1000
0000
0010
0100
,
0010
0000
0100
0000
0001
0010
0001
0000
,
1000
0000
0010
0000
0100
0000
0010
1000
,
0100
0000
0010
0000
0100
1000
0010
0000
,
0100
0000
0010
1000
0100
0000
0010
0001
,
0100
0000
0010
0000
0100
0001
0010
0000
,
0001
0000
1000
0000
0010
0000
0100
0001
,
1000
0000
0100
0000
1000
0001
0100
0000
,
0010
0000
0100
0001
1000
0000
0100
1000
,
0001
0000
0100
0000
0001
0010
0100
0000
,
1000
0000
0001
0000
0100
0000
0100
0010
,
0100
0000
1000
0000
0100
0010
0100
0000
,
1000
0000
0001
0100
0001
0000
1000
0100
,
1000
0000
0010
0000
0100
0010
0100
0000
,
0001
0000
0010
0000
0100
0000
1000
0010
,
1000
0000
0001
0000
0010
0100
0010
0000
,
0100
0000
1000
0001
1000
0000
0010
0100
,
0010
0000
0100
0000
0001
0010
0001
0000
,
1000
0000
0010
0000
0100
0000
0010
1000
,
0100
0000
0010
0000
0100
1000
0010
0000
,
0100
0000
0010
1000
0100
0000
0010
0001
,
0100
0000
0010
0000
0100
0001
0010
0000
,
0001
0000
1000
0000
0010
0000
0100
0001
,
1000
0000
0100
0000
1000
0001
0100
0000
,
0010
0000
0100
0001
1000
0000
0200
0300
,
0100
0010
0100
0000
1000
0000
0100
0010
,
0100
0000
1000
0000
0001
0100
0001
0000
,
1000
0100
1000
0000
0010
0000
0100
0010
,
0100
0001
0010
0100
,
1000
0010
1000
0000
0001
0000
0010
0100
,
0010
0000
0100
0000
1000
0001
1000
0000
,
0010
0100
0010
0000
0100
0000
0001
0010
,
0001
1000
0010
0100
,
0010
1000
0100
0000
0010
0000
0100
1000
,
0010
0000
0100
0000
0010
1000
0100
0000
,
0010
0001
0100
0000
0010
0000
0100
0001
,
0010
0001
1000
0010
,
0100
0001
1000
0000
0100
0000
1000
0001
,
0100
0000
0010
0000
0100
0001
1000
0000
,
0100
1000
0001
0000
0100
0000
0001
0010
,
0100
1000
0001
0100
,
0100
0010
0100
0000
1000
0000
0100
0010
,
0100
0000
1000
0000
0001
0100
0001
0000
,
1000
0100
1000
0000
0010
0000
0100
0010
,
0100
0001
0010
0100
,
1000
0010
1000
0000
0001
0000
0010
0100
,
0010
0000
0100
0000
1000
0001
1000
0000
,
0010
0100
0010
0000
0100
0000
0001
0010
,
0001
1000
0010
0100
,
0010
1000
0100
0000
0010
0000
0100
1000
,
0010
0000
0100
0000
0010
1000
0100
0000
,
0010
0001
0100
0000
0010
0000
0100
0001
,
0010
0001
1000
0010
,
0100
0001
1000
0000
0100
0000
1000
0001
,
0100
0000
0010
0000
0100
0001
1000
0000
,
0100
1000
0001
0000
0100
0000
0001
0010
,
0100
1000
0001
0100
,
0010
1000
0001
1000
0100
0000
0010
0001
,
0100
0000
0010
0000
1000
0100
1000
0000
,
0001
0010
0200
0000
1300
0000
0001
0100
,
0001
0000
1000
0100
1000
0000
0100
0000
,
0010
0001
1000
0001
0100
0000
0010
1000
,
0100
0000
0010
0000
0001
0100
0001
0000
,
1000
0010
0200
0000
0301
0000
1000
0100
,
1000
0000
0001
0100
0001
0000
0010
0000
,
0001
0100
0010
0100
0001
0000
1000
0010
,
0100
0000
0010
0000
1000
0100
0010
0000
,
0001
1000
0010
0000
0100
0000
0001
1000
,
0100
0000
0010
0100
0010
0000
0001
0000
,
1000
0010
0100
0010
1000
0000
0001
0010
,
0100
0000
0010
0000
0001
0100
0010
0000
,
1000
0001
0010
0000
0100
0000
1000
0001
,
0100
0010
1000
0100
0010
0001
0100
0000
,
0010
1000
0001
1000
0100
0000
0010
0001
,
0100
0000
0010
0000
1000
0100
1000
0000
,
0001
0010
0200
0000
1300
0000
0001
0100
,
0001
0000
1000
0100
1000
0000
0100
0000
,
0010
0001
1000
0001
0100
0000
0010
1000
,
0100
0000
0010
0000
0001
0100
0001
0000
,
1000
0010
0200
0000
0301
0000
1000
0100
,
1000
0000
0001
0100
0001
0000
0010
0000
,
0001
0100
0010
0100
0001
0000
1000
0010
,
0100
0000
0010
0000
1000
0100
0010
0000
,
0001
1000
0010
0000
0100
0000
0001
1000
,
0100
0000
0010
0100
0010
0000
0001
0000
,
1000
0010
0100
0010
1000
0000
0001
0010
,
0100
0000
0010
0000
0001
0100
0010
0000
,
1000
0001
0010
0000
0100
0000
1000
0001
,
0100
0010
1000
0100
0010
0001
0100
0000
,
1010
0000
0000
0000
0101
0000
0000
0000
1100
0000
0000
0000
,
0011
0000
0000
0000
1100
0000
0000
0000
0101
0000
0000
0000
,
1010
0000
0000
0000
1001
0000
0000
0000
1100
0000
0000
0000
,
0011
0000
0000
0000
1001
0000
0000
0000
0101
0000
0000
0000
,
0011
0000
0000
0000
1100
0000
0000
0000
0101
0000
0000
0000
,
1010
0000
0000
0000
0101
0000
0000
0000
1100
0000
0000
0000
,
0011
0000
0000
0000
1001
0000
0000
0000
0101
0000
0000
0000
,
1010
0000
0000
0000
1001
0000
0000
0000
1100
0000
0000
0000
,
0011
0000
0000
0000
1010
0000
0000
0000
1100
0000
0000
0000
,
0101
0000
0000
0000
1100
0000
0000
0000
1010
0000
0000
0000
,
0011
0000
0000
0000
1100
0000
0000
0000
0101
0000
0000
0000
,
1010
0000
0000
0000
0101
0000
0000
0000
1100
0000
0000
0000
,
1010
0000
0000
0000
0011
0000
0000
0000
0101
0000
0000
0000
,
1100
0000
0000
0000
0101
0000
0000
0000
0011
0000
0000
0000
,
1010
0000
0000
0000
0101
0000
0000
0000
1100
0000
0000
0000
,
0011
0000
0000
0000
1100
0000
0000
0000
0101
0000
0000
0000
,
0010
0000
0001
0000
0100
0000
0010
0000
0100
0000
0001
0000
,
0011
0000
0000
0000
1100
0000
0000
0000
0101
0000
0000
0000
,
0010
0000
1000
0000
0100
0000
0010
0000
0100
0000
1000
0000
,
1010
0000
0000
0000
0101
0000
0000
0000
1100
0000
0000
0000
,
0010
0000
0001
0000
0100
0000
0010
0000
0100
0000
0001
0000
,
0011
0000
0000
0000
1100
0000
0000
0000
0101
0000
0000
0000
,
0010
0000
1000
0000
0100
0000
0010
0000
0100
0000
1000
0000
,
1010
0000
0000
0000
0101
0000
0000
0000
1100
0000
0000
0000
,
1000
0000
0001
0000
0100
0000
0010
0000
0100
0000
0001
0000
,
1000
0000
0100
0000
0010
0000
0100
0000
1000
0000
0010
0000
,
1000
0000
0001
0000
0100
0000
0010
0000
0100
0000
0001
0000
,
1000
0000
0100
0000
0010
0000
0100
0000
1000
0000
0001
0000
,
0010
0000
0001
0000
0100
0000
0010
0000
0100
0000
0010
0000
,
1000
0000
0100
0000
0010
0000
0001
0000
0010
0000
0001
0000
,
1001
0000
0000
0000
1100
0000
0000
0000
0101
0000
0000
0000
,
0220
0000
0000
0330
,
2002
0000
0000
0000
,
0000
0000
0000
0000
,
0000
0000
0000
0000
,
0000
0000
0000
3003
;

//--------------- dance-single - Tundrus ----------------
#NOTES:
     dance-single:
     Tundrus:
     Challenge:
     36:
     0,0,0,0,0:
0000
0000
0000
0000
,
0000
0000
0000
0000
,
0000
0000
0000
0000
,
0000
0000
0000
0000
,
0000
0000
0000
0000
,
0000
0000
0000
0000
,
0000
0000
0000
0000
,
0000
0000
0000
0000
,
0000
0010
1000
0001
,
0010
0100
0010
0001
,
0100
0010
1000
0100
,
0010
0100
1000
0001
,
0100
0001
0010
0100
,
1000
0010
0100
0001
,
1000
0001
0100
1000
,
0100
0001
0010
0100
,
0010
0001
1000
0010
,
0100
0001
0010
1000
,
0100
1000
0001
0010
,
0100
1000
0010
0001
,
0100
1000
0100
0001
,
0100
1000
0100
0001
,
0100
1000
0100
1000
,
0100
1000
0010
0001
,
0100
0001
0010
0100
,
1000
0010
0100
0001
,
0010
0100
1000
0010
,
0100
0001
0010
0100
,
1000
0010
1000
0010
,
1000
0001
0010
0001
,
0010
0100
1000
0100
,
1000
0001
0100
0001
,
0100
0001
1000
0001
,
0010
0001
0010
0100
,
0010
0001
1000
0001
,
1000
0001
0100
0010
,
0100
0001
0100
0001
,
0010
0001
0010
0100
,
1000
0010
0100
0001
,
0100
0010
0100
0010
,
1000
0010
1000
0001
,
0010
0100
0010
0001
,
0100
0010
1000
0100
,
0010
0100
1000
0001
,
0100
0001
0010
0100
,
1000
0010
0100
0001
,
1000
0001
0100
1000
,
0100
0001
0010
0100
,
0010
0001
1000
0010
,
0100
0001
0010
1000
,
0100
1000
0001
0010
,
0100
1000
0010
0001
,
0100
1000
0100
0001
,
0100
1000
0100
0001
,
0100
1000
0100
1000
,
0100
1000
0010
0001
,
0100
0001
0010
0100
,
1000
0010
0100
0001
,
0010
0100
1000
0010
,
0100
0001
0010
0100
,
1000
0010
1000
0010
,
1000
0001
0010
0001
,
0010
0100
1000
0100
,
1000
0001
0100
0001
,
0100
0220
0000
0000
,
0000
0000
0000
0000
,
0330
0001
2000
0000
0000
0002
0000
0000
,
0000
0000
3003
1010
,
0101
0000
0000
0000
0001
0000
0001
0000
0100
0000
1000
0100
0010
0100
1000
0000
,
0010
0000
0100
0010
0100
0000
0100
0000
0010
0000
0001
0010
0100
0010
0001
0000
,
1000
0000
0001
0100
0001
0000
1000
0000
0010
0000
1100
0000
0000
0000
0010
0000
,
0101
0000
0010
1001
0000
0100
0010
0100
,
0110
0000
0001
0000
1000
0000
0100
0010
,
0100
0000
1000
0000
0001
0100
0001
0000
,
1000
0100
1000
0000
0010
0000
0100
0010
,
0100
0001
0010
0100
,
1000
0010
1000
0000
0001
0000
0010
0100
,
0010
0000
0100
0000
1000
0001
1000
0000
,
0010
0100
0010
0000
0100
0000
0001
0010
,
0001
1000
0010
0100
,
0020
1000
0130
0000
0010
0000
0200
1000
,
0310
0000
0100
0000
0020
1000
0130
0000
,
0020
0001
0130
0000
0010
0000
0200
0001
,
0310
0001
1000
0010
,
0200
0001
1300
0000
0100
0000
2000
0001
,
3100
0000
1000
0000
0200
0001
1300
0000
,
0200
1000
0310
0000
0100
0000
0002
0010
,
0103
1000
0001
0100
,
1000
0000
0001
0000
1000
0000
0100
0010
,
0100
0000
1000
0000
0001
0100
0001
0000
,
1000
0100
1000
0000
0010
0000
0100
0010
,
0100
0001
0010
0100
,
1000
0010
1000
0000
0001
0000
0010
0100
,
0010
0000
0100
0000
1000
0001
1000
0000
,
0010
0100
0010
0000
0100
0000
0001
0010
,
0001
1000
0010
0100
,
0020
1000
0130
0000
0010
0000
0200
1000
,
0310
0000
0100
0000
0020
1000
0130
0000
,
0020
0001
0130
0000
0010
0000
0200
0001
,
0310
0001
1000
0010
,
0200
0001
1300
0000
0100
0000
2000
0001
,
3100
0000
1000
0000
0200
0001
1300
0000
,
0200
1000
0310
0000
0100
0000
0002
0010
,
0103
1000
0001
0100
,
1010
0000
0000
0000
0101
0000
0000
0000
1100
0000
0000
0000
,
0011
0000
0000
0000
1100
0000
0000
0000
0101
0000
0000
0000
,
1010
0000
0000
0000
1001
0000
0000
0000
1100
0000
0000
0000
,
0011
0000
0000
0000
1001
0000
0000
0000
0101
0000
0000
0000
,
0011
0000
0000
0000
1100
0000
0000
0000
0101
0000
0000
0000
,
1010
0000
0000
0000
0101
0000
0000
0000
1100
0000
0000
0000
,
0011
0000
0000
0000
1001
0000
0000
0000
0101
0000
0000
0000
,
1010
0000
0000
0000
1001
0000
0000
0000
1100
0000
0000
0000
,
0011
0000
0000
0000
1010
0000
0000
0000
1100
0000
0000
0000
,
0101
0000
0000
0000
1100
0000
0000
0000
1010
0000
0000
0000
,
0011
0000
0000
0000
1100
0000
0000
0000
0101
0000
0000
0000
,
1010
0000
0000
0000
0101
0000
0000
0000
1100
0000
0000
0000
,
1010
0000
0000
0000
0011
0000
0000
0000
0101
0000
0000
0000
,
1100
0000
0000
0000
0101
0000
0000
0000
0011
0000
0000
0000
,
1010
0000
0000
0000
0101
0000
0000
0000
1100
0000
0000
0000
,
1001
0000
0000
0000
1001
0000
0000
0000
0110
0000
0000
0000
,
1010
0000
0000
0000
0101
0000
0000
0000
1100
0000
0000
0000
,
0011
0000
0000
0000
1100
0000
0000
0000
0101
0000
0000
0000
,
1010
0000
0000
0000
1001
0000
0000
0000
1100
0000
0000
0000
,
0011
0000
0000
0000
1001
0000
0000
0000
0101
0000
0000
0000
,
0011
0000
0000
0000
1100
0000
0000
0000
0101
0000
0000
0000
,
1010
0000
0000
0000
0101
0000
0000
0000
1100
0000
0000
0000
,
0011
0000
0000
0000
1001
0000
0000
0000
0101
0000
0000
0000
,
1010
0000
0000
0000
1001
0000
0000
0000
1100
0000
0000
0000
,
0011
0000
0000
0000
1010
0000
0000
0000
1100
0000
0000
0000
,
0101
0000
0000
0000
1100
0000
0000
0000
1010
0000
0000
0000
,
0011
0000
0000
0000
1100
0000
0000
0000
0101
0000
0000
0000
,
1010
0000
0000
0000
0101
0000
0000
0000
1100
0000
0000
0000
,
1010
0000
0000
0000
0011
0000
0000
0000
0101
0000
0000
0000
,
1100
0000
0000
0000
0101
0000
0000
0000
0011
0000
0000
0000
,
1010
0000
0000
0000
0101
0000
0000
0000
1100
0000
0000
0000
,
1001
0000
0001
0000
0100
0010
0100
0010
,
2000
0001
0000
0001
,
3020
0100
0000
0100
,
2030
0100
0000
0100
,
3002
0000
0000
0000
0000
0000
0000
0000
0000
0000
0000
0000
0000
0000
0000
0000
0000
0000
0000
0000
0000
0000
0000
0000
0000
0000
0000
0000
0000
0000
0000
0000
0000
0000
0000
0000
0000
0000
0000
0000
0000
0000
0000
0000
0000
0000
0000
0000
0010
0000
0000
0000
0000
0000
0000
0000
0000
0000
0000
0000
0000
0000
0000
0000
0000
0000
0000
0000
0000
0000
0000
0000
0000
0000
0000
0000
0000
0000
0000
0000
0000
0000
0000
0000
0000
0000
0000
0000
0000
0000
0000
0000
0000
0000
0000
0000
0000
0000
0000
0000
0000
0000
0000
0000
0000
0000
0000
0000
0000
0000
0000
0000
0000
0000
0000
0000
0000
0000
0000
0000
0000
0000
0000
0000
0000
0000
0000
0000
0000
0000
0000
0000
0000
0000
0000
0000
0000
0000
0000
0000
0000
0000
0000
0000
0010
0000
0000
0000
0000
0000
0000
0000
0000
0000
0000
0000
0000
0000
0000
0000
0000
0000
0000
0000
0000
0000
0000
0000
0000
0000
0000
0000
0000
0000
0000
0000
0000
0000
0000
0000
0000
0000
0000
0000
0000
0000
0000
0000
0000
0000
0000
0003
,
2000
0001
0000
0001
,
3020
0100
0000
0100
,
2030
0100
0000
0100
,
3002
0000
0000
0000
0000
0000
0000
0000
0000
0000
0000
0000
0000
0000
0000
0000
0000
0000
0000
0000
0000
0000
0000
0000
0000
0000
0000
0000
0000
0000
0000
0000
0000
0000
0000
0000
0000
0000
0000
0000
0000
0000
0000
0000
0000
0000
0000
0000
0010
0000
0000
0000
0000
0000
0000
0000
0000
0000
0000
0000
0000
0000
0000
0000
0000
0000
0000
0000
0000
0000
0000
0000
0000
0000
0000
0000
0000
0000
0000
0000
0000
0000
0000
0000
0000
0000
0000
0000
0000
0000
0000
0000
0000
0000
0000
0000
0000
0000
0000
0000
0000
0000
0000
0000
0000
0000
0000
0000
0000
0000
0000
0000
0000
0000
0000
0000
0000
0000
0000
0000
0000
0000
0000
0000
0000
0000
0000
0000
0000
0000
0000
0000
0000
0000
0000
0000
0000
0000
0000
0000
0000
0000
0000
0000
0010
0000
0000
0000
0000
0000
0000
0000
0000
0000
0000
0000
0000
0000
0000
0000
0000
0000
0000
0000
0000
0000
0000
0000
0000
0000
0000
0000
0000
0000
0000
0000
0000
0000
0000
0000
0000
0000
0000
0000
0000
0000
0000
0000
0000
0000
0000
0003
,
1000
0010
1000
0010
1000
0100
1000
0100
,
0010
0001
0010
0001
0100
0001
0100
0001
,
1000
0010
1000
0010
1000
0100
1000
0100
,
0010
0001
0010
0001
0100
0001
0100
0001
,
1000
0010
1000
0010
1000
0100
1000
0100
,
0010
0001
0010
0001
0100
0001
0100
0001
,
0010
0001
0100
0010
0100
0010
1000
0100
0010
0100
0010
0001
0100
0010
0100
0010
,
2000
3000
0100
0010
0100
0000
0001
0000
,
0100
0010
0100
0000
0001
0000
1000
0100
,
1000
0000
0001
0100
0001
0000
0010
0000
,
0100
0010
0100
0000
1000
0000
0010
0000
,
0100
0000
0001
0010
0001
0000
1000
0000
,
0010
0100
0010
0000
0100
0000
0001
1000
,
0001
0000
0010
0100
0010
0000
0100
0000
,
1000
0010
1000
0000
0001
0000
0010
0000
,
0100
0000
0020
0001
0130
0000
0010
0000
,
0200
0001
0310
0000
0100
0000
0020
0001
,
0130
0000
0020
1000
0130
0000
0010
0000
,
0200
1000
0310
0000
1000
0000
0001
0000
,
0010
0000
0200
1000
0301
0000
0100
0000
,
0002
1000
0103
0000
0001
0000
0200
1000
,
0301
0000
0200
0001
0310
0000
0100
0000
,
2000
0010
3100
0000
0001
0000
1000
0000
,
0100
0000
0100
0010
0100
0000
0001
0000
,
0100
0010
0100
0000
0001
0000
1000
0100
,
1000
0000
0001
0100
0001
0000
0010
0000
,
0100
0010
0100
0000
1000
0000
0010
0000
,
0100
0000
0001
0010
0001
0000
1000
0000
,
0010
0100
0010
0000
0100
0000
0001
1000
,
0001
0000
0010
0100
0010
0000
0100
0000
,
1000
0010
1000
0000
0001
0000
0010
0000
,
0100
0000
0020
0001
0130
0000
0010
0000
,
0200
0001
0310
0000
0100
0000
0020
0001
,
0130
0000
0020
1000
0130
0000
0010
0000
,
0200
1000
0310
0000
1000
0000
0001
0000
,
0010
0000
0200
1000
0301
0000
0100
0000
,
0002
1000
0103
0000
0001
0000
0200
1000
,
0301
0000
0200
0300
0100
0010
0100
0000
,
0001
0000
0100
0010
0100
0000
0001
0000
,
1000
0100
1000
0000
0001
0100
0001
0000
,
0010
0000
0100
0010
0100
0000
1000
0000
,
0010
0000
0100
0000
0001
0010
0001
0000
,
1000
0000
0010
0100
0010
0000
0100
0000
,
0001
1000
0001
0000
0010
0100
0010
0000
,
0100
0000
1000
0010
1000
0000
0001
0000
,
0010
0000
0100
0000
0020
0001
0130
0000
,
0010
0000
0200
0001
0310
0000
0100
0000
,
0020
0001
0130
0000
0020
1000
0130
0000
,
0010
0000
0200
1000
0310
0000
1000
0000
,
0001
0000
0010
0000
0200
1000
0301
0000
,
0100
0000
0002
1000
0103
0000
0001
0000
,
0200
1000
0301
0000
0200
0001
0310
0000
,
0100
0000
2000
0010
3100
0000
0001
0000
,
1000
0000
0100
0000
0100
0010
0100
0000
,
0001
0000
0100
0010
0100
0000
0001
0000
,
1000
0100
1000
0000
0001
0100
0001
0000
,
0010
0000
0100
0010
0100
0000
1000
0000
,
0010
0000
0100
0000
0001
0010
0001
0000
,
1000
0000
0010
0100
0010
0000
0100
0000
,
0001
1000
0001
0000
0010
0100
0010
0000
,
0100
0000
1000
0010
1000
0000
0001
0000
,
0010
0000
0100
0000
0020
0001
0130
0000
,
0010
0000
0200
0001
0310
0000
0100
0000
,
0020
0001
0130
0000
0020
1000
0130
0000
,
0010
0000
0200
1000
0310
0000
1000
0000
,
0001
0000
0010
0000
0200
1000
0301
0000
,
0100
0000
0002
1000
0103
0000
0001
0000
,
0200
1000
0301
0000
0200
0001
0310
0000
,
0100
0000
2000
0010
3100
0000
0001
0000
,
1000
0000
0000
0100
0000
0000
1010
0000
0000
0000
0101
0000
,
0000
0000
1100
0000
0000
0000
0011
0000
0000
0000
1100
0000
,
0000
0000
0101
0000
0000
0000
1010
0000
0000
0000
1001
0000
,
0000
0000
1100
0000
0000
0000
0011
0000
0000
0000
1001
0000
,
0000
0000
0101
0000
0000
0000
0011
0000
0000
0000
1100
0000
,
0000
0000
0101
0000
0000
0000
1010
0000
0000
0000
0101
0000
,
0000
0000
1100
0000
0000
0000
0011
0000
0000
0000
1001
0000
,
0000
0000
0101
0000
0000
0000
1010
0000
0000
0000
1001
0000
,
0000
0000
1100
0000
0000
0000
0011
0000
0000
0000
1010
0000
,
0000
0000
1100
0000
0000
0000
0101
0000
0000
0000
1100
0000
,
0000
0000
1010
0000
0000
0000
0011
0000
0000
0000
1100
0000
,
0000
0000
0101
0000
0000
0000
1010
0000
0000
0000
0101
0000
,
0000
0000
1100
0000
0000
0000
1010
0000
0000
0000
0011
0000
,
0000
0000
0101
0000
0000
0000
1100
0000
0000
0000
0101
0000
,
0000
0000
0011
0000
0000
0000
1010
0000
0000
0000
0101
0000
,
0000
0000
1100
0000
0000
0000
1001
0000
0000
0000
1001
0000
,
0000
0000
0110
0000
0000
0000
1010
0000
0000
0000
0101
0000
,
0000
0000
1100
0000
0000
0000
0011
0000
0000
0000
1100
0000
,
0000
0000
0101
0000
0000
0000
1010
0000
0000
0000
1001
0000
,
0000
0000
1100
0000
0000
0000
0011
0000
0000
0000
1001
0000
,
0000
0000
0101
0000
0000
0000
0011
0000
0000
0000
1100
0000
,
0000
0000
0101
0000
0000
0000
1010
0000
0000
0000
0101
0000
,
0000
0000
1100
0000
0000
0000
0011
0000
0000
0000
1001
0000
,
0000
0000
0101
0000
0000
0000
1010
0000
0000
0000
1001
0000
,
0000
0000
1100
0000
0000
0000
0011
0000
0000
0000
1010
0000
,
0000
0000
1100
0000
0000
0000
0101
0000
0000
0000
1100
0000
,
0000
0000
1010
0000
0000
0000
0011
0000
0000
0000
1100
0000
,
0000
0000
0101
0000
0000
0000
1010
0000
0000
0000
0101
0000
,
0000
0000
1100
0000
0000
0000
1010
0000
0000
0000
0011
0000
,
0000
0000
0101
0000
0000
0000
1100
0000
0000
0000
0101
0000
,
0000
0000
0011
0000
0000
0000
1010
0000
0000
0000
0101
0000
,
0000
0000
1100
0000
0000
0000
1001
0000
0000
0001
0000
0000
,
0100
0010
0100
0010
2000
0000
0001
0000
,
0000
0001
3020
0100
,
0000
0100
2030
0100
,
0000
0100
3002
0010
,
0000
0000
0000
0000
0000
0000
0000
0000
0000
0000
0000
0000
0000
0000
0000
0000
0000
0000
0000
0000
0000
0000
0000
0000
0000
0000
0000
0000
0000
0000
0000
0000
0000
0000
0000
0000
0000
0000
0000
0000
0000
0000
0000
0000
0000
0000
0000
0000
0010
0000
0000
0000
0000
0000
0000
0000
0000
0000
0000
0000
0000
0000
0000
0000
0000
0000
0000
0000
0000
0000
0000
0000
0000
0000
0000
0000
0000
0000
0000
0000
0000
0000
0000
0000
0000
0000
0000
0000
0000
0000
0000
0000
0000
0000
0000
0003
2000
0000
0000
0000
0000
0000
0000
0000
0000
0000
0000
0000
0000
0000
0000
0000
0000
0000
0000
0000
0000
0000
0000
0000
0000
0000
0000
0000
0000
0000
0000
0000
0000
0000
0000
0000
0000
0000
0000
0000
0000
0000
0000
0000
0000
0000
0000
0000
0001
0000
0000
0000
0000
0000
0000
0000
0000
0000
0000
0000
0000
0000
0000
0000
0000
0000
0000
0000
0000
0000
0000
0000
0000
0000
0000
0000
0000
0000
0000
0000
0000
0000
0000
0000
0000
0000
0000
0000
0000
0000
0000
0000
0000
0000
0000
0000
,
0000
0001
3020
0100
,
0000
0100
2030
0100
,
0000
0100
3002
0010
,
0000
0000
0000
0000
0000
0000
0000
0000
0000
0000
0000
0000
0000
0000
0000
0000
0000
0000
0000
0000
0000
0000
0000
0000
0000
0000
0000
0000
0000
0000
0000
0000
0000
0000
0000
0000
0000
0000
0000
0000
0000
0000
0000
0000
0000
0000
0000
0000
0010
0000
0000
0000
0000
0000
0000
0000
0000
0000
0000
0000
0000
0000
0000
0000
0000
0000
0000
0000
0000
0000
0000
0000
0000
0000
0000
0000
0000
0000
0000
0000
0000
0000
0000
0000
0000
0000
0000
0000
0000
0000
0000
0000
0000
0000
0000
0003
1000
0000
0000
0000
0000
0000
0000
0000
0000
0000
0000
0000
0000
0000
0000
0000
0000
0000
0000
0000
0000
0000
0000
0000
0010
0000
0000
0000
0000
0000
0000
0000
0000
0000
0000
0000
0000
0000
0000
0000
0000
0000
0000
0000
0000
0000
0000
0000
1000
0000
0000
0000
0000
0000
0000
0000
0000
0000
0000
0000
0000
0000
0000
0000
0000
0000
0000
0000
0000
0000
0000
0000
0010
0000
0000
0000
0000
0000
0000
0000
0000
0000
0000
0000
0000
0000
0000
0000
0000
0000
0000
0000
0000
0000
0000
0000
,
1000
0100
1000
0100
0010
0001
0010
0001
,
0100
0001
0100
0001
1000
0010
1000
0010
,
1000
0100
1000
0100
0010
0001
0010
0001
,
0100
0001
0100
0001
1000
0010
1000
0010
,
1000
0100
1000
0100
0010
0001
0010
0001
,
0100
0000
0001
0000
0100
0000
0001
0000
0010
0001
0100
0010
0100
0010
1000
0100
,
0010
0100
0010
0001
0100
0010
0100
0010
2000
0000
3000
0000
0100
0000
0010
0000
,
0100
0000
0001
0000
0100
0010
0100
0000
,
0001
0000
1000
0100
1000
0000
0001
0100
,
0001
0000
0010
0000
0100
0010
0100
0000
,
1000
0000
0010
0000
0100
0000
0001
0010
,
0001
0000
1000
0000
0010
0100
0010
0000
,
0100
0000
0001
1000
0001
0000
0010
0100
,
0010
0000
0100
0000
1000
0010
1000
0000
,
0001
0000
0010
0000
0100
0000
0020
0001
,
0130
0000
0010
0000
0200
0001
0310
0000
,
0100
0000
0020
0001
0130
0000
0020
1000
,
0130
0000
0010
0000
0200
1000
0310
0000
,
1000
0000
0001
0000
0010
0000
0200
1000
,
0301
0000
0100
0000
0002
1000
0103
0000
,
0001
0000
0200
1000
0301
0000
0200
0001
,
0310
0000
0100
0000
2000
0010
3100
0000
,
0001
0000
1000
0000
0100
0000
0100
0010
,
0100
0000
0001
0000
0100
0010
0100
0000
,
0001
0000
1000
0100
1000
0000
0001
0100
,
0001
0000
0010
0000
0100
0010
0100
0000
,
1000
0000
0010
0000
0100
0000
0001
0010
,
0001
0000
1000
0000
0010
0100
0010
0000
,
0100
0000
0001
1000
0001
0000
0010
0100
,
0010
0000
0100
0000
1000
0010
1000
0000
,
0001
0000
0010
0000
0100
0000
0020
0001
,
0130
0000
0010
0000
0200
0001
0310
0000
,
0100
0000
0020
0001
0130
0000
0020
1000
,
0130
0000
0010
0000
0200
1000
0310
0000
,
1000
0000
0001
0000
0010
0000
0200
1000
,
0301
0000
0100
0000
0002
1000
0103
0000
,
0001
0000
0200
1000
0301
0000
0200
0300
,
0100
0010
0100
0000
0001
0000
0100
0010
,
0100
0000
0001
0000
1000
0100
1000
0000
,
0001
0100
0001
0000
0010
0000
0100
0010
,
0100
1000
0010
0100
,
0001
0010
0001
0000
1000
0000
0010
0100
,
0010
0000
0100
0000
0001
1000
0001
0000
,
0010
0100
0010
0000
0100
0000
1000
0010
,
1000
0001
0010
0100
,
0020
0001
0130
0000
0010
0000
0200
0001
,
0310
0000
0100
0000
0020
0001
0130
0000
,
0020
1000
0130
0000
0010
0000
0200
1000
,
0310
1000
0001
0010
,
0200
1000
0301
0000
0100
0000
0002
1000
,
0103
0000
0001
0000
0200
1000
0301
0000
,
0200
0001
0310
0000
0100
0000
2000
0010
,
3100
0001
1000
0100
,
0100
0010
0100
0000
0001
0000
0100
0010
,
0100
0000
0001
0000
1000
0100
1000
0000
,
0001
0100
0001
0000
0010
0000
0100
0010
,
0100
1000
0010
0100
,
0001
0010
0001
0000
1000
0000
0010
0100
,
0010
0000
0100
0000
0001
1000
0001
0000
,
0010
0100
0010
0000
0100
0000
1000
0010
,
1000
0001
0010
0100
,
0020
0001
0130
0000
0010
0000
0200
0001
,
0310
0000
0100
0000
0020
0001
0130
0000
,
0020
1000
0130
0000
0010
0000
0200
1000
,
0310
1000
0001
0010
,
0200
1000
0301
0000
0100
0000
0002
1000
,
0103
0000
0001
0000
0200
1000
0301
0000
,
0200
0001
0310
0000
0100
0000
2000
0010
,
3100
0001
1000
0100
,
1010
0000
0000
0000
0101
0000
0000
0000
1100
0000
0000
0000
,
0011
0000
0000
0000
1100
0000
0000
0000
0101
0000
0000
0000
,
1010
0000
0000
0000
1001
0000
0000
0000
1100
0000
0000
0000
,
0011
0000
0000
0000
1001
0000
0000
0000
0101
0000
0000
0000
,
0011
0000
0000
0000
1100
0000
0000
0000
0101
0000
0000
0000
,
1010
0000
0000
0000
0101
0000
0000
0000
1100
0000
0000
0000
,
0011
0000
0000
0000
1001
0000
0000
0000
0101
0000
0000
0000
,
1010
0000
0000
0000
1001
0000
0000
0000
1100
0000
0000
0000
,
0011
0000
0000
0000
1010
0000
0000
0000
1100
0000
0000
0000
,
0101
0000
0000
0000
1100
0000
0000
0000
1010
0000
0000
0000
,
0011
0000
0000
0000
1100
0000
0000
0000
0101
0000
0000
0000
,
1010
0000
0000
0000
0101
0000
0000
0000
1100
0000
0000
0000
,
1010
0000
0000
0000
0011
0000
0000
0000
0101
0000
0000
0000
,
1100
0000
0000
0000
0101
0000
0000
0000
0011
0000
0000
0000
,
1010
0000
0000
0000
0101
0000
0000
0000
1100
0000
0000
0000
,
1001
0000
0000
0000
1001
0000
0000
0000
0110
0000
0000
0000
,
1010
0000
0000
0000
0101
0000
0000
0000
1100
0000
0000
0000
,
0011
0000
0000
0000
1100
0000
0000
0000
0101
0000
0000
0000
,
1010
0000
0000
0000
1001
0000
0000
0000
1100
0000
0000
0000
,
0011
0000
0000
0000
1001
0000
0000
0000
0101
0000
0000
0000
,
0011
0000
0000
0000
1100
0000
0000
0000
0101
0000
0000
0000
,
1010
0000
0000
0000
0101
0000
0000
0000
1100
0000
0000
0000
,
0011
0000
0000
0000
1001
0000
0000
0000
0101
0000
0000
0000
,
1010
0000
0000
0000
1001
0000
0000
0000
1100
0000
0000
0000
,
0011
0000
0000
0000
1010
0000
0000
0000
1100
0000
0000
0000
,
0101
0000
0000
0000
1100
0000
0000
0000
1010
0000
0000
0000
,
0011
0000
0000
0000
1100
0000
0000
0000
0101
0000
0000
0000
,
1010
0000
0000
0000
0101
0000
0000
0000
1100
0000
0000
0000
,
1010
0000
0000
0000
0011
0000
0000
0000
0101
0000
0000
0000
,
1100
0000
0000
0000
0101
0000
0000
0000
0011
0000
0000
0000
,
1010
0000
0000
0000
0101
0000
0000
0000
1100
0000
0000
0000
,
1001
0000
0001
0000
0100
0010
0100
0010
,
2000
0001
0000
0001
,
3020
0100
0000
0100
,
2030
0100
0000
0100
,
3002
0000
0000
0000
0000
0000
0000
0000
0000
0000
0000
0000
0000
0000
0000
0000
0000
0000
0000
0000
0000
0000
0000
0000
0000
0000
0000
0000
0000
0000
0000
0000
0000
0000
0000
0000
0000
0000
0000
0000
0000
0000
0000
0000
0000
0000
0000
0000
0010
0000
0000
0000
0000
0000
0000
0000
0000
0000
0000
0000
0000
0000
0000
0000
0000
0000
0000
0000
0000
0000
0000
0000
0000
0000
0000
0000
0000
0000
0000
0000
0000
0000
0000
0000
0000
0000
0000
0000
0000
0000
0000
0000
0000
0000
0000
0000
0000
0000
0000
0000
0000
0000
0000
0000
0000
0000
0000
0000
0000
0000
0000
0000
0000
0000
0000
0000
0000
0000
0000
0000
0000
0000
0000
0000
0000
0000
0000
0000
0000
0000
0000
0000
0000
0000
0000
0000
0000
0000
0000
0000
0000
0000
0000
0000
0010
0000
0000
0000
0000
0000
0000
0000
0000
0000
0000
0000
0000
0000
0000
0000
0000
0000
0000
0000
0000
0000
0000
0000
0000
0000
0000
0000
0000
0000
0000
0000
0000
0000
0000
0000
0000
0000
0000
0000
0000
0000
0000
0000
0000
0000
0000
0003
,
2000
0001
0000
0001
,
3020
0100
0000
0100
,
2030
0100
0000
0100
,
3002
0000
0000
0000
0000
0000
0000
0000
0000
0000
0000
0000
0000
0000
0000
0000
0000
0000
0000
0000
0000
0000
0000
0000
0000
0000
0000
0000
0000
0000
0000
0000
0000
0000
0000
0000
0000
0000
0000
0000
0000
0000
0000
0000
0000
0000
0000
0000
0010
0000
0000
0000
0000
0000
0000
0000
0000
0000
0000
0000
0000
0000
0000
0000
0000
0000
0000
0000
0000
0000
0000
0000
0000
0000
0000
0000
0000
0000
0000
0000
0000
0000
0000
0000
0000
0000
0000
0000
0000
0000
0000
0000
0000
0000
0000
0000
0000
0000
0000
0000
0000
0000
0000
0000
0000
0000
0000
0000
0000
0000
0000
0000
0000
0000
0000
0000
0000
0000
0000
0000
0000
0000
0000
0000
0000
0000
0000
0000
0000
0000
0000
0000
0000
0000
0000
0000
0000
0000
0000
0000
0000
0000
0000
0000
0010
0000
0000
0000
0000
0000
0000
0000
0000
0000
0000
0000
0000
0000
0000
0000
0000
0000
0000
0000
0000
0000
0000
0000
0000
0000
0000
0000
0000
0000
0000
0000
0000
0000
0000
0000
0000
0000
0000
0000
0000
0000
0000
0000
0000
0000
0000
0003
,
1000
0010
1000
0010
1000
0100
1000
0100
,
0010
0001
0010
0001
0100
0001
0100
0001
,
1000
0010
1000
0010
1000
0100
1000
0100
,
0010
0001
0010
0001
0100
0001
0100
0001
,
1000
0010
1000
0010
1000
0100
1000
0100
,
0010
0001
0010
0001
0100
0001
0100
0001
,
0010
0001
0100
0010
0100
0010
1000
0100
0010
0100
0010
0001
0100
0010
0100
0010
,
2000
3000
0100
0010
0100
0000
0001
0000
,
0100
0010
0100
0000
0001
0000
1000
0100
,
1000
0000
0001
0100
0001
0000
0010
0000
,
0100
0010
0100
0000
1000
0000
0010
0000
,
0100
0000
0001
0010
0001
0000
1000
0000
,
0010
0100
0010
0000
0100
0000
0001
1000
,
0001
0000
0010
0100
0010
0000
0100
0000
,
1000
0010
1000
0000
0001
0000
0010
0000
,
0100
0000
0020
0001
0130
0000
0010
0000
,
0200
0001
0310
0000
0100
0000
0020
0001
,
0130
0000
0020
1000
0130
0000
0010
0000
,
0200
1000
0310
0000
1000
0000
0001
0000
,
0010
0000
0200
1000
0301
0000
0100
0000
,
0002
1000
0103
0000
0001
0000
0200
1000
,
0301
0000
0200
0001
0310
0000
0100
0000
,
2000
0010
3100
0000
0001
0000
1000
0000
,
0100
0000
0100
0010
0100
0000
0001
0000
,
0100
0010
0100
0000
0001
0000
1000
0100
,
1000
0000
0001
0100
0001
0000
0010
0000
,
0100
0010
0100
0000
1000
0000
0010
0000
,
0100
0000
0001
0010
0001
0000
1000
0000
,
0010
0100
0010
0000
0100
0000
0001
1000
,
0001
0000
0010
0100
0010
0000
0100
0000
,
1000
0010
1000
0000
0001
0000
0010
0000
,
0100
0000
0020
0001
0130
0000
0010
0000
,
0200
0001
0310
0000
0100
0000
0020
0001
,
0130
0000
0020
1000
0130
0000
0010
0000
,
0200
1000
0310
0000
1000
0000
0001
0000
,
0010
0000
0200
1000
0301
0000
0100
0000
,
0002
1000
0103
0000
0001
0000
0200
1000
,
0301
0000
0200
0300
0100
0010
0100
0000
,
0001
0000
0100
0010
0100
0000
0001
0000
,
1000
0100
1000
0000
0001
0100
0001
0000
,
0010
0000
0100
0010
0100
0000
1000
0000
,
0010
0000
0100
0000
0001
0010
0001
0000
,
1000
0000
0010
0100
0010
0000
0100
0000
,
0001
1000
0001
0000
0010
0100
0010
0000
,
0100
0000
1000
0010
1000
0000
0001
0000
,
0010
0000
0100
0000
0020
0001
0130
0000
,
0010
0000
0200
0001
0310
0000
0100
0000
,
0020
0001
0130
0000
0020
1000
0130
0000
,
0010
0000
0200
1000
0310
0000
1000
0000
,
0001
0000
0010
0000
0200
1000
0301
0000
,
0100
0000
0002
1000
0103
0000
0001
0000
,
0200
1000
0301
0000
0200
0001
0310
0000
,
0100
0000
2000
0010
3100
0000
0001
0000
,
1000
0000
0100
0000
0100
0010
0100
0000
,
0001
0000
0100
0010
0100
0000
0001
0000
,
1000
0100
1000
0000
0001
0100
0001
0000
,
0010
0000
0100
0010
0100
0000
1000
0000
,
0010
0000
0100
0000
0001
0010
0001
0000
,
1000
0000
0010
0100
0010
0000
0100
0000
,
0001
1000
0001
0000
0010
0100
0010
0000
,
0100
0000
1000
0010
1000
0000
0001
0000
,
0010
0000
0100
0000
0020
0001
0130
0000
,
0010
0000
0200
0001
0310
0000
0100
0000
,
0020
0001
0130
0000
0020
1000
0130
0000
,
0010
0000
0200
1000
0310
0000
1000
0000
,
0001
0000
0010
0000
0200
1000
0301
0000
,
0100
0000
0002
1000
0103
0000
0001
0000
,
0200
1000
0301
0000
0200
0001
0310
0000
,
0100
0000
2000
0010
3100
0000
0001
0000
,
1000
0000
0000
0100
0000
0000
1010
0000
0000
0000
0101
0000
,
0000
0000
1100
0000
0000
0000
0011
0000
0000
0000
1100
0000
,
0000
0000
0101
0000
0000
0000
1010
0000
0000
0000
1001
0000
,
0000
0000
1100
0000
0000
0000
0011
0000
0000
0000
1001
0000
,
0000
0000
0101
0000
0000
0000
0011
0000
0000
0000
1100
0000
,
0000
0000
0101
0000
0000
0000
1010
0000
0000
0000
0101
0000
,
0000
0000
1100
0000
0000
0000
0011
0000
0000
0000
1001
0000
,
0000
0000
0101
0000
0000
0000
1010
0000
0000
0000
1001
0000
,
0000
0000
1100
0000
0000
0000
0011
0000
0000
0000
1010
0000
,
0000
0000
1100
0000
0000
0000
0101
0000
0000
0000
1100
0000
,
0000
0000
1010
0000
0000
0000
0011
0000
0000
0000
1100
0000
,
0000
0000
0101
0000
0000
0000
1010
0000
0000
0000
0101
0000
,
0000
0000
1100
0000
0000
0000
1010
0000
0000
0000
0011
0000
,
0000
0000
0101
0000
0000
0000
1100
0000
0000
0000
0101
0000
,
0000
0000
0011
0000
0000
0000
1010
0000
0000
0000
0101
0000
,
0000
0000
1100
0000
0000
0000
1001
0000
0000
0000
1001
0000
,
0000
0000
0110
0000
0000
0000
1010
0000
0000
0000
0101
0000
,
0000
0000
1100
0000
0000
0000
0011
0000
0000
0000
1100
0000
,
0000
0000
0101
0000
0000
0000
1010
0000
0000
0000
1001
0000
,
0000
0000
1100
0000
0000
0000
0011
0000
0000
0000
1001
0000
,
0000
0000
0101
0000
0000
0000
0011
0000
0000
0000
1100
0000
,
0000
0000
0101
0000
0000
0000
1010
0000
0000
0000
0101
0000
,
0000
0000
1100
0000
0000
0000
0011
0000
0000
0000
1001
0000
,
0000
0000
0101
0000
0000
0000
1010
0000
0000
0000
1001
0000
,
0000
0000
1100
0000
0000
0000
0011
0000
0000
0000
1010
0000
,
0000
0000
1100
0000
0000
0000
0101
0000
0000
0000
1100
0000
,
0000
0000
1010
0000
0000
0000
0011
0000
0000
0000
1100
0000
,
0000
0000
0101
0000
0000
0000
1010
0000
0000
0000
0101
0000
,
0000
0000
1100
0000
0000
0000
1010
0000
0000
0000
0011
0000
,
0000
0000
0101
0000
0000
0000
1100
0000
0000
0000
0101
0000
,
0000
0000
0011
0000
0000
0000
1010
0000
0000
0000
0101
0000
,
0000
0000
1100
0000
0000
0000
1001
0000
0000
0001
0000
0000
,
0100
0010
0100
0010
2000
0000
0001
0000
,
0000
0001
3020
0100
,
0000
0100
2030
0100
,
0000
0100
3002
0010
,
0000
0000
0000
0000
0000
0000
0000
0000
0000
0000
0000
0000
0000
0000
0000
0000
0000
0000
0000
0000
0000
0000
0000
0000
0000
0000
0000
0000
0000
0000
0000
0000
0000
0000
0000
0000
0000
0000
0000
0000
0000
0000
0000
0000
0000
0000
0000
0000
0010
0000
0000
0000
0000
0000
0000
0000
0000
0000
0000
0000
0000
0000
0000
0000
0000
0000
0000
0000
0000
0000
0000
0000
0000
0000
0000
0000
0000
0000
0000
0000
0000
0000
0000
0000
0000
0000
0000
0000
0000
0000
0000
0000
0000
0000
0000
0003
2000
0000
0000
0000
0000
0000
0000
0000
0000
0000
0000
0000
0000
0000
0000
0000
0000
0000
0000
0000
0000
0000
0000
0000
0000
0000
0000
0000
0000
0000
0000
0000
0000
0000
0000
0000
0000
0000
0000
0000
0000
0000
0000
0000
0000
0000
0000
0000
0001
0000
0000
0000
0000
0000
0000
0000
0000
0000
0000
0000
0000
0000
0000
0000
0000
0000
0000
0000
0000
0000
0000
0000
0000
0000
0000
0000
0000
0000
0000
0000
0000
0000
0000
0000
0000
0000
0000
0000
0000
0000
0000
0000
0000
0000
0000
0000
,
0000
0001
3020
0100
,
0000
0100
2030
0100
,
0000
0100
3002
0010
,
0000
0000
0000
0000
0000
0000
0000
0000
0000
0000
0000
0000
0000
0000
0000
0000
0000
0000
0000
0000
0000
0000
0000
0000
0000
0000
0000
0000
0000
0000
0000
0000
0000
0000
0000
0000
0000
0000
0000
0000
0000
0000
0000
0000
0000
0000
0000
0000
0010
0000
0000
0000
0000
0000
0000
0000
0000
0000
0000
0000
0000
0000
0000
0000
0000
0000
0000
0000
0000
0000
0000
0000
0000
0000
0000
0000
0000
0000
0000
0000
0000
0000
0000
0000
0000
0000
0000
0000
0000
0000
0000
0000
0000
0000
0000
0003
1000
0000
0000
0000
0000
0000
0000
0000
0000
0000
0000
0000
0000
0000
0000
0000
0000
0000
0000
0000
0000
0000
0000
0000
0010
0000
0000
0000
0000
0000
0000
0000
0000
0000
0000
0000
0000
0000
0000
0000
0000
0000
0000
0000
0000
0000
0000
0000
1000
0000
0000
0000
0000
0000
0000
0000
0000
0000
0000
0000
0000
0000
0000
0000
0000
0000
0000
0000
0000
0000
0000
0000
0010
0000
0000
0000
0000
0000
0000
0000
0000
0000
0000
0000
0000
0000
0000
0000
0000
0000
0000
0000
0000
0000
0000
0000
,
1000
0100
1000
0100
0010
0001
0010
0001
,
0100
0001
0100
0001
1000
0010
1000
0010
,
1000
0100
1000
0100
0010
0001
0010
0001
,
0100
0001
0100
0001
1000
0010
1000
0010
,
1000
0100
1000
0100
0010
0001
0010
0001
,
0100
0000
0001
0000
0100
0000
0001
0000
0010
0001
0100
0010
0100
0010
1000
0100
,
0010
0100
0010
0001
0100
0010
0100
0010
2000
0000
3000
0000
0100
0000
0010
0000
,
0100
0000
0001
0000
0100
0010
0100
0000
,
0001
0000
1000
0100
1000
0000
0001
0100
,
0001
0000
0010
0000
0100
0010
0100
0000
,
1000
0000
0010
0000
0100
0000
0001
0010
,
0001
0000
1000
0000
0010
0100
0010
0000
,
0100
0000
0001
1000
0001
0000
0010
0100
,
0010
0000
0100
0000
1000
0010
1000
0000
,
0001
0000
0010
0000
0100
0000
0020
0001
,
0130
0000
0010
0000
0200
0001
0310
0000
,
0100
0000
0020
0001
0130
0000
0020
1000
,
0130
0000
0010
0000
0200
1000
0310
0000
,
1000
0000
0001
0000
0010
0000
0200
1000
,
0301
0000
0100
0000
0002
1000
0103
0000
,
0001
0000
0200
1000
0301
0000
0200
0001
,
0310
0000
0100
0000
2000
0010
3100
0000
,
0001
0000
1000
0000
0100
0000
0100
0010
,
0100
0000
0001
0000
0100
0010
0100
0000
,
0001
0000
1000
0100
1000
0000
0001
0100
,
0001
0000
0010
0000
0100
0010
0100
0000
,
1000
0000
0010
0000
0100
0000
0001
0010
,
0001
0000
1000
0000
0010
0100
0010
0000
,
0100
0000
0001
1000
0001
0000
0010
0100
,
0010
0000
0100
0000
1000
0010
1000
0000
,
0001
0000
0010
0000
0100
0000
0020
0001
,
0130
0000
0010
0000
0200
0001
0310
0000
,
0100
0000
0020
0001
0130
0000
0020
1000
,
0130
0000
0010
0000
0200
1000
0310
0000
,
1000
0000
0001
0000
0010
0000
0200
1000
,
0301
0000
0100
0000
0002
1000
0103
0000
,
0001
0000
0200
1000
0301
0000
0200
0300
,
0100
0010
0100
0000
0001
0000
0100
0010
,
0100
0000
0001
0000
1000
0100
1000
0000
,
0001
0100
0001
0000
0010
0000
0100
0010
,
0100
1000
0010
0100
,
0001
0010
0001
0000
1000
0000
0010
0100
,
0010
0000
0100
0000
0001
1000
0001
0000
,
0010
0100
0010
0000
0100
0000
1000
0010
,
1000
0001
0010
0100
,
0020
0001
0130
0000
0010
0000
0200
0001
,
0310
0000
0100
0000
0020
0001
0130
0000
,
0020
1000
0130
0000
0010
0000
0200
1000
,
0310
1000
0001
0010
,
0200
1000
0301
0000
0100
0000
0002
1000
,
0103
0000
0001
0000
0200
1000
0301
0000
,
0200
0001
0310
0000
0100
0000
2000
0010
,
3100
0001
1000
0100
,
0100
0010
0100
0000
0001
0000
0100
0010
,
0100
0000
0001
0000
1000
0100
1000
0000
,
0001
0100
0001
0000
0010
0000
0100
0010
,
0100
1000
0010
0100
,
0001
0010
0001
0000
1000
0000
0010
0100
,
0010
0000
0100
0000
0001
1000
0001
0000
,
0010
0100
0010
0000
0100
0000
1000
0010
,
1000
0001
0010
0100
,
0020
0001
0130
0000
0010
0000
0200
0001
,
0310
0000
0100
0000
0020
0001
0130
0000
,
0020
1000
0130
0000
0010
0000
0200
1000
,
0310
1000
0001
0010
,
0200
1000
0301
0000
0100
0000
0002
1000
,
0103
0000
0001
0000
0200
1000
0301
0000
,
0200
0001
0310
0000
0100
0000
2000
0010
,
3100
0001
1000
0100
,
0010
0001
0100
0010
0200
0000
0310
1000
,
0100
0010
0200
0000
0301
0000
0100
0010
,
1000
0010
0200
0000
2300
0000
3001
0100
,
1000
0000
0001
0010
1000
0000
0001
0000
,
0010
1000
0100
0010
0200
0000
0310
0001
,
0100
0010
0200
0000
1300
0000
0100
0010
,
0001
0010
0200
0000
0302
0000
1003
0100
,
0001
0000
1000
0010
0001
0000
1000
0000
,
0001
0100
0010
0100
0001
0100
0010
0100
,
0001
0010
0100
0010
0001
0010
0100
0010
,
0001
0100
1000
0100
0001
0100
1000
0100
,
0001
0010
1000
0010
0001
0010
1000
0010
,
0001
1000
0100
0010
0001
1000
0010
0100
,
0001
0010
1000
0001
0100
1000
0010
1000
,
0100
0001
1000
0010
0001
0100
0010
0100
,
0001
0010
0100
1000
0001
0100
1000
0100
,
0010
0001
0100
0010
0200
0000
0310
1000
,
0100
0010
0200
0000
0301
0000
0100
0010
,
1000
0010
0200
0000
2300
0000
3001
0100
,
1000
0000
0001
0010
1000
0000
0001
0000
,
0010
1000
0100
0010
0200
0000
0310
0001
,
0100
0010
0200
0000
1300
0000
0100
0010
,
0001
0010
0200
0000
0302
0000
1003
0100
,
0001
0000
1000
0010
0001
0000
1000
0000
,
0001
0100
0010
0100
0001
0100
0010
0100
,
0001
0010
0100
0010
0001
0010
0100
0010
,
0001
0100
1000
0100
0001
0100
1000
0100
,
0001
0010
1000
0010
0001
0010
1000
0010
,
0001
1000
0100
0010
0001
1000
0010
0100
,
0001
0010
1000
0001
0100
1000
0010
1000
,
0100
0001
1000
0010
0001
0100
0010
0100
,
0001
0010
0100
1000
0001
0100
1000
0100
,
0011
0000
0000
0000
1100
0000
0000
0000
0101
0000
0000
0000
,
1010
0000
0000
0000
0101
0000
0000
0000
1100
0000
0000
0000
,
0011
0000
0000
0000
1001
0000
0000
0000
0101
0000
0000
0000
,
1010
0000
0000
0000
1001
0000
0000
0000
1100
0000
0000
0000
,
1010
0000
0000
0000
0101
0000
0000
0000
1100
0000
0000
0000
,
0011
0000
0000
0000
1100
0000
0000
0000
0101
0000
0000
0000
,
1010
0000
0000
0000
1001
0000
0000
0000
1100
0000
0000
0000
,
0011
0000
0000
0000
1001
0000
0000
0000
0101
0000
0000
0000
,
1010
0000
0000
0000
0011
0000
0000
0000
0101
0000
0000
0000
,
1100
0000
0000
0000
0101
0000
0000
0000
0011
0000
0000
0000
,
1010
0000
0000
0000
0101
0000
0000
0000
1100
0000
0000
0000
,
0011
0000
0000
0000
1100
0000
0000
0000
0101
0000
0000
0000
,
0011
0000
0000
0000
1010
0000
0000
0000
1100
0000
0000
0000
,
0101
0000
0000
0000
1100
0000
0000
0000
1010
0000
0000
0000
,
0011
0000
0000
0000
1100
0000
0000
0000
0101
0000
0000
0000
,
1010
0000
0000
0000
0101
0000
0000
0000
1100
0000
0000
0000
,
0110
0000
1000
0000
0100
0000
0010
0000
0100
0000
1000
0000
,
1010
0000
0000
0000
0101
0000
0000
0000
1100
0000
0000
0000
,
0110
0000
0001
0000
0100
0000
0010
0000
0100
0000
0001
0000
,
0011
0000
0000
0000
1100
0000
0000
0000
0101
0000
0000
0000
,
1001
0000
0010
0000
1000
0000
0100
0000
0010
0000
0001
0000
,
1100
0000
0000
0000
0110
0000
0000
0000
0101
0000
0000
0000
,
1001
0000
0010
0000
0001
0000
0100
0000
0010
0000
1000
0000
,
0101
0000
0000
0000
0110
0000
0000
0000
1100
0000
0000
0000
,
0011
0000
1000
0000
0100
0000
0001
0000
0100
0000
1000
0000
,
1010
0000
0001
0000
0100
0000
1000
0000
0100
0000
0001
0000
,
0011
0000
1000
0000
0100
0000
0001
0000
0100
0000
1000
0000
,
1010
0000
0001
0000
0100
0000
1000
0000
0100
0000
0001
0000
,
1001
0000
0001
0000
0010
0000
1000
0000
0010
0000
0001
0000
,
1001
0000
1000
0000
0010
0000
0001
0000
0010
0000
1000
0000
,
1001
0000
0001
0000
0010
0000
1000
0000
0010
0000
0001
0000
,
0110
0000
0010
0000
0001
1000
0001
1000
,
0200
0000
0000
0000
,
0000
0000
0000
0000
,
0000
0000
0000
0000
,
0000
0000
0000
0300
;

//--------------- dance-single - Tundrus ----------------
#NOTES:
     dance-single:
     Tundrus:
     Edit:
     132:
     0,0,0,0,0:
0000
0000
0000
0000
,
0000
0000
0000
0000
,
0000
0000
0000
0000
,
0000
0000
0000
0000
,
0000
0000
0000
0000
,
0000
0000
0000
0000
,
0000
0000
0000
0000
,
0000
0000
0000
0000
,
0000
0010
0000
0010
,
0000
0001
0000
0001
,
0000
0100
0000
0100
,
0000
1000
0000
1000
,
0000
0200
0000
0000
,
0300
0002
0000
0000
,
0003
2000
0000
0000
,
3000
0020
0000
0000
,
0030
0001
0000
0010
,
0000
0001
0000
0001
,
0000
1000
0000
0010
,
0000
1000
0000
1000
,
0000
0100
0000
0010
,
0000
0100
0000
0100
,
0000
0001
0000
1000
,
0000
0001
0000
0001
,
0000
0002
0000
0000
,
0003
2000
0000
0000
,
3000
0002
0000
0000
,
0003
2000
0000
0000
,
3000
0010
0000
0010
,
0000
0001
0000
0001
,
0000
0100
0000
0100
,
0000
1000
0000
1000
,
0000
0010
0000
0010
,
0000
0001
0000
0001
,
0000
0100
0000
0100
,
0000
1000
0000
1000
,
0000
0200
0000
0000
,
0300
0002
0000
0000
,
0003
2000
0000
0000
,
3000
0020
0000
0000
,
0030
0010
0000
0010
,
0000
0001
0000
0001
,
0000
0100
0000
0100
,
0000
1000
0000
1000
,
0000
0200
0000
0000
,
0300
0002
0000
0000
,
0003
2000
0000
0000
,
3000
0020
0000
0000
,
0030
0001
0000
0010
,
0000
0001
0000
0001
,
0000
1000
0000
0010
,
0000
1000
0000
1000
,
0000
0100
0000
0010
,
0000
0100
0000
0100
,
0000
0001
0000
1000
,
0000
0001
0000
0001
,
0000
0002
0000
0000
,
0003
2000
0000
0000
,
3000
0002
0000
0000
,
0003
2000
0000
0000
,
3000
0010
0000
0010
,
0000
0001
0000
0001
,
0000
0100
0000
0100
,
0000
1000
0000
1000
,
0000
0220
0000
0000
,
0000
0000
0000
0000
,
0330
0000
0002
0000
0000
2000
0000
0000
,
0000
0000
3003
0010
,
0010
0000
1000
0000
0010
0000
0000
0100
,
0001
0000
0010
0000
0100
0000
0000
1000
,
0001
0000
1000
0000
0000
0001
0000
0000
,
1000
0000
0000
0001
0000
0000
0110
0000
,
1001
0000
0001
0000
,
0100
1000
0010
0000
,
1000
0001
0010
0000
,
0100
1000
0100
0000
,
0001
0000
0100
0000
,
0010
0100
0001
0000
,
0100
0010
0100
0000
,
0010
1000
0100
0000
,
0001
0000
0010
0000
,
0001
0010
0100
0000
,
0001
1000
0010
0000
,
0100
0010
1000
0000
,
0001
0000
0100
0000
,
1000
0001
0010
0000
,
0100
0001
1000
0000
,
0010
1000
0001
0000
,
1000
0000
0001
0000
,
0100
1000
0010
0000
,
1000
0001
0010
0000
,
0100
1000
0100
0000
,
0001
0000
0100
0000
,
0010
0100
0001
0000
,
0100
0010
0100
0000
,
0010
1000
0100
0000
,
0001
0000
0010
0000
,
0001
0010
0100
0000
,
0001
1000
0010
0000
,
0100
0010
1000
0000
,
0001
0000
0100
0000
,
1000
0001
0010
0000
,
0100
0001
1000
0000
,
0010
1000
0001
0000
,
0100
0000
0000
0000
0100
0000
0000
0000
0100
0000
0000
0000
,
0001
0000
0000
0000
0001
0000
0000
0000
0001
0000
0000
0000
,
0010
0000
0000
0000
0010
0000
0000
0000
0010
0000
0000
0000
,
1000
0000
0000
0000
1000
0000
0000
0000
1000
0000
0000
0000
,
0100
0000
0000
0000
0100
0000
0000
0000
0100
0000
0000
0000
,
0001
0000
0000
0000
0001
0000
0000
0000
0001
0000
0000
0000
,
0010
0000
0000
0000
0010
0000
0000
0000
0010
0000
0000
0000
,
1000
0000
0000
0000
1000
0000
0000
0000
1000
0000
0000
0000
,
0100
0000
0000
0000
0100
0000
0000
0000
0100
0000
0000
0000
,
1000
0000
0000
0000
1000
0000
0000
0000
1000
0000
0000
0000
,
0010
0000
0000
0000
0010
0000
0000
0000
0010
0000
0000
0000
,
0001
0000
0000
0000
0001
0000
0000
0000
0001
0000
0000
0000
,
0100
0000
0000
0000
0100
0000
0000
0000
0100
0000
0000
0000
,
1000
0000
0000
0000
1000
0000
0000
0000
1000
0000
0000
0000
,
0010
0000
0000
0000
0010
0000
0000
0000
0010
0000
0000
0000
,
0001
0000
0000
0000
0001
0000
0000
0000
0001
0000
0000
0000
,
0100
0000
0000
0000
0100
0000
0000
0000
0100
0000
0000
0000
,
0001
0000
0000
0000
0001
0000
0000
0000
0001
0000
0000
0000
,
0010
0000
0000
0000
0010
0000
0000
0000
0010
0000
0000
0000
,
1000
0000
0000
0000
1000
0000
0000
0000
1000
0000
0000
0000
,
0100
0000
0000
0000
0100
0000
0000
0000
0100
0000
0000
0000
,
0001
0000
0000
0000
0001
0000
0000
0000
0001
0000
0000
0000
,
0010
0000
0000
0000
0010
0000
0000
0000
0010
0000
0000
0000
,
1000
0000
0000
0000
1000
0000
0000
0000
1000
0000
0000
0000
,
0100
0000
0000
0000
0100
0000
0000
0000
0100
0000
0000
0000
,
1000
0000
0000
0000
1000
0000
0000
0000
1000
0000
0000
0000
,
0010
0000
0000
0000
0010
0000
0000
0000
0010
0000
0000
0000
,
0001
0000
0000
0000
0001
0000
0000
0000
0001
0000
0000
0000
,
0100
0000
0000
0000
0100
0000
0000
0000
0100
0000
0000
0000
,
1000
0000
0000
0000
1000
0000
0000
0000
1000
0000
0000
0000
,
0010
0000
0000
0000
0010
0000
0000
0000
0010
0000
0000
0000
,
2002
0000
0000
3003
,
0002
1000
0000
1000
,
0203
0010
0000
0010
,
0302
0010
0000
0010
,
2003
0000
0000
0000
0000
0000
0000
0000
0000
0000
0000
0000
0000
0000
0000
0000
0000
0000
0000
0000
0000
0000
0000
0000
0000
0000
0000
0000
0000
0000
0000
0000
0000
0000
0000
0000
0000
0000
0000
0000
0000
0000
0000
0000
0000
0000
0000
0000
0100
0000
0000
0000
0000
0000
0000
0000
0000
0000
0000
0000
0000
0000
0000
0000
0000
0000
0000
0000
0000
0000
0000
0000
0000
0000
0000
0000
0000
0000
0000
0000
0000
0000
0000
0000
0000
0000
0000
0000
0000
0000
0000
0000
0000
0000
0000
0000
0000
0000
0000
0000
0000
0000
0000
0000
0000
0000
0000
0000
0000
0000
0000
0000
0000
0000
0000
0000
0000
0000
0000
0000
0000
0000
0000
0000
0000
0000
0000
0000
0000
0000
0000
0000
0000
0000
0000
0000
0000
0000
0000
0000
0000
0000
0000
0000
0100
0000
0000
0000
0000
0000
0000
0000
0000
0000
0000
0000
0000
0000
0000
0000
0000
0000
0000
0000
0000
0000
0000
0000
0000
0000
0000
0000
0000
0000
0000
0000
0000
0000
0000
0000
0000
0000
0000
0000
0000
0000
0000
0000
0000
0000
0000
3000
,
0002
1000
0000
1000
,
0203
0010
0000
0010
,
0302
0010
0000
0010
,
2003
0000
0000
0000
0000
0000
0000
0000
0000
0000
0000
0000
0000
0000
0000
0000
0000
0000
0000
0000
0000
0000
0000
0000
0000
0000
0000
0000
0000
0000
0000
0000
0000
0000
0000
0000
0000
0000
0000
0000
0000
0000
0000
0000
0000
0000
0000
0000
0100
0000
0000
0000
0000
0000
0000
0000
0000
0000
0000
0000
0000
0000
0000
0000
0000
0000
0000
0000
0000
0000
0000
0000
0000
0000
0000
0000
0000
0000
0000
0000
0000
0000
0000
0000
0000
0000
0000
0000
0000
0000
0000
0000
0000
0000
0000
0000
0000
0000
0000
0000
0000
0000
0000
0000
0000
0000
0000
0000
0000
0000
0000
0000
0000
0000
0000
0000
0000
0000
0000
0000
0000
0000
0000
0000
0000
0000
0000
0000
0000
0000
0000
0000
0000
0000
0000
0000
0000
0000
0000
0000
0000
0000
0000
0000
0100
0000
0000
0000
0000
0000
0000
0000
0000
0000
0000
0000
0000
0000
0000
0000
0000
0000
0000
0000
0000
0000
0000
0000
0000
0000
0000
0000
0000
0000
0000
0000
0000
0000
0000
0000
0000
0000
0000
0000
0000
0000
0000
0000
0000
0000
0000
3000
,
0001
0001
0100
0100
,
1000
1000
0010
0010
,
0001
0001
0100
0100
,
1000
1000
0010
0010
,
0001
0001
0100
0100
,
1000
1000
0010
0010
,
0002
0000
2000
3003
,
2002
3003
0010
0000
1000
0000
0001
0000
,
0010
0100
1000
0010
,
0010
1000
0001
0010
,
0100
0010
0100
0000
1000
0000
0100
0000
,
1000
0001
0010
0100
,
1000
0100
0010
0001
,
0001
0100
0010
0100
,
0010
1000
0010
0000
1000
0000
0100
0000
,
0010
0001
1000
0010
,
1000
0001
0010
0100
,
0010
0001
1000
0010
,
0100
0010
0100
0000
0010
0000
1000
0000
,
0001
0100
0001
1000
,
0100
1000
0001
0010
,
0001
0100
0001
1000
,
0010
0100
0010
0000
1000
0000
0001
0000
,
0010
0010
1000
0001
,
0010
0100
1000
0010
,
0010
1000
0001
0010
,
0100
0010
0100
0000
1000
0000
0100
0000
,
1000
0001
0010
0100
,
1000
0100
0010
0001
,
0001
0100
0010
0100
,
0010
1000
0010
0000
1000
0000
0100
0000
,
0010
0001
1000
0010
,
1000
0001
0010
0100
,
0010
0001
1000
0010
,
0100
0010
0100
0000
0010
0000
1000
0000
,
0001
0100
0001
1000
,
0100
1000
0001
0010
,
0001
0000
2000
3000
0100
0000
0001
0000
,
1000
0010
0100
0001
,
0010
0010
0001
1000
,
0010
0000
0100
0010
0100
0000
0001
0000
,
0100
0001
1000
0010
,
0100
0001
0100
0010
,
1000
1000
0100
0010
,
0100
0000
0010
0001
0010
0000
0001
0000
,
0100
0010
1000
0001
,
0010
0001
1000
0010
,
0100
0010
1000
0001
,
0010
0000
0100
0010
0100
0000
0010
0000
,
0001
1000
0100
1000
,
0001
0100
0001
1000
,
0010
1000
0100
1000
,
0001
0000
0010
0100
0010
0000
0001
0000
,
1000
0010
0100
0001
,
1000
0010
0100
0001
,
0010
0010
0001
1000
,
0010
0000
0100
0010
0100
0000
0001
0000
,
0100
0001
1000
0010
,
0100
0001
0100
0010
,
1000
1000
0100
0010
,
0100
0000
0010
0001
0010
0000
0001
0000
,
0100
0010
1000
0001
,
0010
0001
1000
0010
,
0100
0010
1000
0001
,
0010
0000
0100
0010
0100
0000
0010
0000
,
0001
1000
0100
1000
,
0001
0100
0001
1000
,
0010
1000
0100
1000
,
0001
0000
0010
0100
0010
0000
0001
0000
,
1000
0000
0000
0010
0000
0000
0100
0000
0000
0000
0001
0000
,
0000
0000
0101
0000
0000
0000
0010
0000
0000
0000
1000
0000
,
0000
0000
1010
0000
0000
0000
0001
0000
0000
0000
0010
0000
,
0000
0000
0011
0000
0000
0000
0100
0000
0000
0000
1000
0000
,
0000
0000
1100
0000
0000
0000
0010
0000
0000
0000
1000
0000
,
0000
0000
1010
0000
0000
0000
0001
0000
0000
0000
0010
0000
,
0000
0000
0011
0000
0000
0000
0100
0000
0000
0000
1000
0000
,
0000
0000
1100
0000
0000
0000
0001
0000
0000
0000
0100
0000
,
0000
0000
0101
0000
0000
0000
1100
0000
0000
0000
1100
0000
,
0000
0000
1100
0000
0000
0000
0011
0000
0000
0000
0011
0000
,
0000
0000
0011
0000
0000
0000
0101
0000
0000
0000
0101
0000
,
0000
0000
0101
0000
0000
0000
1010
0000
0000
0000
1010
0000
,
0000
0000
1010
0000
0000
0000
1100
0000
0000
0000
1100
0000
,
0000
0000
1100
0000
0000
0000
0101
0000
0000
0000
0101
0000
,
0000
0000
0101
0000
0000
0000
0110
0000
0000
0000
0110
0000
,
0000
0000
0110
0000
0000
0000
1001
0000
0000
0000
1001
0000
,
0000
0000
1001
0000
0000
0000
0100
0000
0000
0000
0001
0000
,
0000
0000
0101
0000
0000
0000
0010
0000
0000
0000
1000
0000
,
0000
0000
1010
0000
0000
0000
0001
0000
0000
0000
0010
0000
,
0000
0000
0011
0000
0000
0000
0100
0000
0000
0000
1000
0000
,
0000
0000
1100
0000
0000
0000
0010
0000
0000
0000
1000
0000
,
0000
0000
1010
0000
0000
0000
0001
0000
0000
0000
0010
0000
,
0000
0000
0011
0000
0000
0000
0100
0000
0000
0000
1000
0000
,
0000
0000
1100
0000
0000
0000
0001
0000
0000
0000
0100
0000
,
0000
0000
0101
0000
0000
0000
1100
0000
0000
0000
1100
0000
,
0000
0000
1100
0000
0000
0000
0011
0000
0000
0000
0011
0000
,
0000
0000
0011
0000
0000
0000
0101
0000
0000
0000
0101
0000
,
0000
0000
0101
0000
0000
0000
1010
0000
0000
0000
1010
0000
,
0000
0000
1010
0000
0000
0000
1100
0000
0000
0000
1100
0000
,
0000
0000
1100
0000
0000
0000
0101
0000
0000
0000
0101
0000
,
0000
0000
0101
0000
0000
0000
0110
0000
0000
0000
0110
0000
,
0000
0000
0110
0000
0000
0000
2002
0000
0000
0000
0000
0000
,
0000
3003
2000
0001
,
0000
0001
3200
0010
,
0000
0010
2300
0010
,
0000
0010
3002
0100
,
0000
0000
0000
0000
0000
0000
0000
0000
0000
0000
0000
0000
0000
0000
0000
0000
0000
0000
0000
0000
0000
0000
0000
0000
0000
0000
0000
0000
0000
0000
0000
0000
0000
0000
0000
0000
0000
0000
0000
0000
0000
0000
0000
0000
0000
0000
0000
0000
0100
0000
0000
0000
0000
0000
0000
0000
0000
0000
0000
0000
0000
0000
0000
0000
0000
0000
0000
0000
0000
0000
0000
0000
0000
0000
0000
0000
0000
0000
0000
0000
0000
0000
0000
0000
0000
0000
0000
0000
0000
0000
0000
0000
0000
0000
0000
0003
2000
0000
0000
0000
0000
0000
0000
0000
0000
0000
0000
0000
0000
0000
0000
0000
0000
0000
0000
0000
0000
0000
0000
0000
0000
0000
0000
0000
0000
0000
0000
0000
0000
0000
0000
0000
0000
0000
0000
0000
0000
0000
0000
0000
0000
0000
0000
0000
0001
0000
0000
0000
0000
0000
0000
0000
0000
0000
0000
0000
0000
0000
0000
0000
0000
0000
0000
0000
0000
0000
0000
0000
0000
0000
0000
0000
0000
0000
0000
0000
0000
0000
0000
0000
0000
0000
0000
0000
0000
0000
0000
0000
0000
0000
0000
0000
,
0000
0001
3200
0010
,
0000
0010
2300
0010
,
0000
0010
3002
0100
,
0000
0000
0000
0000
0000
0000
0000
0000
0000
0000
0000
0000
0000
0000
0000
0000
0000
0000
0000
0000
0000
0000
0000
0000
0000
0000
0000
0000
0000
0000
0000
0000
0000
0000
0000
0000
0000
0000
0000
0000
0000
0000
0000
0000
0000
0000
0000
0000
0100
0000
0000
0000
0000
0000
0000
0000
0000
0000
0000
0000
0000
0000
0000
0000
0000
0000
0000
0000
0000
0000
0000
0000
0000
0000
0000
0000
0000
0000
0000
0000
0000
0000
0000
0000
0000
0000
0000
0000
0000
0000
0000
0000
0000
0000
0000
0003
1000
0000
0000
0000
0000
0000
0000
0000
0000
0000
0000
0000
0000
0000
0000
0000
0000
0000
0000
0000
0000
0000
0000
0000
0100
0000
0000
0000
0000
0000
0000
0000
0000
0000
0000
0000
0000
0000
0000
0000
0000
0000
0000
0000
0000
0000
0000
0000
1000
0000
0000
0000
0000
0000
0000
0000
0000
0000
0000
0000
0000
0000
0000
0000
0000
0000
0000
0000
0000
0000
0000
0000
0000
0000
0000
0000
0000
0000
0000
0000
0000
0000
0000
0000
0000
0000
0000
0000
0000
0000
0000
0000
0000
0000
0000
0000
,
1000
0010
1000
0000
0001
0010
0001
0000
,
0001
0100
0001
0000
1000
0100
1000
0000
,
1000
0010
1000
0000
0001
0010
0001
0000
,
0001
0100
0001
0000
1000
0100
1000
0000
,
1000
0010
1000
0000
0001
0010
0001
0000
,
0001
0100
0001
0000
1000
0100
0001
0100
,
1000
0010
0001
0010
0002
0003
0100
0010
,
0100
0000
1000
0000
0100
0010
0100
0000
,
1000
0000
0001
0100
0001
0000
1000
0100
,
1000
0000
0010
0000
0100
0010
0100
0000
,
0001
0000
0010
0000
0100
0000
1000
0010
,
1000
0000
0001
0000
0010
0100
0010
0000
,
0100
0000
1000
0001
1000
0000
0010
0100
,
0010
0000
0100
0000
0001
0010
0001
0000
,
1000
0000
0010
0000
0100
0000
0010
1000
,
0100
0000
0010
0000
0100
1000
0010
0000
,
0100
0000
0010
1000
0100
0000
0010
0001
,
0100
0000
0010
0000
0100
0001
0010
0000
,
0001
0000
1000
0000
0010
0000
0100
0001
,
1000
0000
0100
0000
1000
0001
0100
0000
,
0010
0000
0100
0001
1000
0000
0100
1000
,
0001
0000
0100
0000
0001
0010
0100
0000
,
1000
0000
0001
0000
0100
0000
0100
0010
,
0100
0000
1000
0000
0100
0010
0100
0000
,
1000
0000
0001
0100
0001
0000
1000
0100
,
1000
0000
0010
0000
0100
0010
0100
0000
,
0001
0000
0010
0000
0100
0000
1000
0010
,
1000
0000
0001
0000
0010
0100
0010
0000
,
0100
0000
1000
0001
1000
0000
0010
0100
,
0010
0000
0100
0000
0001
0010
0001
0000
,
1000
0000
0010
0000
0100
0000
0010
1000
,
0100
0000
0010
0000
0100
1000
0010
0000
,
0100
0000
0010
1000
0100
0000
0010
0001
,
0100
0000
0010
0000
0100
0001
0010
0000
,
0001
0000
1000
0000
0010
0000
0100
0001
,
1000
0000
0100
0000
1000
0001
0100
0000
,
0010
0000
0100
0001
1000
0000
0200
0300
,
0100
0010
0100
0000
1000
0000
0100
0010
,
0100
0000
1000
0000
0001
0100
0001
0000
,
1000
0100
1000
0000
0010
0000
0100
0010
,
0100
0001
0010
0100
,
1000
0010
1000
0000
0001
0000
0010
0100
,
0010
0000
0100
0000
1000
0001
1000
0000
,
0010
0100
0010
0000
0100
0000
0001
0010
,
0001
1000
0010
0100
,
0010
1000
0100
0000
0010
0000
0100
1000
,
0010
0000
0100
0000
0010
1000
0100
0000
,
0010
0001
0100
0000
0010
0000
0100
0001
,
0010
0001
1000
0010
,
0100
0001
1000
0000
0100
0000
1000
0001
,
0100
0000
0010
0000
0100
0001
1000
0000
,
0100
1000
0001
0000
0100
0000
0001
0010
,
0100
1000
0001
0100
,
0100
0010
0100
0000
1000
0000
0100
0010
,
0100
0000
1000
0000
0001
0100
0001
0000
,
1000
0100
1000
0000
0010
0000
0100
0010
,
0100
0001
0010
0100
,
1000
0010
1000
0000
0001
0000
0010
0100
,
0010
0000
0100
0000
1000
0001
1000
0000
,
0010
0100
0010
0000
0100
0000
0001
0010
,
0001
1000
0010
0100
,
0010
1000
0100
0000
0010
0000
0100
1000
,
0010
0000
0100
0000
0010
1000
0100
0000
,
0010
0001
0100
0000
0010
0000
0100
0001
,
0010
0001
1000
0010
,
0100
0001
1000
0000
0100
0000
1000
0001
,
0100
0000
0010
0000
0100
0001
1000
0000
,
0100
1000
0001
0000
0100
0000
0001
0010
,
0100
1000
0001
0100
,
0011
0000
0000
0000
1100
0000
0000
0000
0101
0000
0000
0000
,
1010
0000
0000
0000
0101
0000
0000
0000
1100
0000
0000
0000
,
0011
0000
0000
0000
1001
0000
0000
0000
0101
0000
0000
0000
,
1010
0000
0000
0000
1001
0000
0000
0000
1100
0000
0000
0000
,
1010
0000
0000
0000
0101
0000
0000
0000
1100
0000
0000
0000
,
0011
0000
0000
0000
1100
0000
0000
0000
0101
0000
0000
0000
,
1010
0000
0000
0000
1001
0000
0000
0000
1100
0000
0000
0000
,
0011
0000
0000
0000
1001
0000
0000
0000
0101
0000
0000
0000
,
1010
0000
0000
0000
0011
0000
0000
0000
0101
0000
0000
0000
,
1100
0000
0000
0000
0101
0000
0000
0000
0011
0000
0000
0000
,
1010
0000
0000
0000
0101
0000
0000
0000
1100
0000
0000
0000
,
0011
0000
0000
0000
1100
0000
0000
0000
0101
0000
0000
0000
,
0011
0000
0000
0000
1010
0000
0000
0000
1100
0000
0000
0000
,
0101
0000
0000
0000
1100
0000
0000
0000
1010
0000
0000
0000
,
0011
0000
0000
0000
1100
0000
0000
0000
0101
0000
0000
0000
,
1100
0000
0000
0000
0101
0000
0000
0000
1010
0000
0000
0000
,
0011
0000
0000
0000
1100
0000
0000
0000
0101
0000
0000
0000
,
1010
0000
0000
0000
0101
0000
0000
0000
1100
0000
0000
0000
,
0011
0000
0000
0000
1001
0000
0000
0000
0101
0000
0000
0000
,
1010
0000
0000
0000
1001
0000
0000
0000
1100
0000
0000
0000
,
1010
0000
0000
0000
0101
0000
0000
0000
1100
0000
0000
0000
,
0011
0000
0000
0000
1100
0000
0000
0000
0101
0000
0000
0000
,
1010
0000
0000
0000
1001
0000
0000
0000
1100
0000
0000
0000
,
0011
0000
0000
0000
1001
0000
0000
0000
0101
0000
0000
0000
,
1010
0000
0000
0000
0011
0000
0000
0000
0101
0000
0000
0000
,
1100
0000
0000
0000
0101
0000
0000
0000
0011
0000
0000
0000
,
1010
0000
0000
0000
0101
0000
0000
0000
1100
0000
0000
0000
,
0011
0000
0000
0000
1100
0000
0000
0000
0101
0000
0000
0000
,
0011
0000
0000
0000
1010
0000
0000
0000
1100
0000
0000
0000
,
0101
0000
0000
0000
1100
0000
0000
0000
1010
0000
0000
0000
,
0011
0000
0000
0000
1100
0000
0000
0000
0101
0000
0000
0000
,
2002
0000
0000
3003
,
0002
1000
0000
1000
,
0023
0100
0000
0100
,
0032
0100
0000
0100
,
2003
0000
0000
0000
0000
0000
0000
0000
0000
0000
0000
0000
0000
0000
0000
0000
0000
0000
0000
0000
0000
0000
0000
0000
0000
0000
0000
0000
0000
0000
0000
0000
0000
0000
0000
0000
0000
0000
0000
0000
0000
0000
0000
0000
0000
0000
0000
0000
0010
0000
0000
0000
0000
0000
0000
0000
0000
0000
0000
0000
0000
0000
0000
0000
0000
0000
0000
0000
0000
0000
0000
0000
0000
0000
0000
0000
0000
0000
0000
0000
0000
0000
0000
0000
0000
0000
0000
0000
0000
0000
0000
0000
0000
0000
0000
0000
0000
0000
0000
0000
0000
0000
0000
0000
0000
0000
0000
0000
0000
0000
0000
0000
0000
0000
0000
0000
0000
0000
0000
0000
0000
0000
0000
0000
0000
0000
0000
0000
0000
0000
0000
0000
0000
0000
0000
0000
0000
0000
0000
0000
0000
0000
0000
0000
0010
0000
0000
0000
0000
0000
0000
0000
0000
0000
0000
0000
0000
0000
0000
0000
0000
0000
0000
0000
0000
0000
0000
0000
0000
0000
0000
0000
0000
0000
0000
0000
0000
0000
0000
0000
0000
0000
0000
0000
0000
0000
0000
0000
0000
0000
0000
3000
,
0002
1000
0000
1000
,
0023
0100
0000
0100
,
0032
0100
0000
0100
,
2003
0000
0000
0000
0000
0000
0000
0000
0000
0000
0000
0000
0000
0000
0000
0000
0000
0000
0000
0000
0000
0000
0000
0000
0000
0000
0000
0000
0000
0000
0000
0000
0000
0000
0000
0000
0000
0000
0000
0000
0000
0000
0000
0000
0000
0000
0000
0000
0010
0000
0000
0000
0000
0000
0000
0000
0000
0000
0000
0000
0000
0000
0000
0000
0000
0000
0000
0000
0000
0000
0000
0000
0000
0000
0000
0000
0000
0000
0000
0000
0000
0000
0000
0000
0000
0000
0000
0000
0000
0000
0000
0000
0000
0000
0000
0000
0000
0000
0000
0000
0000
0000
0000
0000
0000
0000
0000
0000
0000
0000
0000
0000
0000
0000
0000
0000
0000
0000
0000
0000
0000
0000
0000
0000
0000
0000
0000
0000
0000
0000
0000
0000
0000
0000
0000
0000
0000
0000
0000
0000
0000
0000
0000
0000
0010
0000
0000
0000
0000
0000
0000
0000
0000
0000
0000
0000
0000
0000
0000
0000
0000
0000
0000
0000
0000
0000
0000
0000
0000
0000
0000
0000
0000
0000
0000
0000
0000
0000
0000
0000
0000
0000
0000
0000
0000
0000
0000
0000
0000
0000
0000
3000
,
0001
0010
0001
0010
0001
0100
0001
0100
,
0010
1000
0010
1000
0100
1000
0100
1000
,
0001
0010
0001
0010
0001
0100
0001
0100
,
0010
1000
0010
1000
0100
1000
0100
1000
,
0001
0010
0001
0010
0001
0100
0001
0100
,
0010
1000
0010
1000
0100
1000
0100
1000
,
0010
1000
0010
1000
0001
0100
0001
0100
0001
0010
0001
0010
0100
1000
0100
1000
,
0002
0003
0100
0010
0100
0000
0001
0000
,
0100
0010
0100
0000
0001
0000
1000
0100
,
1000
0000
0001
0100
0001
0000
0010
0000
,
0100
0010
0100
0000
1000
0000
0010
0000
,
0100
0000
0001
0010
0001
0000
1000
0000
,
0010
0100
0010
0000
0100
0000
0001
1000
,
0001
0000
0010
0100
0010
0000
0100
0000
,
1000
0010
1000
0000
0001
0000
0010
0000
,
0100
0000
0020
0001
0130
0000
0010
0000
,
0200
0001
0310
0000
0100
0000
0020
0001
,
0130
0000
0020
1000
0130
0000
0010
0000
,
0200
1000
0310
0000
1000
0000
0001
0000
,
0010
0000
0200
1000
0301
0000
0100
0000
,
0002
1000
0103
0000
0001
0000
0200
1000
,
0301
0000
0200
0001
0310
0000
0100
0000
,
2000
0010
3100
0000
0001
0000
1000
0000
,
0100
0000
0100
0010
0100
0000
0001
0000
,
0100
0010
0100
0000
0001
0000
1000
0100
,
1000
0000
0001
0100
0001
0000
0010
0000
,
0100
0010
0100
0000
1000
0000
0010
0000
,
0100
0000
0001
0010
0001
0000
1000
0000
,
0010
0100
0010
0000
0100
0000
0001
1000
,
0001
0000
0010
0100
0010
0000
0100
0000
,
1000
0010
1000
0000
0001
0000
0010
0000
,
0100
0000
0020
0001
0130
0000
0010
0000
,
0200
0001
0310
0000
0100
0000
0020
0001
,
0130
0000
0020
1000
0130
0000
0010
0000
,
0200
1000
0310
0000
1000
0000
0001
0000
,
0010
0000
0200
1000
0301
0000
0100
0000
,
0002
1000
0103
0000
0001
0000
0200
1000
,
0301
0000
0200
0300
0100
0010
0100
0000
,
0001
0000
0100
0010
0100
0000
0001
0000
,
1000
0100
1000
0000
0001
0100
0001
0000
,
0010
0000
0100
0010
0100
0000
1000
0000
,
0010
0000
0100
0000
0001
0010
0001
0000
,
1000
0000
0010
0100
0010
0000
0100
0000
,
0001
1000
0001
0000
0010
0100
0010
0000
,
0100
0000
1000
0010
1000
0000
0001
0000
,
0010
0000
0100
0000
0020
0001
0130
0000
,
0010
0000
0200
0001
0310
0000
0100
0000
,
0020
0001
0130
0000
0020
1000
0130
0000
,
0010
0000
0200
1000
0310
0000
1000
0000
,
0001
0000
0010
0000
0200
1000
0301
0000
,
0100
0000
0002
1000
0103
0000
0001
0000
,
0200
1000
0301
0000
0200
0001
0310
0000
,
0100
0000
2000
0010
3100
0000
0001
0000
,
1000
0000
0100
0000
0100
0010
0100
0000
,
0001
0000
0100
0010
0100
0000
0001
0000
,
1000
0100
1000
0000
0001
0100
0001
0000
,
0010
0000
0100
0010
0100
0000
1000
0000
,
0010
0000
0100
0000
0001
0010
0001
0000
,
1000
0000
0010
0100
0010
0000
0100
0000
,
0001
1000
0001
0000
0010
0100
0010
0000
,
0100
0000
1000
0010
1000
0000
0001
0000
,
0010
0000
0100
0000
0020
0001
0130
0000
,
0010
0000
0200
0001
0310
0000
0100
0000
,
0020
0001
0130
0000
0020
1000
0130
0000
,
0010
0000
0200
1000
0310
0000
1000
0000
,
0001
0000
0010
0000
0200
1000
0301
0000
,
0100
0000
0002
1000
0103
0000
0001
0000
,
0200
1000
0301
0000
0200
0001
0310
0000
,
0100
0000
2000
0010
3100
0000
0001
0000
,
1000
0000
0000
0100
0000
0000
1010
0000
0000
0000
0101
0000
,
0000
0000
1100
0000
0000
0000
0011
0000
0000
0000
1100
0000
,
0000
0000
0101
0000
0000
0000
1010
0000
0000
0000
1001
0000
,
0000
0000
1100
0000
0000
0000
0011
0000
0000
0000
1001
0000
,
0000
0000
0101
0000
0000
0000
0011
0000
0000
0000
1100
0000
,
0000
0000
0101
0000
0000
0000
1010
0000
0000
0000
0101
0000
,
0000
0000
1100
0000
0000
0000
0011
0000
0000
0000
1001
0000
,
0000
0000
0101
0000
0000
0000
1010
0000
0000
0000
1001
0000
,
0000
0000
1100
0000
0000
0000
0011
0000
0000
0000
1010
0000
,
0000
0000
1100
0000
0000
0000
0101
0000
0000
0000
1100
0000
,
0000
0000
1010
0000
0000
0000
0011
0000
0000
0000
1100
0000
,
0000
0000
0101
0000
0000
0000
1010
0000
0000
0000
0101
0000
,
0000
0000
1100
0000
0000
0000
1010
0000
0000
0000
0011
0000
,
0000
0000
0101
0000
0000
0000
1100
0000
0000
0000
0101
0000
,
0000
0000
0011
0000
0000
0000
1010
0000
0000
0000
0101
0000
,
0000
0000
1100
0000
0000
0000
1001
0000
0000
0000
1001
0000
,
0000
0000
0110
0000
0000
0000
1010
0000
0000
0000
0101
0000
,
0000
0000
1100
0000
0000
0000
0011
0000
0000
0000
1100
0000
,
0000
0000
0101
0000
0000
0000
1010
0000
0000
0000
1001
0000
,
0000
0000
1100
0000
0000
0000
0011
0000
0000
0000
1001
0000
,
0000
0000
0101
0000
0000
0000
0011
0000
0000
0000
1100
0000
,
0000
0000
0101
0000
0000
0000
1010
0000
0000
0000
0101
0000
,
0000
0000
1100
0000
0000
0000
0011
0000
0000
0000
1001
0000
,
0000
0000
0101
0000
0000
0000
1010
0000
0000
0000
1001
0000
,
0000
0000
1100
0000
0000
0000
0011
0000
0000
0000
1010
0000
,
0000
0000
1100
0000
0000
0000
0101
0000
0000
0000
1100
0000
,
0000
0000
1010
0000
0000
0000
0011
0000
0000
0000
1100
0000
,
0000
0000
0101
0000
0000
0000
1010
0000
0000
0000
0101
0000
,
0000
0000
1100
0000
0000
0000
1010
0000
0000
0000
0011
0000
,
0000
0000
0101
0000
0000
0000
1100
0000
0000
0000
0101
0000
,
0000
0000
0011
0000
0000
0000
1010
0000
0000
0000
0101
0000
,
0000
0000
1100
0000
0000
0000
1001
0000
0000
0001
0000
0000
,
0100
0010
0100
0010
2000
0000
0001
0000
,
0000
0001
3020
0100
,
0000
0100
2030
0100
,
0000
0100
3002
0010
,
0000
0000
0000
0000
0000
0000
0000
0000
0000
0000
0000
0000
0000
0000
0000
0000
0000
0000
0000
0000
0000
0000
0000
0000
0000
0000
0000
0000
0000
0000
0000
0000
0000
0000
0000
0000
0000
0000
0000
0000
0000
0000
0000
0000
0000
0000
0000
0000
0010
0000
0000
0000
0000
0000
0000
0000
0000
0000
0000
0000
0000
0000
0000
0000
0000
0000
0000
0000
0000
0000
0000
0000
0000
0000
0000
0000
0000
0000
0000
0000
0000
0000
0000
0000
0000
0000
0000
0000
0000
0000
0000
0000
0000
0000
0000
0003
2000
0000
0000
0000
0000
0000
0000
0000
0000
0000
0000
0000
0000
0000
0000
0000
0000
0000
0000
0000
0000
0000
0000
0000
0000
0000
0000
0000
0000
0000
0000
0000
0000
0000
0000
0000
0000
0000
0000
0000
0000
0000
0000
0000
0000
0000
0000
0000
0001
0000
0000
0000
0000
0000
0000
0000
0000
0000
0000
0000
0000
0000
0000
0000
0000
0000
0000
0000
0000
0000
0000
0000
0000
0000
0000
0000
0000
0000
0000
0000
0000
0000
0000
0000
0000
0000
0000
0000
0000
0000
0000
0000
0000
0000
0000
0000
,
0000
0001
3020
0100
,
0000
0100
2030
0100
,
0000
0100
3002
0010
,
0000
0000
0000
0000
0000
0000
0000
0000
0000
0000
0000
0000
0000
0000
0000
0000
0000
0000
0000
0000
0000
0000
0000
0000
0000
0000
0000
0000
0000
0000
0000
0000
0000
0000
0000
0000
0000
0000
0000
0000
0000
0000
0000
0000
0000
0000
0000
0000
0010
0000
0000
0000
0000
0000
0000
0000
0000
0000
0000
0000
0000
0000
0000
0000
0000
0000
0000
0000
0000
0000
0000
0000
0000
0000
0000
0000
0000
0000
0000
0000
0000
0000
0000
0000
0000
0000
0000
0000
0000
0000
0000
0000
0000
0000
0000
0003
1000
0000
0000
0000
0000
0000
0000
0000
0000
0000
0000
0000
0000
0000
0000
0000
0000
0000
0000
0000
0000
0000
0000
0000
0010
0000
0000
0000
0000
0000
0000
0000
0000
0000
0000
0000
0000
0000
0000
0000
0000
0000
0000
0000
0000
0000
0000
0000
1000
0000
0000
0000
0000
0000
0000
0000
0000
0000
0000
0000
0000
0000
0000
0000
0000
0000
0000
0000
0000
0000
0000
0000
0010
0000
0000
0000
0000
0000
0000
0000
0000
0000
0000
0000
0000
0000
0000
0000
0000
0000
0000
0000
0000
0000
0000
0000
,
1000
0100
1000
0100
0010
0001
0010
0001
,
0100
0001
0100
0001
1000
0010
1000
0010
,
1000
0100
1000
0100
0010
0001
0010
0001
,
0100
0001
0100
0001
1000
0010
1000
0010
,
1000
0100
1000
0100
0010
0001
0010
0001
,
0100
0000
0001
0000
0100
0000
0001
0000
0010
0001
0100
0010
0100
0010
1000
0100
,
0010
0100
0010
0001
0100
0010
0100
0010
2000
0000
3000
0000
0100
0000
0000
0000
,
0000
0001
0000
0010
,
0000
0100
0000
1000
,
0000
0100
0000
0010
,
0000
0010
0000
0001
,
0000
0010
0000
0100
,
0000
0001
0000
0010
,
0000
0010
0000
0100
,
0000
0010
0000
0001
,
0000
0100
0000
0001
,
0000
0010
0000
0001
,
0000
0100
0000
0010
,
0000
1000
0000
0001
,
0000
0010
0000
1000
,
0000
0100
0000
0010
,
0000
1000
0000
0100
,
0000
0001
0000
0010
,
0000
1000
0000
0100
,
0001
0010
0000
0001
,
1000
0010
0000
0100
,
0001
0100
0000
1000
,
0000
0100
0000
0010
,
0100
1000
0000
0100
,
0010
0100
0000
0010
,
0001
0100
0000
1000
,
0000
0010
0000
1000
,
0010
0100
0000
1000
,
0001
0010
0000
0100
,
0010
0001
0000
1000
,
0000
0100
0000
0001
,
1000
0000
0010
0000
0000
0000
2002
3003
,
0100
0001
1000
0010
,
0100
0001
0010
0010
,
0001
0000
1000
0000
0010
0000
0100
0010
,
0100
0001
0100
0001
,
1000
0010
0100
0001
,
0100
0010
1000
1000
,
0100
0000
0010
0000
0100
0000
0010
0001
,
0010
0001
0100
0010
,
1000
0001
0010
0001
,
1000
0010
0100
0010
,
1000
0000
0001
0000
0010
0000
0100
0010
,
0100
0010
0001
1000
,
0100
1000
0001
0100
,
0001
1000
0010
1000
,
0100
0000
1000
0000
0001
0000
0010
0100
,
0010
0001
1000
0010
,
0100
0010
0100
0000
1000
0000
0100
0010
,
0100
0000
1000
0000
0001
0100
0001
0000
,
1000
0100
1000
0000
0010
0000
0100
0010
,
0100
0001
0010
0100
,
1000
0010
1000
0000
0001
0000
0010
0100
,
0010
0000
0100
0000
1000
0001
1000
0000
,
0010
0100
0010
0000
0100
0000
0001
0010
,
0001
1000
0010
0100
,
0010
1000
0100
0000
0010
0000
0100
1000
,
0010
0000
0100
0000
0010
1000
0100
0000
,
0010
0001
0100
0000
0010
0000
0100
0001
,
0010
0001
1000
0010
,
0100
0001
1000
0000
0100
0000
1000
0001
,
0100
0000
0010
0000
0100
0001
1000
0000
,
0100
1000
0001
0000
0100
0000
0001
0010
,
0100
1000
0001
0100
,
0100
0010
0100
0010
,
0100
0010
0100
0000
,
1000
0001
1000
0001
,
1000
0001
1000
0000
,
0010
1000
0010
1000
,
0010
1000
0010
0000
,
0100
0001
0100
0001
,
0100
0001
0100
0000
,
0010
0100
0001
0100
,
1000
0000
0100
0000
0010
0000
1000
0100
,
1000
0100
0010
0100
,
0001
0000
0100
0000
0010
0000
0001
0100
,
0001
0000
0000
0000
0010
0000
1000
0100
,
1000
0000
0000
0000
0010
0000
0001
0010
,
0001
1000
0010
1000
,
0010
0100
0010
1000
,
0010
1000
0001
1000
0100
0000
0010
0001
,
0100
0000
0010
0000
1000
0100
1000
0000
,
0001
0010
0200
0000
1300
0000
0001
0100
,
0001
0000
1000
0100
1000
0000
0100
0000
,
0010
0001
1000
0001
0100
0000
0010
1000
,
0100
0000
0010
0000
0001
0100
0001
0000
,
1000
0010
0200
0000
0301
0000
1000
0100
,
1000
0000
0001
0100
0001
0000
0000
0000
,
0001
0100
0010
0100
0001
0100
0010
0100
,
0001
0010
0100
0010
0001
0010
0100
0010
,
0001
0100
1000
0100
0001
0100
1000
0100
,
0001
0010
1000
0010
0001
0010
1000
0010
,
0001
1000
0100
0010
0001
1000
0010
0100
,
0001
0010
1000
0001
0100
1000
0010
1000
,
0100
0001
1000
0010
0001
0100
0010
0100
,
0001
0010
0100
1000
0001
0000
0000
0000
,
0010
0000
0000
0000
,
1000
0000
0000
0000
,
0100
0000
0000
0000
,
0001
0000
0000
0000
,
0100
0000
0000
0000
0100
0000
0000
0000
0100
0000
0000
0000
,
0001
0000
0000
0000
0001
0000
0000
0000
0001
0000
0000
0000
,
0010
0000
0000
0000
0010
0000
0000
0000
0010
0000
0000
0000
,
1000
0000
0000
0000
1000
0000
0000
0000
1000
0000
0000
0000
,
0101
0000
0000
0000
0101
0000
0000
0000
0101
0000
0000
0000
,
1010
0000
0000
0000
1010
0000
0000
0000
1010
0000
0000
0000
,
1100
0000
0000
0000
1100
0000
0000
0000
1100
0000
0000
0000
,
0011
0000
0000
0000
0011
0000
0000
0000
0011
0000
0000
0000
,
1010
0000
0000
0000
0011
0000
0000
0000
0101
0000
0000
0000
,
1100
0000
0000
0000
0101
0000
0000
0000
0011
0000
0000
0000
,
1010
0000
0000
0000
0101
0000
0000
0000
1100
0000
0000
0000
,
0011
0000
0000
0000
1100
0000
0000
0000
0101
0000
0000
0000
,
0110
0000
1000
0000
0100
0000
0010
0000
0100
0000
1000
0000
,
1010
0000
0000
0000
0101
0000
0000
0000
1100
0000
0000
0000
,
0110
0000
0001
0000
0100
0000
0010
0000
0100
0000
0001
0000
,
0011
0000
0000
0000
1100
0000
0000
0000
0101
0000
0000
0000
,
1001
0000
0010
0000
1000
0000
0100
0000
0010
0000
0001
0000
,
1100
0000
0000
0000
0110
0000
0000
0000
0101
0000
0000
0000
,
1001
0000
0010
0000
0001
0000
0100
0000
0010
0000
1000
0000
,
0101
0000
0000
0000
0110
0000
0000
0000
1100
0000
0000
0000
,
2000
0000
0000
3000
,
1000
0000
0000
0000
0100
0000
0000
0000
0001
0000
0000
0000
,
0101
0000
0000
0000
0110
0000
0000
0000
0101
0000
0000
0000
,
1000
0000
0100
0000
0010
0000
0100
0000
1000
0000
0001
0000
,
1001
0000
0001
0000
0010
0000
1000
0000
0010
0000
0001
0000
,
1001
0000
1000
0000
0010
0000
0001
0000
0010
0000
1000
0000
,
1001
0000
0001
0000
0010
0000
1000
0000
0010
0000
0001
0000
,
0110
0000
0010
0000
0001
1000
0001
1000
,
0200
0000
0000
0000
,
0000
0000
0000
0000
,
0000
0000
0000
0000
,
0000
0000
0000
0300
;
