#TITLE:Not Like Us;
#SUBTITLE:;
#ARTIST:Kendrick Lamar;
#TITLETRANSLIT:;
#SUBTITLETRANSLIT:;
#ARTISTTRANSLIT:;
#GENRE:;
#CREDIT:Tundrus;
#MUSIC:NotLikeUs.mp3;
#BANNER:jacket.png;
#BACKGROUND:jacket.png;
#CDTITLE:jacket.png;
#SAMPLESTART:0.000;
#SAMPLELENGTH:0.000;
#SELECTABLE:YES;
#OFFSET:-0.069;
#BPMS:0.000=101.000;
#STOPS:;
#BGCHANGES:;
#FGCHANGES:;

//--------------- dance-single - Tundrus ----------------
#NOTES:
     dance-single:
     Tundrus:
     Beginner:
     4:
     0,0,0,0,0:
0000
0000
0000
0000
,
0000
0000
0000
0000
,
0000
0000
0000
0000
,
0000
1000
0000
0000
0001
0000
0100
0000
,
0010
1000
0001
0010
,
0100
0100
0010
0010
,
0001
0010
0100
1000
,
0010
0100
0001
0001
,
0100
0010
1000
1000
,
0001
0010
0001
1000
,
0010
1000
0010
0100
,
2002
0000
0000
0000
,
3003
0100
0010
0100
0010
0000
1000
0000
,
1001
0010
0100
0010
,
1000
0100
0010
0100
,
1000
0010
0100
0001
,
0010
0100
1000
0001
,
0010
0000
0001
0100
,
0000
0010
1000
0000
0100
0000
0010
0000
,
0000
0001
1000
0000
0010
0000
0100
0000
,
0000
1000
0001
0000
0100
0000
0010
0000
,
0000
0100
0010
0000
1000
0000
0001
0100
,
0000
0010
0000
0010
1000
0000
0001
0000
,
0000
1000
0010
0000
1000
0000
0001
0000
,
0100
0010
0100
0001
,
0100
0010
0100
0010
0100
0000
0001
0000
,
1000
0001
1000
0001
1000
0000
0100
0000
,
0000
0000
0001
0000
0000
0000
1000
0000
0000
0001
0000
0000
1000
0000
0000
0000
,
0010
0000
0100
0000
0001
1000
0010
2000
,
0000
0000
0000
0000
,
0000
0000
0000
0000
,
3001
0100
0010
1000
,
0010
1000
0010
1000
,
0100
0100
0010
0001
,
0010
0000
0001
0000
0010
0000
0001
1000
,
0100
0000
0010
0000
0100
0000
1000
0001
,
1000
0000
0010
0000
1000
0000
0001
0100
,
0001
0000
1000
0000
0010
0000
0100
0010
,
0100
0100
0001
0010
,
0110
1000
0001
0100
,
0110
1000
0100
0010
,
0001
0001
1000
1000
,
1001
0000
0010
0000
0100
0000
0001
0010
,
0100
0000
1000
0000
0001
0000
1000
0100
,
0010
0000
0001
0000
0010
0000
0100
0010
,
0001
0000
1000
0001
1000
0001
0010
0100
,
0010
0000
1000
0000
0001
0000
0010
0100
,
0010
0000
0001
0000
1000
0000
0010
0100
,
0010
0000
1000
0000
0001
0000
1000
0010
,
0100
0000
0001
0000
1000
0000
0001
0100
,
0010
0000
0000
0000
0000
1000
0001
0000
,
0100
0010
1000
0001
,
1001
0000
0000
0000
0000
0000
0000
0000
0000
0000
0000
0000
0000
0000
0200
0300
,
0000
0000
0000
0000
0000
0000
0000
0000
0000
0000
0200
0000
0000
0300
0020
0000
,
0030
1000
0001
0000
0001
0000
0001
0000
,
0000
0001
1000
0000
1000
0010
0000
0000
,
0100
0010
1000
0001
,
0100
0010
1000
0001
,
0010
0010
0001
1000
,
0010
0010
1000
0001
,
0100
0010
0100
0000
0001
1000
0001
0000
,
0010
0100
0010
0000
0001
1000
0001
0000
,
1000
0001
1000
0001
,
0010
0100
0010
0100
;

//--------------- dance-single - Tundrus ----------------
#NOTES:
     dance-single:
     Tundrus:
     Easy:
     7:
     0,0,0,0,0:
0000
0000
0000
0000
,
0000
0000
0000
0000
,
0000
0000
0000
0000
1000
0001
1000
0100
,
0000
0010
0000
0000
0001
1000
0010
0100
,
0010
0100
0001
1000
0010
0100
1000
0001
,
0010
0100
0001
1000
0010
0100
0001
0010
,
0100
0100
0010
0010
1000
0100
0010
0001
,
0100
0000
0010
0000
1000
0000
0001
0000
0100
0000
0010
0000
0000
1000
0000
0000
,
0000
0000
0010
0000
0100
0000
0001
0000
1000
0000
0010
0000
0000
0100
0000
0000
,
1000
0000
0001
0000
0100
0000
0010
0000
0100
0000
0001
0000
0000
1000
0000
0000
,
0000
0000
0001
0000
1000
0000
0010
0000
0100
0000
0000
0001
0000
1000
0000
0000
,
2002
0000
0000
0000
,
3003
0000
0100
0000
0010
0000
0100
0010
1000
0000
0000
0001
0000
0001
0000
0000
,
1001
0000
0100
0001
1000
0000
0010
0000
,
1000
0001
0100
0010
1000
0000
0001
0000
,
0010
0100
0010
0100
1000
0000
0001
0000
,
0010
0100
0001
1000
0100
0000
0100
0000
,
0010
1000
0000
0000
0000
0000
0000
1000
0001
0000
0100
0000
0010
0000
0000
0000
,
0000
0100
0010
0000
1000
0000
0001
0000
0010
0000
0100
0000
0010
0000
0000
0000
,
0000
1000
0001
0100
0010
1000
0001
0000
,
0000
0001
1000
0100
0010
0001
1000
0000
,
0000
1000
0001
0100
0010
1000
0001
0100
,
0000
0010
1000
0010
0100
0001
0010
0100
,
0000
0001
0010
0100
1000
0010
0100
0001
,
1000
0001
0100
0010
0100
0010
1000
0001
,
0010
0001
1000
0100
0011
0001
1000
0010
,
0010
1000
0001
0100
0101
1000
0001
0010
,
0000
0000
0100
0000
1000
0000
0001
0010
0100
0000
0000
0000
1000
0000
0000
0000
,
0010
1000
0100
0010
0001
1000
0010
2000
,
0000
0000
0000
0000
,
0000
0000
0000
0000
,
3001
0000
0000
1000
0000
0000
0010
0000
0000
0100
0000
0000
0001
0000
1000
0000
0001
0000
1000
0000
0000
0000
0000
0000
,
0001
1000
0001
1000
0000
0000
0001
1000
0001
1000
0000
0000
,
0010
0000
0000
0100
0000
0000
0001
0000
0000
1000
0000
0000
0010
0000
0100
0000
0010
0000
0100
0000
0000
0000
0000
0000
,
0010
0000
0100
0000
0010
0000
0100
0000
0000
0000
0000
0000
0010
0000
0100
0000
0010
0000
0100
0000
0000
0001
0000
0000
,
1000
0000
0000
0100
1000
0000
0001
0000
0010
0000
0001
0000
1000
0000
0100
0000
,
0010
0000
0000
0100
0010
0000
0001
0000
0100
0000
0010
0000
1000
0000
0001
0000
,
0100
0000
0000
0010
1000
0000
0001
0000
0100
0000
0010
0000
1000
0000
0001
0000
,
0100
0000
0000
0010
1000
0000
0100
0000
0010
0000
0000
0001
0100
0000
0010
0000
,
1000
0000
0000
0001
1000
0000
0100
0000
0010
0000
0100
0000
0010
0000
0001
0000
,
1000
0000
0000
0010
0100
0000
0001
0000
1000
0000
0100
0010
0002
0000
0003
0000
,
0100
0000
0000
0010
0000
0000
1000
0000
0100
0000
1000
0000
0100
0000
0000
0010
0000
0000
0001
0000
0000
0010
0000
0000
,
0001
0000
0000
0000
0000
0000
1000
0000
0000
0001
0000
0000
0100
0000
0000
0010
0000
0000
0100
0001
0000
0010
0100
0000
,
1000
0000
0000
0000
0000
0000
0001
0000
0000
1000
0000
0000
0100
0000
0000
0010
0000
0000
1000
0000
0001
0000
0100
0000
,
0010
0000
0000
0000
0000
0000
1000
0000
0000
0100
0000
0000
0010
0000
0000
0001
0000
0000
1000
0010
0000
0100
0010
0000
,
0001
0000
1000
0100
0010
0001
0010
0001
,
0010
0000
0000
0000
1000
0000
0001
0000
0100
0000
0010
0000
1000
0100
0010
0000
,
0001
0000
0000
0000
1000
0000
0001
0000
0100
0000
0010
0000
1000
0001
0100
0000
,
0010
0000
0000
0000
0000
0000
1000
0000
0000
0001
0000
0000
0100
0000
0010
0000
0100
0000
1000
0000
0001
0000
1000
0000
,
0001
0000
0000
0000
0000
0000
0001
0000
0000
1000
0000
0000
0010
0000
0100
0000
0010
0000
0100
0000
0001
0000
1000
0000
,
0001
0000
0000
0000
0000
1000
0001
0100
,
0010
0000
0100
0000
0001
0000
1000
0100
0010
0000
0001
0000
1000
0000
0010
0000
,
1001
0000
0000
0000
0000
0000
0000
0200
,
0300
0000
0000
0000
0000
0200
0000
0320
,
0030
0000
0200
0300
0001
0000
0200
0300
0001
0000
0200
0300
0001
0000
0000
0000
,
0000
0000
0020
0030
1000
0000
0020
0030
1000
0000
0020
0030
0000
0000
0000
0000
,
1000
0000
0001
0000
0100
0000
0010
0000
1000
0001
1000
0000
0100
0000
0000
0000
,
1000
0000
0001
0000
0100
0000
0010
0000
1000
0001
1000
0000
0100
0000
0000
0000
,
0010
0000
0000
0010
0000
0000
0001
0000
0000
0001
0000
0000
0001
0000
0010
0000
0100
0000
1000
0000
0000
0000
0000
0000
,
0010
0000
0000
0010
0000
0000
1000
0000
0000
1000
0000
0000
1000
0000
0010
0000
0100
0000
0001
0000
0000
0000
0000
0000
,
1000
0010
1000
0000
0001
0010
0001
0100
,
0001
1000
0001
0000
1000
0001
1000
0000
,
0001
1000
0001
1000
,
0010
0100
0010
0100
;

//--------------- dance-single - Tundrus ----------------
#NOTES:
     dance-single:
     Tundrus:
     Medium:
     10:
     0,0,0,0,0:
0000
0000
0000
0000
,
0000
0000
0000
0000
,
0000
0000
0000
0000
0000
0000
0000
0000
1000
0001
1000
0001
1000
0000
0100
0000
,
0000
0000
1000
0000
0000
0000
0000
0000
0100
0010
0100
0010
1000
0000
0001
0000
,
0100
0000
0000
0000
0000
0000
0001
0000
0000
0000
0000
0000
0010
0000
0000
0100
0000
0000
1000
0000
0000
0000
0000
0000
0010
0000
0100
0000
0000
0000
0001
0000
0000
0000
0000
0000
1000
0000
0000
0000
0000
0000
0001
0000
0000
0000
0000
0000
,
0100
0000
0100
0000
0010
1000
0001
0100
0010
0000
1000
0000
0001
0000
0001
0000
,
0010
0001
1000
0010
1000
0100
0000
0001
1000
0001
1000
0000
0100
0010
0000
0001
,
0100
0010
1000
0100
0010
0001
0010
0000
0001
0000
1000
0000
0100
0010
0000
0000
,
0000
0001
1000
0001
1000
0010
1000
0010
0100
0001
0010
0100
1000
0100
0010
0100
,
0001
1000
0010
0100
0010
0100
0010
1000
0001
0100
0010
1000
0010
1000
0000
0000
,
0000
0100
0010
0001
0010
0000
0001
1000
0100
0010
0001
1000
0000
1000
0000
0000
,
2002
0000
0000
0000
,
3003
0000
0100
0010
0100
0010
1000
0001
0100
0010
1000
0001
0000
1000
0000
0000
,
0000
0000
0000
0100
0010
0001
0010
0001
0010
0000
0000
0000
0100
0000
0000
0000
,
0001
0010
0100
0010
0100
1000
0001
0100
0010
1000
0001
0100
0010
0000
0000
0000
,
1000
0001
0100
0000
0010
0000
0100
0010
0100
0001
1000
0010
0100
0010
0100
0000
,
0001
0000
0000
0100
0000
0000
0010
0000
0000
0000
0000
0000
1000
0000
0000
0000
0001
0000
0000
0000
0000
1000
0000
0000
0000
0000
0000
0010
0000
0000
0100
0000
0000
0001
0000
0000
0010
0000
0000
0100
0000
0000
1000
0000
0000
0000
0000
0000
,
0010
1000
0000
0000
0000
0000
0000
0001
1000
0100
0010
0100
0010
0000
0000
0000
,
0000
0100
1000
0001
0100
0010
0100
0001
0100
0000
0100
0000
0010
0000
0000
0000
,
0000
1000
0001
0100
0010
1000
0001
0000
0100
0000
0010
0100
0010
0000
0000
0000
,
0000
0100
0001
0000
1000
0100
0010
0001
0010
0001
0010
0001
0010
0000
0000
0000
,
0000
0001
1000
0100
0010
0001
1000
0100
0010
0100
1000
0001
0100
0010
0100
0000
,
0000
0000
0000
0010
0000
0000
1000
0000
0000
0010
0000
0000
1000
0000
0000
0010
0000
0000
1000
0000
0000
0000
0000
0000
0001
0000
0000
0000
0000
0000
1000
0000
0010
0000
0000
0000
0100
0000
0000
0000
0000
0000
0100
0000
0000
0000
0000
0000
,
0000
0001
1000
0001
0100
0010
0100
0000
0100
0000
0001
0010
0100
1000
0100
0000
,
0010
0100
0000
0010
0000
0000
1000
0000
0000
0000
0000
0000
0100
0010
0000
0100
0000
0000
0001
0000
0000
0000
0000
0000
,
0001
0000
0010
0000
0100
0000
1000
0000
1001
0000
0100
0000
0010
0100
0010
0000
,
0100
0000
0010
0000
1000
0000
0001
0000
0110
0000
1000
0001
1000
0001
1000
0000
,
0000
0000
0000
0000
0000
0000
0010
0000
0000
0100
0000
0000
0001
0000
0000
1000
0000
0000
0010
0000
0000
0100
0000
0000
0001
0000
0000
1000
0000
0000
0000
0000
0001
0000
0000
0000
1000
0000
0000
0000
0000
0000
0100
0000
0000
0000
0000
0000
,
0001
0010
0001
0010
0001
0000
1000
0100
0010
0000
0100
0000
0001
0000
2000
0000
,
0000
0000
0000
0000
,
0000
0000
0000
0000
,
3001
0000
0000
0001
0000
0000
0010
0000
0000
0001
0000
0000
1000
0000
0100
0000
1000
0000
0100
0000
0000
0000
0000
0000
,
0010
0100
0010
0100
0000
0000
1000
0001
1000
0001
0000
0000
,
1000
0000
0000
1000
0000
0000
0100
0000
0000
1000
0000
0000
0001
0000
0010
0000
0100
0000
1000
0000
0000
0000
0000
0000
,
0010
0000
0000
0000
0100
0000
0000
0000
0001
0000
0000
0000
1000
0000
0000
0000
0000
0000
0000
0000
0000
0000
0000
0000
1000
0000
0000
0000
0001
0000
0000
0000
0100
0000
0000
0000
0010
0000
0000
0000
0000
0000
1000
0000
0000
0001
0000
0000
,
0010
0000
0000
1000
0100
0010
0001
0000
1000
0000
0010
0100
0010
0100
0001
0100
,
0010
0000
0000
1000
0001
0100
0010
0000
1000
0001
0000
0100
0010
0100
0001
0010
,
0001
0000
0000
1000
0010
0100
0010
0100
0001
0000
0100
0010
1000
0100
0010
0001
,
1000
0000
0000
0100
0010
1000
0001
0010
0100
0010
0000
0001
1000
0100
0010
0100
,
1000
0000
0000
0001
0100
0000
0010
1000
0001
1000
0010
0100
0001
1000
0010
0100
,
0001
0000
0000
0000
0000
0000
0000
0000
0000
1000
0000
0000
0200
0000
0000
0300
0000
0000
0010
0000
0000
0100
0000
0000
1000
0000
0001
0000
0000
0000
0100
0000
0000
0010
0000
0000
0100
0000
0010
0000
0100
0000
0000
0000
0001
0000
0000
0000
,
1000
0000
0000
0000
0000
0000
0010
0000
0000
0000
0000
0000
1000
0000
0000
0000
0001
0000
0000
0000
1000
0000
0000
0000
0001
0000
0000
1000
0000
0000
0010
0000
0000
0100
0000
0000
0001
0000
0100
0000
0010
0000
0000
0000
0100
0000
0000
0000
,
0110
0000
0000
0000
0000
0010
0000
0000
0000
0000
0000
0000
1000
0000
0001
0000
0000
0000
0100
0000
0000
0000
0000
0000
0010
0000
0100
0000
0000
0000
0010
0000
0100
0000
0000
0000
0001
0000
1000
0000
0000
0000
0001
0000
1000
0000
0000
0000
,
0100
0000
0000
0000
0000
0010
0000
0000
0000
0000
0000
0000
0001
0000
0000
0000
0000
0000
0100
0000
0000
0000
0000
0000
0010
0000
1000
0000
0000
0000
0001
0000
1000
0000
0000
0000
0001
0000
0000
0000
0100
0000
0000
0000
0010
0000
0000
0000
,
1000
0000
0000
0000
0000
0010
0000
0000
0000
0000
0000
0000
1000
0000
0000
0000
0000
0000
0001
0000
1000
0000
0000
0000
0100
0000
0000
0000
0000
0000
0010
0000
0001
0000
0000
0000
0100
0000
0001
0000
0000
0000
1000
0000
0100
0000
0000
0000
,
1000
0000
0000
0000
0000
0010
0000
0000
0000
0000
0000
0000
1000
0000
0000
0000
0000
0000
0100
0000
0000
0000
0000
0000
0010
0000
0000
0000
0000
0000
0001
0000
0000
0000
0000
0000
0100
0000
0000
0000
0000
0000
0010
0000
0000
0000
0000
0000
,
0100
0000
0000
0000
0000
0010
0000
0000
0000
0000
0000
0000
1000
0000
0001
0000
0000
0000
0100
0000
0010
0000
0000
0000
1000
0000
0000
0000
0000
0000
0001
0000
0000
0000
0000
0000
0010
0000
0000
0001
0000
0000
0010
0000
0000
0000
0000
0000
,
0100
0000
0000
0000
0000
0010
0000
0000
0000
0000
0000
0000
1000
0000
0001
0000
0000
0000
0100
0000
0000
0000
0000
0000
1000
0000
0001
0000
0000
0000
0001
0000
1000
0000
0000
0000
0001
0000
1000
0000
0000
0000
0010
0000
0000
0000
0000
0000
,
0100
0000
0000
0000
0000
0010
0000
0000
0000
0000
0000
0000
1000
0000
0000
0001
0000
0000
1000
0000
0000
0000
0000
0000
0010
0000
0000
0000
1000
0000
0000
0000
0001
0000
0000
0000
0010
0000
0000
0000
0001
0000
0000
0000
1000
0000
0000
0000
,
0001
0000
0000
0000
0000
0010
0000
0000
0000
0000
0000
0000
0100
0000
1000
0000
0000
0000
0000
0000
0001
0000
0000
0000
0010
0000
0000
0000
0001
0000
0000
0000
1000
0000
0000
0000
0100
0000
0000
0000
0010
0000
0000
0000
1000
0000
0000
0000
,
0001
0000
0000
0000
0000
0010
0000
0000
0000
0000
0000
0000
0000
0000
0000
0000
0000
0000
0000
0000
0000
0000
0000
0000
0000
0000
0000
1000
0000
0000
0001
0000
0000
0000
0000
0000
1000
0000
0000
0000
0000
0000
0010
0000
0000
0100
0000
0000
,
0001
0000
0100
0010
0100
0000
0001
1000
0010
0000
0100
0001
1000
0000
0100
0010
,
0100
1000
0000
0000
0000
0000
0000
0000
0000
0000
0000
0000
0000
0000
0200
0000
,
0300
0000
0000
0000
0000
0200
0000
0320
,
0030
0000
0001
0100
0002
0003
0100
0001
0200
0300
0001
0100
0002
0003
0200
0300
,
0000
0000
0010
1000
0020
0030
1000
0010
2000
3000
0010
1000
0000
0000
0000
0000
,
0001
1000
0010
0000
0001
0000
1000
0001
0100
0010
0100
0000
1001
0000
0000
0000
,
0001
1000
0010
0000
0001
0000
1000
0001
0100
0010
0100
0000
1001
0000
0000
0000
,
0100
0000
0000
0100
0000
0000
0100
0000
0000
0100
0000
0000
0010
0000
1000
0000
0001
0000
0010
0000
0000
0000
0000
0000
,
0010
0000
0000
0010
0000
0000
0010
0000
0000
0010
0000
0000
0001
0000
1000
0000
0001
0000
0100
0000
0000
0000
0000
0000
,
1000
0100
0010
0000
0001
0010
0100
0100
,
0010
0001
1000
0000
0010
1000
0001
0100
,
0001
1000
0001
1000
,
0010
0100
0010
0100
;
