#TITLE:Necromantic;
#SUBTITLE:;
#ARTIST:㚁Records;
#TITLETRANSLIT:;
#SUBTITLETRANSLIT:;
#ARTISTTRANSLIT:;
#GENRE:;
#CREDIT:Tundrus;
#MUSIC:Necromantic.ogg;
#BANNER:Banner.png;
#BACKGROUND:Background.png;
#CDTITLE:CDTitle.png;
#SAMPLESTART:66.642;
#SAMPLELENGTH:6.760;
#SELECTABLE:YES;
#OFFSET:-0.036;
#BPMS:0.000=144.000;
#STOPS:;
#BGCHANGES:0.000=Necromantic.mp4=1.000=0=0=1,
322.000=Background.png=1.000=1=0=1===CrossFade==,
99999.000=-nosongbg-=1.000=0=0=0=StretchNoLoop====
;
#FGCHANGES:;

//--------------- dance-single - Tundrus ----------------
#NOTES:
     dance-single:
     Tundrus:
     Beginner:
     4:
     0.152352,0.196999,0.022218,0.118496,0,144,141,3,16,0,0,0.152352,0.196999,0.022218,0.118496,0,144,141,3,16,0,0:
0000
0000
0000
0000
,
0000
0000
0000
0000
,
0000
0000
0000
0000
,
0000
0000
0000
0000
,
0100
0000
0010
0000
,
0001
0000
1000
0000
,
0100
0000
0010
0000
,
0001
0000
0002
0003
,
1000
0000
0001
0000
,
0010
0000
0100
0000
,
1000
0000
1000
0000
,
0001
0000
0020
0030
,
0100
0000
1000
0000
,
0001
0000
1000
0000
,
0010
0000
0010
0000
,
1000
0000
0000
0000
2002
0000
0000
3003
,
0000
0100
0000
0010
,
0000
0100
0001
0100
,
0000
0010
0000
0100
,
0000
0010
1000
0010
,
0000
0010
0000
0100
,
0000
0010
0001
0010
,
0000
0100
0000
0010
,
0000
0100
1000
0100
,
0001
0000
1000
0000
,
0010
0100
0001
1000
,
0001
0000
1000
0000
,
0001
0010
0100
1000
,
0020
0000
0030
1000
,
0000
1000
0001
0100
,
0020
0000
0030
1000
,
0000
1000
0001
0100
,
0001
0000
1000
0000
,
0010
0000
0100
0000
,
1000
0000
0001
0000
,
1000
0010
1000
0000
,
0001
0000
1000
0000
,
0010
0000
0100
0000
,
0001
0000
1000
0000
,
0010
0100
0010
0000
,
1000
0000
0001
0000
,
1000
0000
0010
0000
,
0100
0000
0001
0000
,
0010
0000
2000
3000
,
0100
0000
0010
0000
,
1000
0000
0001
0000
,
0100
0000
0010
0000
,
1000
0000
2000
3000
,
0001
0000
0001
0000
,
0010
0000
0100
0000
,
1000
0000
0100
0000
,
0010
0000
0002
0003
,
1000
0000
0100
0000
,
0001
0000
1000
0000
,
0010
0000
0010
0000
,
1000
0000
0001
1000
,
0020
0000
0000
0000
,
0030
0000
0001
1000
,
0020
0000
0000
0000
,
0030
0000
1000
0001
,
0200
0000
0000
0000
,
0300
0000
1000
0001
,
0200
0000
0000
0000
,
0300
0000
0000
0000
,
0000
1000
0000
0000
0000
1000
0000
0001
,
0000
0000
0000
0000
,
0000
0001
0000
0000
0000
0001
0000
1000
,
0000
0000
0020
0000
,
0030
0000
0000
1000
0000
0000
0000
0001
,
0000
0000
0000
0000
,
0000
0010
0000
0000
0000
0010
0000
0100
,
0000
0000
1001
0000
,
2002
0000
0000
0000
,
0000
0000
0000
0000
,
0000
0000
0000
0000
,
0000
0000
0000
0000
,
3003
0000
0000
0000
;

//--------------- dance-single - Tundrus ----------------
#NOTES:
     dance-single:
     Tundrus:
     Easy:
     7:
     0.262383,0.337713,0.059248,0.222179,0.007406,248,240,8,30,0,0,0.262383,0.337713,0.059248,0.222179,0.007406,248,240,8,30,0,0:
0000
0000
0000
0000
,
0000
0000
0000
0000
,
0000
0000
0000
0000
,
0000
0000
0000
0000
,
1000
0001
1000
0001
,
0000
0100
0001
0010
,
0100
1000
0001
0010
,
0100
0010
0020
0030
,
0010
0100
0001
1000
,
0000
0001
1000
0010
,
0100
0001
1000
0010
,
0100
0001
2000
3000
,
0100
0001
0100
0010
,
0000
0001
1000
0100
,
0010
0001
0100
0010
,
1000
0100
0020
0030
,
0100
0001
1000
0010
,
1000
0001
0010
0010
,
0001
0100
0010
1000
,
0001
0100
0010
0010
,
1000
0001
0100
0010
,
1000
0001
1000
0001
,
0100
0010
1000
0001
,
0100
0001
1000
0010
,
0100
0001
0100
0000
0010
1000
0010
0000
,
1000
0001
0010
0100
,
1000
0100
1000
0000
0001
0010
0001
0000
,
1000
1000
0001
0001
,
2002
0000
0000
3003
0000
0010
0100
0010
,
0000
0100
0010
0100
0010
0000
1000
0000
,
0220
0000
0000
0330
0000
0001
1000
0001
,
0000
1000
0001
1000
0001
0000
1001
0000
,
0010
0100
0001
0100
,
0010
1000
0001
0010
,
0100
1000
0001
1000
,
0020
0030
0200
0300
0002
0003
2000
3000
,
0010
1000
0001
1000
,
0001
0100
0001
1000
,
0010
0100
0001
1000
,
0002
0003
0020
0030
0200
0300
2000
3000
,
0001
1000
0010
0100
,
0000
0001
0010
0001
,
1000
0010
0100
0001
,
1000
0010
0200
0300
,
0001
1000
0001
1000
,
0000
0100
1000
0010
,
0100
0001
1000
0010
,
0100
0010
0020
0030
,
0010
0100
0001
1000
,
0000
1000
0001
0010
,
0100
1000
0001
0010
,
0100
1000
0002
0003
,
0100
0010
1000
0010
,
0000
1000
0001
0100
,
0010
1000
0100
0010
,
0001
0100
0020
0030
,
2020
0000
0000
0000
,
3030
0000
0002
0003
,
0202
0000
0000
0000
,
0303
0000
0010
0100
,
0220
0000
0000
0000
,
0330
0000
1000
0001
,
2002
0000
0000
0000
,
3003
0010
0000
0100
0000
0010
0000
0001
,
0000
1000
0000
0001
0000
0010
0000
0100
,
0000
0000
0000
0000
,
0000
1000
0000
0001
0000
0010
0000
0100
,
0000
0000
1000
0000
0001
0000
1000
0000
0010
0000
0000
1000
0000
0000
0100
0000
,
0000
1000
0000
0001
0000
0100
0000
0010
,
0000
0000
0000
0000
,
0000
1000
0000
0001
0000
0010
0000
0100
,
0000
0000
0010
0000
0000
0000
0100
0000
1000
0000
0000
0001
0000
0000
0000
0000
,
2002
0000
0000
0000
,
0000
0000
0000
0000
,
0000
0000
0000
0000
,
0000
0000
0000
0000
,
3003
0000
0000
0000
;

//--------------- dance-single - Tundrus ----------------
#NOTES:
     dance-single:
     Tundrus:
     Medium:
     11:
     0.467635,0.506569,0.07406,0.059248,0.044436,442,432,10,8,0,0,0.467635,0.506569,0.07406,0.059248,0.044436,442,432,10,8,0,0:
0000
0000
0000
0000
,
0000
0000
0000
0000
,
0000
0000
0000
0000
,
0000
0000
0000
0000
,
1000
0001
1000
0001
0100
0010
0100
0010
,
0000
1000
0001
0010
0100
1000
0001
0100
,
0010
1000
0001
1000
0010
0100
0001
1000
,
0100
0000
0010
0000
0001
0000
1000
0000
0010
0000
0000
1000
0000
0000
0010
0000
,
0100
0001
0100
0001
1000
0100
1000
0100
,
0000
0001
0010
0100
0010
0001
1000
0010
,
1000
0100
0010
0001
1000
0100
0010
0001
,
0010
0000
0100
0000
0010
0000
1000
0000
0001
0000
0000
0100
0000
0000
0001
0000
,
1000
0100
0010
0001
0001
0010
0100
1000
,
0000
0010
0100
0001
1000
0010
0100
0001
,
1000
0010
0100
0001
0010
0100
1000
0001
,
0100
0000
0010
0000
1000
0000
0001
0000
0100
0000
0000
0010
0000
0000
0100
0000
,
0001
0000
1000
0100
0010
0000
0001
0010
,
0100
0000
1000
0001
0100
0010
1000
0001
,
0100
0000
0001
0010
0001
0000
1000
0010
,
0100
0001
1000
1001
,
0010
0000
0001
0100
0010
0000
1000
0010
,
0100
0000
0001
1000
0100
0010
0001
1000
,
0100
0000
1000
0010
1000
0000
0001
0010
,
0100
1000
0001
1001
,
1000
0100
1000
0100
0010
0100
0010
0100
,
0001
0010
0001
0010
0001
0010
0100
1000
,
0001
1000
0001
1000
0010
0100
0010
0100
,
0001
0010
0001
0010
0001
0010
0100
1000
,
2200
0000
0000
3300
0000
0001
0010
0100
,
0000
0010
0100
1000
0100
0000
0010
0000
,
0022
0000
0000
0033
0000
0001
0010
0100
,
0000
0010
0100
1000
0100
0000
0202
0303
,
0010
0000
1000
0001
0010
0100
0000
0010
,
0000
0001
0010
0100
1000
0100
0000
0010
,
0000
1000
0001
0100
0010
1000
0000
0001
,
1010
0000
1010
0000
0100
0001
0000
0100
,
0010
1000
0001
1000
0100
0010
0000
0100
,
0000
1000
0100
0010
0001
0010
0000
1000
,
0000
0001
0010
0100
0010
0001
0000
0100
,
0110
0000
0110
0000
0001
0100
0000
0010
,
1000
0100
1000
0100
0010
0100
0010
0100
,
0000
0001
1000
0010
0100
0001
0010
0100
,
0010
0001
1000
0010
0100
0001
1000
0010
,
0100
0000
0010
0000
0100
0000
0001
0000
1000
0000
0000
0010
0000
0000
1000
0000
,
0001
1000
0001
1000
0100
0010
0100
0010
,
0000
0001
1000
0010
0100
0001
1000
0100
,
0010
0001
1000
0001
0010
0100
1000
0001
,
0100
0000
0010
0000
1000
0000
0001
0000
0010
0000
0000
0010
0000
0000
0010
0000
,
0100
1000
0100
1000
0001
0100
0001
0100
,
0000
1000
0010
0100
0010
1000
0001
0010
,
0001
0100
0010
1000
0001
0100
0010
1000
,
0010
0000
0100
0000
0010
0000
0001
0000
1000
0000
0000
0100
0000
0000
1000
0000
,
0001
0100
0010
1000
1000
0010
0100
0001
,
0000
0010
0100
1000
0001
0010
0100
1000
,
0001
0010
0100
1000
0010
0100
0001
1000
,
0100
0000
0010
0000
0001
0000
1000
0000
0100
0000
0000
0010
0000
0000
0100
0000
,
1000
0001
0000
0001
0000
0010
0001
0100
,
0000
0000
0000
0000
0000
0000
0000
0000
0010
0000
0000
0100
0000
0000
0001
0000
,
1000
0100
0000
0100
0000
0010
0001
0010
,
0000
0000
0000
0000
0000
0000
0000
0000
1000
0000
0000
0001
0000
0000
1000
0000
,
0010
1000
0000
1000
0000
0100
1000
0100
,
0000
0000
0000
0000
0000
0000
0000
0000
0001
0000
0000
1000
0000
0000
0001
0000
,
0010
0001
0000
0001
0000
0100
0001
0100
,
0000
0010
1000
0010
0000
0100
0001
0100
,
0000
0010
0000
0010
0000
1000
0100
0010
,
0001
0001
0001
0001
,
0000
0100
0000
0100
0000
0001
0010
0100
,
0000
0000
1000
0000
0001
0000
1000
0000
0010
0000
0000
0100
0000
0000
0100
0000
,
0000
0010
0000
0010
0000
0010
1000
0100
,
1000
1000
1000
1000
,
0000
0100
0000
0100
0000
0100
0001
0010
,
0000
0000
0100
0000
1000
0000
0010
0000
0001
0000
0000
0001
0000
0000
2002
0000
,
0000
0000
0000
0000
,
0000
0000
0000
0000
,
0000
0000
0000
0000
,
0000
0000
0000
0000
,
3003
0000
0000
0000
;

//--------------- dance-single - Tundrus ----------------
#NOTES:
     dance-single:
     Tundrus:
     Hard:
     14:
     0.538521,0.703568,0.318457,0.088872,0.177744,509,466,43,12,0,0,0.538521,0.703568,0.318457,0.088872,0.177744,509,466,43,12,0,0:
0000
0000
0000
0000
,
0000
0000
0000
0000
,
0000
0000
0000
0000
,
0000
0000
0000
0000
,
1000
0001
1000
0100
1000
0010
1000
0001
,
0000
1000
0010
1000
0001
0100
0010
1000
,
0100
0000
0010
0000
0001
0000
1000
0000
0001
0000
0010
0000
0100
0000
1000
0010
,
0100
0000
0001
0000
1000
0000
0010
0000
0100
0000
0000
0001
0000
0000
0101
0000
,
0010
1000
0001
0100
0010
1000
0010
0100
,
0000
0001
1000
0010
0100
0001
1000
0010
,
0100
0001
1000
0010
0100
0001
1000
0100
,
0010
0000
0001
0000
1000
0000
0010
0000
0100
0000
0000
1000
0000
0000
1100
0000
,
0001
0010
0001
0100
0010
1000
0100
0010
,
0000
0001
1000
0010
0100
0001
0010
0100
,
0010
0000
0001
0000
1000
0000
0010
0000
1000
0000
0001
0000
0010
0000
0001
1000
,
0100
0000
0010
0000
0001
0000
0100
0000
0010
0000
0000
0100
0000
0000
0110
0000
,
1000
0000
0000
0000
0001
0010
0001
0000
1000
0100
1000
0000
0010
0100
0010
0100
,
0010
0000
0000
0000
1000
0001
0100
0000
0010
0000
1000
0000
0001
0000
0100
0000
,
0010
0000
0000
0000
0100
0010
0001
0000
0010
0000
0100
0000
1000
0000
0010
0000
,
0200
0300
0101
0000
0020
0030
1010
0000
,
0001
1000
0001
1000
0010
0000
0100
0000
0001
0000
0000
1000
0000
0000
0001
0000
,
1000
0001
1000
0001
0100
0000
0000
0001
0010
0000
0000
0100
0000
0000
0010
0000
,
0000
0100
0010
0100
0010
0000
0000
1000
0100
0000
0000
0001
0000
0000
0100
0000
,
0001
0000
1000
0000
0001
0000
1000
0010
1000
0000
0001
0100
0010
1000
0001
0100
,
0010
1000
0001
0001
0100
0010
1000
1000
,
0001
0010
0100
1000
0010
0100
0010
1000
0001
0100
0010
1000
0001
0000
1001
0000
,
0010
0001
1000
1000
0100
0010
0001
0001
,
0010
0000
0001
0000
1000
0000
0100
0000
0010
0000
0100
0001
1000
0000
0010
0000
,
2020
0000
3030
1010
0000
1000
0010
0100
,
0000
0000
0001
0000
1000
0100
0010
0000
0100
0000
0000
0000
0110
0000
0000
0000
,
0202
0000
0000
0000
0303
0000
0101
0000
0000
0000
0001
1000
0100
0010
0100
0000
,
0000
0000
1000
0000
0001
0010
0100
0000
0010
0000
0000
0000
0110
0000
0000
0000
,
1000
0000
0100
1000
0001
0010
0000
0002
,
0003
0100
0010
1000
0100
0010
0000
2000
,
3000
0010
0100
0001
0010
0001
0000
1000
,
1001
0000
0110
0000
0100
0010
1000
0001
,
0100
0010
0100
0010
0100
0001
0000
2000
,
3000
0100
0010
0001
1000
0010
0000
0200
,
0300
0001
1000
0010
0100
0001
0000
1000
,
1010
0000
0101
0000
0001
0010
0100
1000
,
0001
1000
0001
0010
0001
0100
0001
1000
,
0000
0010
0100
0001
1000
0010
0100
0010
,
1000
0001
1000
0010
0100
0001
0100
0010
,
1000
0000
0001
0000
0100
0000
0010
0000
1000
0000
0000
0001
0000
0000
1001
0000
,
1000
0001
1000
0010
1000
0100
1000
0001
,
0000
1000
0010
1000
0001
0100
0010
1000
,
0100
0000
0010
0000
0001
0000
1000
0000
0001
0000
0010
0000
0100
0000
1000
0010
,
0100
0000
0001
0000
1000
0000
0010
0000
0100
0000
0000
0001
0000
0000
0101
0000
,
0010
1000
0001
0100
0010
1000
0010
0100
,
0000
0001
1000
0010
0100
0001
1000
0010
,
0100
0001
1000
0010
0100
0001
1000
0100
,
0010
0000
0001
0000
1000
0000
0010
0000
0100
0000
0000
1000
0000
0000
1100
0000
,
0001
0010
0001
0100
0010
1000
0100
0010
,
0000
0001
1000
0010
0100
0001
0010
0100
,
0010
0000
0001
0000
1000
0000
0010
0000
1000
0000
0001
0000
0010
0000
0001
1000
,
0100
0000
0010
0000
0001
0000
0100
0000
0010
0000
0000
0100
0000
0000
0110
0000
,
1001
1001
0000
1001
0000
0001
0010
0100
,
0000
0000
0000
0000
0000
0000
0000
0000
0010
0000
0000
0001
0000
0000
0011
0000
,
0011
0110
0000
0110
0000
0001
0010
0100
,
0000
0000
0000
0000
0000
0000
0000
0000
0010
0000
0000
1000
0000
0000
1010
0000
,
1010
0110
0000
0110
0000
1000
0100
0010
,
0000
0000
0000
0000
0000
0000
0000
0000
0001
0000
0000
1000
0000
0000
0001
0000
,
1001
0110
0000
0110
0000
0001
0010
0100
,
0000
0010
0100
1000
0000
1000
0010
0100
,
0000
0011
0000
0110
0000
1000
0010
0100
,
0001
1000
0001
1000
,
0001
1100
0000
0110
0000
0001
0100
0010
,
0000
0000
1000
0000
0001
0000
0100
0000
0010
0000
0000
0010
0000
0000
0100
0000
,
0000
1001
0000
1010
0000
0100
0010
0001
,
1000
0001
0100
0010
,
1000
1001
0000
0101
0000
0001
0010
0100
,
0000
0000
1000
0000
0100
0000
0010
0000
0100
0000
0000
0100
0000
0000
0220
0000
,
0000
0000
0000
0000
,
0000
0000
0000
0000
,
0000
0000
0000
0000
,
0000
0000
0000
0000
,
0330
0000
0000
0000
;
