#VERSION:0.83;
#TITLE:+Danshi;
#SUBTITLE:+ ♂;
#ARTIST:Reol;
#TITLETRANSLIT:;
#SUBTITLETRANSLIT:;
#ARTISTTRANSLIT:;
#GENRE:???;
#CREDIT:Tundrus ;
#MUSIC:+Danshi.mp3;
#BANNER:+Danshi-Banner.png;
#BACKGROUND:+Danshi-BG.png;
#CDTITLE:+Danshi-CDTitle.png;
#SAMPLESTART:56.915;
#SAMPLELENGTH:11.010;
#SELECTABLE:YES;
#OFFSET:-0.778;
#BPMS:0.000=90.000
,17.000=360.000
,22.000=180.000
,48.500=360.000
,52.000=180.000
,54.500=360.000
,55.500=180.000
,148.000=360.000
,149.000=180.000
,219.000=360.000
,220.000=180.000
,284.500=90.000
,299.750=360.000
,300.500=180.000
,364.000=90.000
,379.500=720.000
,392.500=180.000
,393.000=720.000
,395.000=180.000
,426.000=45.000
,427.125=360.000
,429.000=180.000
,499.000=360.000
,499.500=720.000
,500.000=180.000
,556.000=360.000
,558.000=720.000
,568.000=180.000
;
#STOPS:17.000=1.100
,18.000=0.200
,19.000=0.200
,20.000=0.010
,48.500=0.050
,49.000=0.020
,49.500=0.100
,50.000=0.020
,50.500=0.030
,51.000=0.020
,54.500=0.075
,55.000=0.075
,147.750=0.820
,148.000=0.125
,148.250=0.125
,148.500=0.100
,179.000=0.160
,219.000=0.075
,219.500=0.075
,220.000=0.050
,299.750=0.125
,300.000=0.125
,300.250=0.100
,330.500=0.160
,379.500=0.320
,380.000=0.600
,380.500=0.300
,381.000=0.280
,381.500=0.470
,382.000=0.050
,382.250=0.050
,382.500=0.530
,382.750=0.050
,383.000=0.050
,383.250=0.650
,383.500=0.300
,383.750=0.300
,384.000=0.500
,384.250=0.050
,384.500=0.050
,384.750=0.320
,385.000=0.150
,385.250=0.150
,385.500=0.620
,386.000=0.300
,386.500=0.300
,387.000=0.620
,387.500=0.620
,388.000=0.300
,388.500=0.300
,389.000=0.300
,389.500=0.300
,390.000=0.120
,390.500=0.120
,391.000=0.120
,391.500=0.120
,392.000=0.300
,392.500=0.150
,393.000=0.130
,393.250=0.070
,393.500=0.060
,393.750=0.060
,394.000=0.060
,394.250=0.060
,394.500=0.060
,427.125=0.110
,427.500=0.125
,427.750=0.125
,428.000=0.125
,428.250=0.125
,428.500=0.125
,428.750=0.125
,459.000=0.160
,499.000=0.125
,499.250=0.125
,499.500=0.125
,568.000=0.180
;
#WARPS:400.000=1.000;
#SPEEDS:0.000=1.000=0.000=0;
#SCROLLS:0.000=1.000;
#TICKCOUNTS:0.000=4;
#TIMESIGNATURES:0.000=4=4;
#LABELS:0.000=Song Start;
#COMBOS:0.000=1;
#DISPLAYBPM:90.000:180.000;
#ORIGIN:;
#PREVIEWVID:;
#JACKET:;
#CDIMAGE:;
#DISCIMAGE:;
#BGCHANGES:0.000=+Danshi ver Reol.mp4=1.000=0=0=0=StretchNoLoop====,
99999.000=-nosongbg-=1.000=0=0=0=StretchNoLoop====
;
#FGCHANGES:;

//--------------- dance-single - Tundrus ----------------
#NOTEDATA:;
#STEPSTYPE:dance-single;
#DESCRIPTION:Tundrus;
#DIFFICULTY:Challenge;
#METER:16;
#RADARVALUES:0.731584,1.381796,0.364146,0.41024,0.394107,1111,1032,79,89,5,1,4,0,4,0.731584,1.381796,0.364146,0.41024,0.394107,1111,1032,79,89,5,1,4,0,4;
#DISPLAYBPM:90.000:180.000;
#CHARTNAME:;
#CHARTSTYLE:;
#CREDIT:Tundrus;
#NOTES:
0000
0000
0000
0000
,
0000
0000
0000
0000
,
0000
0000
0000
0000
,
0000
0000
0000
0000
,
0000
0000
1001
0110
,
1100
0000
0000
0000
0011
0000
0000
0000
1001
0000
0000
0000
1001
0000
0100
0010
,
0001
0000
0001
0100
0010
0000
1000
0000
0000
0000
0010
0000
0001
0000
1000
0100
,
1000
0100
0010
0100
1000
0010
0100
0000
,
0010
0000
0001
0010
0001
0000
1000
0000
0000
0000
0100
0010
0100
0000
1000
0000
,
0000
0000
0000
0000
0000
0000
1000
0000
0000
0000
0000
0000
0010
0000
0000
0100
0000
0000
0001
0000
0000
0010
0000
0000
0100
0000
0000
0000
0000
0000
1000
0000
0100
0000
0010
0000
0000
0000
0000
0000
0000
0000
0000
0000
0000
0000
0000
0000
,
0100
0000
0010
1000
0010
0000
0100
0000
0000
0000
0010
0000
1000
0000
0100
0010
,
0100
0010
0001
1000
0100
0010
2002
0000
,
0000
0000
0000
0000
,
3003
0000
0000
0000
0000
1000
1000
1000
,
0100
0001
1000
0000
0010
0000
0100
0000
0010
0000
0100
0000
0001
0000
1000
0000
,
0010
0100
0010
1000
0100
0010
0001
0100
,
0001
0001
0010
0100
0100
1000
0010
0100
,
1000
0000
0001
0000
0010
0000
0100
0000
2000
0000
0000
0000
0000
3000
0000
0000
,
0001
0000
1000
0000
0001
0000
1000
0000
0010
0001
1000
0000
1000
0100
0010
0001
,
0010
1000
0100
1000
0001
0010
0100
0100
,
1000
0000
0100
0000
0010
0000
0100
0000
1000
0000
0010
0000
1000
0000
0100
0010
,
0001
0000
1000
0000
0010
0000
1000
0000
0001
0000
0100
0010
0100
0000
0001
0000
,
0100
0010
0001
1000
0010
1000
0100
0010
,
0001
0000
0010
0000
0100
0000
0010
0000
0001
0000
0010
0000
1000
0000
0010
0001
,
0100
0000
0010
0000
1000
0000
0001
0000
0100
0000
0010
0100
0001
0000
1000
0000
,
0100
0010
0000
0001
1000
0000
0100
0000
0020
0000
0031
0000
1000
0000
0100
0000
,
0010
0000
0200
0000
0000
0300
0010
0000
0011
0000
0100
0000
1100
0000
0001
0000
,
0200
0000
0300
0001
0000
0000
0010
0000
1010
0000
0100
0000
0101
0000
0010
1000
,
0001
0010
0001
0010
0100
1000
0100
1000
0001
1000
0010
0100
0001
0100
0010
0100
,
0001
1000
0010
1000
0010
1000
0100
0010
0100
0010
0001
1000
0100
0000
1000
0001
,
0440
0000
0000
0000
,
0000
0000
0000
0000
,
0000
0000
0000
0000
,
0000
0000
0000
0000
,
0000
0000
0000
0000
,
0000
0000
0000
0000
,
0000
0000
0000
0000
0000
0000
0000
0000
0000
0000
0000
0000
0000
0330
0000
0000
,
1001
1001
1001
0000
1001
0000
0000
0000
0100
0000
0001
0000
0010
0000
0000
0000
,
0001
1000
0010
0000
0001
0100
0010
1000
,
0000
0000
0010
0000
0100
0000
0001
0000
1000
0000
0100
0010
0100
0000
1000
0000
,
0001
0020
0000
0031
1000
0001
0010
0100
,
0010
0001
1000
1000
0001
0001
1000
1000
,
0001
0001
0100
0020
0030
1001
0000
0010
,
1000
0100
1000
0100
0010
1000
0100
0010
,
1000
0000
0100
0000
0010
0000
1000
0000
0100
0000
0010
0000
0220
0330
1001
0000
,
0000
0020
0030
0100
0020
0030
0100
0010
,
0001
0200
0300
0010
0200
0300
0001
0010
,
0100
0020
0030
0100
0020
0030
0001
1000
,
0100
0001
0010
0100
1000
0200
0300
2002
,
3003
0010
0000
0100
0001
2000
3000
0010
,
0100
0002
0003
1000
0010
0100
0001
1000
,
0010
1000
0001
1000
0001
0100
0010
0001
,
2000
3000
0001
0100
0010
1000
0001
0010
,
0100
1000
0000
0010
0000
0100
0100
0100
,
0000
0000
0010
0000
1000
0001
1000
0000
0001
0000
0010
0000
0100
0000
0100
0000
,
0100
0000
0010
0001
1000
0001
0100
0000
0100
0000
0010
1000
0010
0000
1000
0100
,
0010
0100
1000
0002
0000
0013
0100
0000
1000
0000
0022
0000
0000
0033
2200
0000
,
0000
3300
0001
0000
1000
0010
1000
0000
0001
1000
0010
0100
0001
0100
0010
0000
,
0100
0000
0010
0000
0100
0001
0100
0001
1000
0010
1000
0000
1000
0000
0010
0000
,
1000
0100
0010
0000
0010
0100
1000
0000
0001
0000
1000
0100
0000
0010
0100
0001
,
1000
0000
0000
1000
0000
0100
0010
0000
0001
0000
0100
0000
0010
1000
0001
0000
,
0100
0000
0001
1000
0000
0010
1000
0001
0100
0000
0020
0030
0000
1000
0001
0100
,
0010
0000
0100
0000
0001
0000
1000
0000
0001
0000
2000
0000
0000
3000
0100
0010
,
0001
0000
1000
0000
0010
0000
0100
0010
1000
0000
1000
0000
0010
0000
0001
0000
,
0001
0000
1000
0010
0100
0001
1000
0010
0100
0001
0010
0000
0001
0000
1000
0000
,
1000
0000
0010
0000
0100
0000
0001
0000
1000
0100
0010
0000
0001
0000
0020
0000
,
0030
0000
0010
0000
1000
0000
0020
0000
0030
0000
0000
0020
0030
1000
0020
0000
,
0030
0000
0100
0000
0001
0000
1000
0000
0010
0100
0000
0000
0001
0000
1000
0000
,
1000
0000
0020
0000
0030
0100
0010
0000
0001
0000
0010
0000
0100
0000
1000
0000
,
0100
0000
0010
1000
0001
0000
0100
0000
0010
0000
0100
0000
0001
1000
0001
0000
,
0000
0100
0000
0100
0000
0010
0000
0100
,
0000
0000
0000
0000
1001
0000
0000
0000
0100
0000
0000
0010
0100
0000
0000
0100
0010
0000
0000
0010
1000
0000
0000
0100
0001
0000
0000
0100
0010
0000
0000
0010
,
0100
0000
0000
0000
0000
0000
0000
0000
0000
0000
0000
0000
1001
0000
0000
0000
0000
0000
0000
0000
0000
0000
0000
0000
0100
0000
0000
0000
0000
0000
0000
0000
0000
0010
0000
0000
0100
0000
0000
0000
0000
0000
0000
0000
0000
0001
0000
0000
1000
0000
0000
0000
0000
0000
0000
0000
0000
0001
0000
0000
1000
0000
0000
0000
0001
0000
0000
0000
0100
0000
0000
0000
0010
0000
0000
0000
1000
0000
0000
0000
0001
0000
0000
0000
0010
0000
0000
0000
0000
0000
0000
0000
0000
0000
0010
0000
,
0000
0000
0000
0000
0000
0000
0000
0000
0000
0000
0010
0000
0000
0000
0110
0000
0000
0000
0000
0000
0000
0000
0000
0000
1000
0000
0000
0000
0000
0000
0000
0000
0000
0001
0000
0000
0010
0000
0000
0000
0000
0000
0000
0000
0000
0010
0000
0000
0001
0000
0000
0000
0000
0000
0000
0000
0000
0001
0000
0000
1000
0000
0000
0000
0000
0000
0000
0000
0000
1000
0000
0000
0100
0000
0000
0000
0000
0000
0000
0000
0000
0100
0000
0000
0010
0000
0000
0000
0000
0000
0000
0000
0000
0010
0000
0000
,
1000
0000
0000
0001
0110
0000
0000
1000
0100
0000
0000
0001
0100
0000
0000
1000
0010
0000
0000
0020
0200
0000
0000
0000
0000
0000
0000
0000
0000
0330
1001
0000
,
1001
1001
1001
0000
0000
0000
0100
0000
0001
0000
0010
0000
0000
0000
0001
0000
,
1000
0010
0000
0001
0100
0010
1000
0000
,
0010
0000
0100
0000
0001
0000
1000
0000
0100
0010
0001
0000
1000
0100
0001
0000
,
0020
0000
0031
1000
0001
0010
0100
0010
,
0001
0010
0010
0100
0100
0010
0010
0100
,
0100
0001
0020
0030
1001
0000
0010
1000
,
0001
0001
0010
0100
0001
0010
0100
0001
,
0010
0000
0100
0000
0001
0000
0010
0000
0100
0000
2002
3003
0110
0000
0000
0000
,
0200
0300
0010
0200
0300
0010
0100
1000
,
0020
0030
0100
0020
0030
1000
0100
0010
,
0200
0300
0010
0200
0300
1000
0001
0010
,
1000
0100
0010
0001
0020
0030
2002
3003
,
0200
0300
0010
1000
0002
0003
0100
0010
,
2000
3000
0001
0100
0010
1000
0001
0100
,
0001
1000
0001
1000
0010
0100
1000
0002
,
0003
1000
0010
1000
0001
0001
0010
0100
,
1000
0000
0010
0100
0001
0000
0100
0000
0010
0000
1000
0001
0100
0010
0100
0001
,
1000
0000
0001
0010
0100
0000
1000
1000
0000
0200
0300
0010
0002
0000
2000
3003
,
1001
0000
1000
0100
0020
0030
0010
0000
0001
0000
0010
0100
1000
0001
0010
0001
,
0010
0000
0100
1000
0001
0000
0100
0010
0100
0001
1000
0010
0100
0000
0000
0000
,
1010
0000
0101
0000
0101
0000
1010
0000
1000
0001
1001
0010
1000
1010
0101
0101
,
1001
1000
0010
1010
1001
1001
1001
0000
0101
0000
0101
0000
1001
0000
1001
0000
,
1001
1010
0101
0101
0101
0101
0101
0101
,
0101
0000
1010
0000
1000
0001
1000
0001
1000
0001
1000
0001
0000
0000
0000
0000
,
1000
0010
0100
0010
0001
0100
0010
0000
,
0000
1010
0000
0000
0200
0000
0320
0000
,
0032
0000
2003
0000
3001
0010
0100
1000
,
0010
0000
MMMM
0000
1000
0001
1000
0001
,
2020
3030
0200
0302
1003
0010
0100
0001
,
2000
3020
0232
0303
2002
3003
2002
3003
,
0010
0100
0020
0000
1030
0010
0100
0001
,
0100
0000
0000
0000
0010
0000
0000
0000
1000
0000
0000
0000
0000
0000
0000
0000
0000
0000
0000
0000
0000
0000
0000
0000
0000
1000
0000
0000
0001
0000
1000
0000
,
0001
1000
0001
1000
1001
0000
0000
0000
1000
0000
0100
0000
0010
0000
0000
0000
,
0100
1000
0010
0000
1000
0100
0010
0100
,
1000
0000
0100
0000
0010
0000
0001
0000
1000
0000
1000
0100
0010
0000
0100
0000
,
0010
2000
3000
0001
1000
0001
1000
0010
,
0100
0001
1000
1000
0001
0001
1000
1000
,
0001
0001
0100
0020
0030
0110
0000
0100
,
0010
1000
1000
0100
0010
0001
0010
0100
,
1000
0000
0100
0000
0010
0000
0001
0000
0010
0000
0100
0000
2002
3003
0110
0000
,
0000
0020
0030
0100
0020
0030
0100
0010
,
1000
0002
0003
1000
0002
0003
1000
0001
,
0010
0200
0300
0010
0200
0300
0010
0100
,
1000
0001
0010
0100
1000
0002
0003
0220
,
0330
1001
0000
0010
0100
1000
0000
0001
,
0100
0010
0000
1000
0001
0010
0100
0010
,
0001
1000
0010
1000
0010
0100
0001
0100
,
0020
0000
1030
0100
0010
0100
1000
0010
,
1000
0100
0000
0010
0000
0001
0100
0010
,
0000
0000
0100
0000
0000
0000
1000
0000
0001
0000
1001
0000
1001
1001
1001
0000
,
1001
0000
0000
0000
1000
0000
0001
0010
0001
0000
0010
0000
0000
0000
0010
0000
,
0100
0000
1000
0100
1000
0000
0100
0000
0010
0000
0100
0000
1000
0000
0001
0000
,
0100
0000
0000
0000
0010
0000
0100
0010
0100
0000
0100
0000
0000
0000
0001
0100
,
0001
0000
0000
0000
0000
0000
0010
0000
0000
0001
0000
0000
0000
0000
0000
0000
0000
0000
0100
0000
0000
0000
0000
0000
0010
0000
0000
1000
0000
0000
0010
0000
0000
1000
0000
0000
0100
0000
0000
0000
0000
0000
0000
0000
0100
0000
0010
0000
,
0001
0000
0000
0000
0010
0000
0100
0001
1000
0000
0001
0000
0000
0000
0010
0000
,
0100
0000
0010
0100
0010
0000
0001
0000
1000
0000
0010
0000
0100
0000
0001
0000
,
0100
0000
0000
0000
0010
0000
1000
0100
1000
0000
0010
0000
0100
0000
0010
0000
,
1000
0001
1000
0001
1000
0000
0010
0000
1000
0100
0010
0001
0010
0100
1000
0000
,
1001
0000
0000
0000
1001
0000
1000
0001
1000
0000
0010
0000
0000
0000
0100
0000
,
0001
0000
1000
0001
0100
0000
0010
0000
1000
0000
0001
0000
0100
0000
0010
0000
,
0100
0000
0000
0000
0010
0000
1000
0000
0001
0000
1000
0000
0000
0000
0001
0100
,
0001
0000
0000
0000
0000
0000
0010
0000
0000
0000
0000
0000
0000
0000
0000
0000
0000
0000
0100
0000
0000
0000
0000
0000
0001
0000
0000
1000
0000
0000
0001
0000
0000
1000
0000
0000
0010
0000
0000
0000
0000
0000
0000
0000
0010
0000
1000
0000
,
0100
0000
0000
0000
0001
0000
0100
0010
0100
0000
0010
0000
0000
0000
1000
0000
,
0001
0000
0100
0010
1000
0000
0001
0000
0010
0000
0100
0000
0010
0000
4000
0000
,
0004
0000
0000
0000
,
0000
0000
0000
0000
,
0000
0000
0000
0000
,
3003
0000
0010
0000
0100
0000
0100
0000
0002
0000
0000
0003
M000
0000
0000
0000
;
