#VERSION:0.81;
#TITLE:WLTZ4_TR.EXE (Trixie Returns);
#SUBTITLE:;
#ARTIST:Interrobang Pie remixed by YURIMEAS;
#TITLETRANSLIT:;
#SUBTITLETRANSLIT:;
#ARTISTTRANSLIT:;
#GENRE:Techno;
#ORIGIN:;
#CREDIT:;
#BANNER:WLTZ4_TR.EXE (Trixie Returns).png;
#BACKGROUND:WLTZ4_TR.EXE (Trixie Returns)-bg.png;
#PREVIEWVID:;
#JACKET:WLTZ4_TR.EXE (Trixie Returns)-jacket.png;
#CDIMAGE:;
#DISCIMAGE:;
#LYRICSPATH:;
#CDTITLE:;
#MUSIC:WLTZ4_TR.EXE (Trixie Returns).ogg;
#OFFSET:0.000;
#SAMPLESTART:58.000;
#SAMPLELENGTH:15.000;
#SELECTABLE:YES;
#BPMS:0.000=180.000,
96.000=45.000,
100.000=180.000,
291.500=22.500,
292.000=180.000;
#STOPS:195.000=0.167;
#DELAYS:;
#WARPS:;
#TIMESIGNATURES:0.000=4=4;
#TICKCOUNTS:0.000=4;
#COMBOS:0.000=1;
#SPEEDS:0.000=1.000=0.000=0;
#SCROLLS:0.000=1.000;
#FAKES:;
#LABELS:0.000=Song Start;
#BGCHANGES:;
#KEYSOUNDS:;
#ATTACKS:
;

//---------------dance-single - Blank----------------
#NOTEDATA:;
#CHARTNAME:;
#STEPSTYPE:dance-single;
#DESCRIPTION:Blank;
#CHARTSTYLE:;
#DIFFICULTY:Hard;
#METER:14;
#RADARVALUES:0.724,0.845,0.435,0.028,0.204,497.000,47.000,3.000,0.000,0.000,0.000,0.000,0.000,0.724,0.845,0.435,0.028,0.204,497.000,47.000,3.000,0.000,0.000,0.000,0.000,0.000;
#CREDIT:;
#NOTES:
1000
0010
1010
0000
0010
0110
0000
0100
,
0100
0001
0011
0000
0010
0110
0000
0100
,
1000
1000
1001
0000
0001
0101
0000
0100
,
0010
0010
1010
0000
1000
1001
0000
0000
,
0001
1000
0100
0010
0100
1000
0010
0001
,
0010
1000
0100
0001
0100
0010
0100
0010
,
0100
1000
0010
0001
0010
1000
0001
0010
,
0100
1000
0001
0100
0010
1000
0010
1000
,
0001
0000
0010
0000
0001
0000
0010
0000
0000
0100
0000
0000
1000
0000
0000
0000
,
0010
1000
0010
0000
1000
0000
0010
0000
0000
0100
0000
0000
0001
0000
0000
0000
,
1000
0000
0001
0000
1000
0000
0010
0000
0000
0100
0000
0000
0001
0000
0000
0000
,
1000
0001
1000
0000
0001
0000
0010
0000
0000
0100
0000
0000
1000
0000
1000
0000
,
1000
0000
0010
0000
0001
0000
0010
0000
0000
0100
0000
0000
0010
0000
0000
0000
,
1000
0010
0001
0000
0010
0000
0100
0000
0000
0010
0000
0000
1000
0000
0000
0000
,
0001
0000
1000
0000
0001
0000
0100
0000
0000
1000
0000
0000
0001
0000
0000
0000
,
1000
0001
1000
0000
0100
0000
0001
0000
0000
0010
0000
0000
0100
0010
0100
0010
,
0100
0000
1000
0000
0100
0000
1000
0000
0000
0010
0000
0000
0010
0000
0000
0000
,
0100
0001
0100
0000
0001
0000
0010
0000
0000
0100
0000
0000
1000
0000
0000
0000
,
0001
0000
0100
0000
0010
0000
0001
0000
0000
0010
0000
0000
1000
0000
0000
0000
,
0100
0010
0100
0000
1000
0000
0100
0000
0000
0001
0000
0000
1000
0000
0000
0000
,
0010
0000
0100
0000
0010
0000
0100
0000
0000
1000
0000
0000
0001
0000
0000
0000
,
0100
0000
0010
0000
0100
0000
0010
0000
0000
1000
0000
0000
0001
0000
0000
0000
,
1000
0000
0001
0000
1000
0000
0001
0000
1000
0001
1000
0000
0001
0000
1000
0000
,
0010
0100
0010
0100
0010
0100
0010
0100
0010
1000
0001
0100
0010
1000
0001
0100
,
0020
0000
0000
0000
,
0130
0100
0010
0100
0000
1000
0100
1000
,
0010
0010
0100
0010
0000
0100
0001
0100
,
0001
0001
1000
0001
0000
1000
0100
1000
,
0010
0010
0100
0010
0010
1000
0010
0010
,
0100
0001
0100
0001
1000
0001
1000
0001
,
1000
0010
1000
0010
0100
0010
0100
0010
,
0100
0001
0100
0001
1000
0001
1000
0001
,
0010
0000
0001
0000
0010
0000
0001
0000
0010
0000
0010
0000
0100
1000
0100
0000
,
1000
1000
0010
1000
0000
0001
1000
0001
,
0010
0010
0001
0010
0000
0100
0010
0100
,
1000
1000
0010
0001
0000
1000
0100
1000
,
0100
0100
0010
0100
0100
0001
0100
0100
,
1000
0100
1000
0100
0010
0100
0010
0100
,
0001
0100
0001
0100
0010
1000
0010
1000
,
0001
1000
0001
1000
0010
0100
0010
0100
,
0010
1000
0001
0010
0100
0100
1000
0000
,
0010
0000
0110
0010
1000
1000
1001
0000
,
0100
0000
0110
0010
0001
0001
1001
1000
,
0010
0000
0110
0100
0001
0001
1001
0000
,
0100
0000
0110
0100
1000
1000
1001
0001
,
0100
0000
1010
1000
0001
1000
0001
0000
,
0100
0000
0011
0010
1000
0010
1000
0000
,
0010
0000
0101
0001
0010
0001
0010
0000
,
0010
0010
0100
0100
1000
0001
2000
3010
,
0000
0110
0000
0000
0010
1010
0000
1000
,
0000
1001
0000
0000
0001
0011
0000
0010
,
0000
0110
0000
0000
1000
1001
0000
0001
,
0000
0100
0001
1000
1000
1100
0000
0100
,
0000
0110
0000
0000
0010
0011
0000
0001
,
0000
0101
0000
0000
0100
0110
0000
0010
,
0000
1010
0000
0000
1000
1001
0000
0001
,
0000
0000
0011
0000
0000
0000
0010
0000
0100
0000
0010
0100
0010
0000
0100
0000
,
0000
1100
0000
0000
1000
1001
0000
0001
,
0000
0101
0000
0000
0100
0110
0000
0010
,
0000
1010
0000
0000
1000
1001
0000
0001
,
0000
0000
0010
0000
0100
0000
0100
0000
1000
0000
0001
1000
0001
0000
0100
0000
,
0000
0110
0000
0000
0010
0101
0000
0010
,
0000
0110
0000
0000
0100
1010
0000
0001
,
0000
1001
0000
0000
1000
0101
0000
1000
,
0000
1001
0000
0001
0001
1100
0000
0100
,
0010
0100
0010
0001
0010
0001
0010
0100
,
0010
0100
0010
1000
0010
1000
0010
0010
,
0100
0010
0100
1000
0100
1000
0100
0010
,
0100
0000
0010
0000
0100
0000
0001
0000
0100
0000
0100
0010
0100
0010
0100
0000
,
0100
1000
1000
0001
0001
0100
0100
0010
,
0010
1000
1000
0001
0001
0010
0010
0100
,
0100
0000
1000
0000
1000
0000
0010
0000
0010
0000
0001
0000
0001
0000
0010
0100
,
0010
0100
0001
0100
0001
0100
0001
1000
0001
1000
0100
1000
0100
1000
0020
0000
,
0030
0000
0000
0000
;

//---------------dance-single - Blank----------------
#NOTEDATA:;
#CHARTNAME:;
#STEPSTYPE:dance-single;
#DESCRIPTION:Blank;
#CHARTSTYLE:;
#DIFFICULTY:Medium;
#METER:9;
#RADARVALUES:0.509,0.541,0.528,0.028,0.065,325.000,57.000,3.000,0.000,0.000,0.000,0.000,0.000,0.509,0.541,0.528,0.028,0.065,325.000,57.000,3.000,0.000,0.000,0.000,0.000,0.000;
#CREDIT:;
#NOTES:
0000
0000
0110
0000
0000
0110
0000
0000
,
0000
0000
1010
0000
0000
1010
0000
0000
,
0000
0000
1100
0000
0000
1100
0000
0000
,
0000
0000
0110
0000
0000
0110
0000
0000
,
0010
0001
0010
0001
,
0100
0010
0100
0010
,
1000
0010
1000
0010
,
0100
0001
0100
0001
,
1000
0000
0001
0000
0000
0000
0010
0000
0000
0100
0000
0000
0010
0000
0000
0000
,
0001
0000
1000
0000
0001
0000
0010
0000
0000
0100
0000
0000
0010
0000
0000
0000
,
0100
0000
1000
0000
0000
0000
0010
0000
0000
0100
0000
0000
0010
0000
0000
0000
,
0100
0000
0001
0000
0100
0000
0010
0000
0000
0100
0000
0000
0010
0000
0000
0000
,
1000
0000
0010
0000
0000
0000
0100
0000
0000
0001
0000
0000
0100
0000
0000
0000
,
0010
0000
1000
0000
0010
0000
0100
0000
0000
0001
0000
0000
0100
0000
0000
0000
,
0001
0000
0010
0000
0000
0000
0100
0000
0000
1000
0000
0000
0100
0000
0000
0000
,
0010
0000
0001
0000
0010
0000
0100
0000
0000
1000
0000
0000
0100
0000
1000
0000
,
0001
0000
0100
0000
0000
0000
0010
0000
0000
1000
0000
0000
0010
0000
0000
0000
,
0100
0000
0001
0000
0100
0000
0010
0000
0000
1000
0000
0000
0010
0000
0000
0000
,
1000
0000
0100
0000
0000
0000
0010
0000
0000
0001
0000
0000
0010
0000
0000
0000
,
0100
0000
1000
0000
0100
0000
0010
0000
0000
0001
0000
0000
0010
0000
0000
0000
,
0001
0000
1000
0000
0000
0000
0010
0000
0000
1000
0000
0000
0001
0000
0000
0000
,
1000
0000
0001
0000
0010
0000
0001
0000
0000
1000
0000
0000
0010
0000
0000
0000
,
0100
0010
0100
0010
0100
0010
0100
0010
,
1000
0010
0100
0001
1000
0100
0010
0001
,
0200
0000
0000
0000
,
0310
0110
0010
0110
,
0100
0101
0100
0101
,
0001
1001
0001
1001
,
1000
0000
0000
1100
0000
0000
0110
0000
,
0011
0001
0010
1000
,
0010
0001
0100
1000
,
0100
0001
0010
1000
,
0010
0000
0100
0000
1000
0001
1000
0000
,
0100
0110
0100
0110
,
0010
0011
0010
0011
,
0001
1001
0001
1001
,
1000
1010
1000
1010
,
0010
0001
0010
1000
,
0100
0001
0100
1000
,
0010
0001
0010
1000
,
0001
0000
1000
0000
0001
1000
0001
0000
,
0010
0000
0100
0100
0000
0000
0110
0000
,
0010
0000
0001
0001
0000
0000
0011
0000
,
0001
0000
1000
1000
0000
0000
1001
0000
,
1000
0000
0010
0010
0000
0000
1010
0000
,
0010
0000
0100
0100
0000
0000
0110
0000
,
1000
0000
0001
0001
0000
0000
1001
0000
,
0001
0000
0010
0010
0000
0000
0110
0000
,
0100
1000
0001
1000
0100
0010
0200
1300
,
0000
1010
0000
0000
0000
1010
0000
0011
,
0000
0010
0000
0000
0000
0110
0000
0101
,
0000
0100
0000
0000
0000
0101
0000
1100
,
0000
0000
0110
0000
0000
0011
0000
0010
,
0000
0010
0000
0100
0000
0100
0000
0001
,
0000
0001
0000
1000
0000
1000
0000
0100
,
0000
0100
0000
0010
0000
0010
0000
0100
,
0000
0100
0000
1000
0001
1000
0000
0101
,
0000
0010
0000
0000
0000
1010
0000
0011
,
0000
0100
0000
0000
0000
0110
0000
1010
,
0000
0001
0000
0000
0000
0011
0000
1010
,
0000
0000
1100
0000
0000
0110
0000
0001
,
0000
1000
0000
0000
0000
1010
0000
0110
,
0000
0100
0000
0000
0000
0101
0000
1001
,
0000
1000
0000
0000
0000
1100
0000
0110
,
0000
0011
0000
0001
1000
0001
0000
1000
,
0000
1000
0000
1000
0000
1000
0000
0001
,
0000
0001
0000
0001
0000
0001
0010
0100
,
0000
0100
0000
0100
0000
0100
0000
0010
,
0000
0010
0000
0010
0000
0010
0001
0100
,
0010
0100
0010
1000
0010
1000
0010
0100
,
0001
0100
0001
1000
0001
1000
0001
1000
,
0100
1000
0100
0010
0001
0010
0001
1000
,
0100
0010
0001
1000
0010
0100
0001
2000
,
3000
0000
0000
0000
;

//---------------dance-single - Blank----------------
#NOTEDATA:;
#CHARTNAME:;
#STEPSTYPE:dance-single;
#DESCRIPTION:Blank;
#CHARTSTYLE:;
#DIFFICULTY:Easy;
#METER:6;
#RADARVALUES:0.286,0.270,0.009,0.028,0.000,212.000,1.000,3.000,0.000,0.000,0.000,0.000,0.000,0.286,0.270,0.009,0.028,0.000,212.000,1.000,3.000,0.000,0.000,0.000,0.000,0.000;
#CREDIT:;
#NOTES:
0000
0000
0000
0000
,
0000
0000
0000
0000
,
0000
0000
0000
0000
,
0000
0000
0000
0000
,
1000
0010
1000
0010
,
1000
0001
1000
0001
,
0010
0001
0010
0001
,
0010
0100
0010
0100
,
1000
0010
1000
0010
,
1000
0001
1000
0001
,
0010
0001
0010
0001
,
0010
0100
0010
0100
,
0010
0010
0010
0001
,
1000
1000
1000
0010
,
0100
0100
0100
0001
,
1000
1000
1000
0100
,
0010
0010
0010
0001
,
1000
1000
1000
0010
,
0100
0100
0100
0001
,
1000
1000
1000
0100
,
0010
0010
0010
0001
,
1000
1000
1000
0010
,
0100
0100
0100
0001
,
0010
0100
1000
0001
,
2002
0000
0000
0000
,
3003
1000
0000
1000
,
0000
0010
0000
0010
,
0000
0100
0000
0100
,
0001
0001
0010
0010
,
0000
0100
0000
0100
,
0000
1000
0000
1000
,
0000
0001
0000
0001
,
0000
0100
0000
0100
,
0010
1000
0000
1000
,
0000
0001
0000
0001
,
0000
0010
0000
0100
,
0000
0010
0000
0100
,
0000
1000
0000
1000
,
0000
0001
0000
0001
,
0000
0100
0000
0100
,
0010
0010
1000
0001
,
1000
0010
0000
0010
,
1000
0100
0000
0100
,
0010
0001
0000
0001
,
0010
0100
0000
0100
,
1000
0001
0000
0001
,
1000
0100
0000
0100
,
1000
0001
0000
0001
,
0100
0010
1000
0001
,
0000
1000
0000
0000
0000
1000
0000
0000
,
0000
0001
0000
0000
0000
0001
0000
0000
,
0000
0010
0000
0000
0000
0010
0000
0000
,
0000
0100
0000
0010
0000
0100
0000
0000
,
0000
0010
0000
0000
0000
0010
0000
0000
,
0000
0001
0000
0000
0000
0001
0000
0000
,
0000
1000
0000
0000
0000
1000
0000
0000
,
0000
0010
0000
0100
0000
0010
0000
0000
,
0000
0100
0000
0000
0000
0100
0000
0000
,
0000
0001
0000
0000
0000
0001
0000
0000
,
0000
1000
0000
0000
0000
1000
0000
0000
,
0000
0010
0000
0100
0000
0010
0000
0000
,
0000
1000
0000
0000
0000
1000
0000
0000
,
0000
0001
0000
0000
0000
0001
0000
0000
,
0000
0010
0000
0000
0000
0010
0000
0000
,
0000
0100
0000
0010
0000
0100
0000
1000
,
0000
0100
0000
1000
0000
0100
0000
0010
,
0000
0001
0000
0010
0000
0001
0000
1000
,
0000
0001
0000
1000
0000
0001
0000
0010
,
0000
0100
0000
0010
0000
0100
0000
1000
,
0000
1000
0000
1000
0000
0100
0000
0010
,
0000
0010
0000
0010
0000
0001
0000
0100
,
0000
0010
0000
1000
0000
0001
0000
0010
,
0000
0100
0000
1000
0000
0001
0000
0200
,
0300
0000
0000
0000
;

//---------------dance-single - Blank----------------
#NOTEDATA:;
#CHARTNAME:;
#STEPSTYPE:dance-single;
#DESCRIPTION:Blank;
#CHARTSTYLE:;
#DIFFICULTY:Beginner;
#METER:3;
#RADARVALUES:0.131,0.135,0.000,0.000,0.000,99.000,0.000,0.000,0.000,0.000,0.000,0.000,0.000,0.131,0.135,0.000,0.000,0.000,99.000,0.000,0.000,0.000,0.000,0.000,0.000,0.000;
#CREDIT:;
#NOTES:
// measure 0
0000
0000
0000
0000
,  // measure 1
0000
0000
0000
0000
,  // measure 2
0000
0000
0000
0000
,  // measure 3
0000
0000
0000
0000
,  // measure 4
1000
0000
1000
0000
,  // measure 5
1000
0000
0000
0000
,  // measure 6
1000
0000
1000
0000
,  // measure 7
1000
0000
0000
0000
,  // measure 8
0001
0000
0001
0000
,  // measure 9
0001
0000
0001
0000
,  // measure 10
0010
0000
0010
0000
,  // measure 11
0010
0000
0010
0000
,  // measure 12
0100
0000
0100
0000
,  // measure 13
0100
0000
0100
0000
,  // measure 14
1000
0000
1000
0000
,  // measure 15
1000
0000
1000
0000
,  // measure 16
0001
0000
0001
0000
,  // measure 17
0001
0000
0001
0000
,  // measure 18
0010
0000
0010
0000
,  // measure 19
0010
0000
0010
0000
,  // measure 20
0100
0000
0100
0000
,  // measure 21
0100
0000
0100
0000
,  // measure 22
1000
0000
1000
0000
,  // measure 23
1000
0000
1000
0000
,  // measure 24
0000
0000
0000
0000
,  // measure 25
0000
0000
0000
0000
,  // measure 26
0000
0000
0000
0000
,  // measure 27
0000
0000
0000
0000
,  // measure 28
0010
0000
0010
0000
,  // measure 29
0010
0000
0000
0000
,  // measure 30
0000
0000
0000
0000
,  // measure 31
0001
0000
0000
0000
,  // measure 32
0100
0000
0000
0000
,  // measure 33
1000
0000
0000
0000
,  // measure 34
0100
0000
0000
0000
,  // measure 35
0010
0000
0000
0000
,  // measure 36
1000
0000
1000
0000
,  // measure 37
1000
0000
0000
0000
,  // measure 38
0000
0000
0000
0000
,  // measure 39
0100
0000
0000
0000
,  // measure 40
0001
0000
0000
0000
,  // measure 41
0100
0000
0100
0000
,  // measure 42
0100
0000
0100
0000
,  // measure 43
0010
0000
0010
0000
,  // measure 44
0010
0000
0010
0000
,  // measure 45
0001
0000
0001
0000
,  // measure 46
0001
0000
0001
0000
,  // measure 47
1000
0000
1000
0000
,  // measure 48
1000
0000
0000
0000
,  // measure 49
0000
1000
0000
0000
0000
0000
0000
0000
,  // measure 50
0000
0001
0000
0000
0000
0000
0000
0000
,  // measure 51
0000
1000
0000
0000
0000
0000
0000
0000
,  // measure 52
0000
0001
0000
0000
0000
0000
0000
0000
,  // measure 53
0000
0010
0000
0000
0000
0000
0000
0000
,  // measure 54
0000
0100
0000
0000
0000
0000
0000
0000
,  // measure 55
0000
0010
0000
0000
0000
0000
0000
0000
,  // measure 56
0000
0100
0000
0000
0000
0000
0000
0000
,  // measure 57
0000
1000
0000
0000
0000
0000
0000
0000
,  // measure 58
0000
0100
0000
0000
0000
0000
0000
0000
,  // measure 59
0000
0010
0000
0000
0000
0000
0000
0000
,  // measure 60
0000
0001
0000
0000
0000
0000
0000
0000
,  // measure 61
0000
1000
0000
0000
0000
0000
0000
0000
,  // measure 62
0000
1000
0000
0000
0000
0000
0000
0000
,  // measure 63
0000
0001
0000
0000
0000
0000
0000
0000
,  // measure 64
0000
0001
0000
0000
0000
0000
0000
0100
,  // measure 65
0000
0000
0000
0100
0000
0000
0000
0100
,  // measure 66
0000
0000
0000
0100
0000
0000
0000
0010
,  // measure 67
0000
0000
0000
0010
0000
0000
0000
0010
,  // measure 68
0000
0000
0000
0010
0000
0000
0000
1000
,  // measure 69
0000
0000
0000
1000
0000
0000
0000
1000
,  // measure 70
0000
0000
0000
1000
0000
0000
0000
0001
,  // measure 71
0000
0000
0000
0001
0000
0000
0000
0001
,  // measure 72
0000
0000
0000
0001
0000
0000
0000
0100
;
