#TITLE:Until The Sun;
#SUBTITLE:;
#ARTIST:&I feat. Feather;
#TITLETRANSLIT:;
#SUBTITLETRANSLIT:;
#ARTISTTRANSLIT:;
#GENRE:;
#CREDIT:;
#BANNER:banner.png;
#BACKGROUND:background.png;
#LYRICSPATH:;
#CDTITLE:;
#MUSIC:Until the Sun.mp3;
#OFFSET:-7.191;
#SAMPLESTART:30.262;
#SAMPLELENGTH:12.000;
#SELECTABLE:YES;
#BPMS:0.000=135.000
;
#STOPS:
;
#BGCHANGES:;
#KEYSOUNDS:;
#ATTACKS:;

//---------------dance-single - ----------------
#NOTES:
     dance-single:
     :
     Hard:
     10:
     0.001,0.000,0.000,0.000,0.000,1.000,0.000,0.000,0.000,0.000,0.000,0.001,0.000,0.000,0.000,0.000,1.000,0.000,0.000,0.000,0.000,0.000:
0001
0000
0000
0000
;

//---------------dance-single - ----------------
#NOTES:
     dance-single:
     :
     Medium:
     8:
     0.001,0.000,0.000,0.000,0.000,1.000,0.000,0.000,0.000,0.000,0.000,0.001,0.000,0.000,0.000,0.000,1.000,0.000,0.000,0.000,0.000,0.000:
0010
0000
0000
0000
;

//---------------dance-single - ----------------
#NOTES:
     dance-single:
     :
     Easy:
     4:
     0.184,0.202,0.031,0.134,0.000,109.000,3.000,13.000,0.000,0.000,0.000,0.184,0.202,0.031,0.134,0.000,109.000,3.000,13.000,0.000,0.000,0.000: // measure 0
0100
0000
1000
0000
,  // measure 1
0010
0000
0100
0001
,  // measure 2
0100
0000
0010
0000
,  // measure 3
1000
0000
0001
0000
,  // measure 4
2002
0000
3003
0000
,  // measure 5
0200
0000
0300
0000
,  // measure 6
0010
0001
0100
0010
,  // measure 7
1000
0100
0010
0001
,  // measure 8
2002
0000
3003
0000
,  // measure 9
1000
0100
0000
0100
,  // measure 10
1000
0010
0100
0001
,  // measure 11
1000
0100
0000
0100
,  // measure 12
0010
0001
0100
1000
,  // measure 13
0100
0010
0000
0010
,  // measure 14
1000
0100
0010
0001
,  // measure 15
0100
0010
0000
0010
,  // measure 16
0100
0001
1000
0100
,  // measure 17
0010
0000
0001
0000
,  // measure 18
1000
0010
0100
0000
,  // measure 19
0001
0000
0010
0000
,  // measure 20
0100
1000
0001
0000
,  // measure 21
0100
0000
0010
0000
,  // measure 22
0100
0001
1000
0000
,  // measure 23
0100
0000
0010
0000
,  // measure 24
0001
0100
0010
0000
,  // measure 25
1000
0000
0100
0000
,  // measure 26
0010
0000
0001
0000
,  // measure 27
1000
0000
0010
0000
,  // measure 28
0100
0000
0001
0000
,  // measure 29
0010
0000
0100
0000
,  // measure 30
1000
0000
0001
0000
,  // measure 31
0100
0000
0010
0000
,  // measure 32
1000
0000
0001
0000
,  // measure 33
0010
0000
0001
0000
,  // measure 34
1000
0000
0100
0000
,  // measure 35
1000
0000
0010
0000
,  // measure 36
0100
0000
0001
0000
,  // measure 37
0010
0000
0100
0000
,  // measure 38
1000
0000
0001
0000
,  // measure 39
1000
0000
0010
0000
,  // measure 40
0001
0000
0100
0000
,  // measure 41
2000
0000
3000
0000
,  // measure 42
0020
0000
0030
0000
,  // measure 43
0200
0000
0300
0000
,  // measure 44
0002
0000
0003
0000
,  // measure 45
0020
0000
0030
0000
,  // measure 46
0200
0000
0300
0000
,  // measure 47
2000
0000
3000
0000
,  // measure 48
0002
0000
0003
0000
,  // measure 49
1001
0000
0000
0000
;

//---------------dance-single - ----------------
#NOTES:
     dance-single:
     :
     Beginner:
     2:
     0.100,0.126,0.000,0.082,0.000,60.000,0.000,8.000,0.000,0.000,0.000,0.100,0.126,0.000,0.082,0.000,60.000,0.000,8.000,0.000,0.000,0.000: // measure 0
1000
0000
0000
0000
,  // measure 1
0010
0000
0000
0000
,  // measure 2
0100
0000
0000
0000
,  // measure 3
0001
0000
0000
0000
,  // measure 4
0020
0000
0000
0000
,  // measure 5
0030
0000
0000
0000
,  // measure 6
0100
0000
0100
0000
,  // measure 7
1000
1000
1000
0000
,  // measure 8
0001
0000
0000
0000
,  // measure 9
0100
0000
0000
0000
,  // measure 10
0010
0000
0010
0000
,  // measure 11
1000
0000
0000
0000
,  // measure 12
0001
0000
0001
0000
,  // measure 13
0010
0000
0000
0000
,  // measure 14
0100
0000
0100
0000
,  // measure 15
1000
0000
0000
0000
,  // measure 16
0001
0000
0001
0000
,  // measure 17
0100
0000
0000
0000
,  // measure 18
0010
0000
0010
0000
,  // measure 19
0100
0000
0000
0000
,  // measure 20
0001
0000
0001
0000
,  // measure 21
1000
0000
0000
0000
,  // measure 22
0100
0000
0100
0000
,  // measure 23
0010
0000
0000
0000
,  // measure 24
0001
0000
0001
0000
,  // measure 25
1000
0000
0000
0000
,  // measure 26
0010
0000
0000
0000
,  // measure 27
0100
0000
0000
0000
,  // measure 28
0001
0000
0000
0000
,  // measure 29
1000
0000
0000
0000
,  // measure 30
0100
0000
0000
0000
,  // measure 31
0010
0000
0000
0000
,  // measure 32
0001
0000
0000
0000
,  // measure 33
1000
0000
0000
0000
,  // measure 34
0010
0000
0000
0000
,  // measure 35
0100
0000
0000
0000
,  // measure 36
0001
0000
0000
0000
,  // measure 37
0100
0000
0000
0000
,  // measure 38
0010
0000
0000
0000
,  // measure 39
1000
0000
0000
0000
,  // measure 40
0001
0000
0000
0000
,  // measure 41
0010
0000
0000
0000
,  // measure 42
0200
0000
0000
0300
,  // measure 43
2000
0000
0000
3000
,  // measure 44
0002
0000
0000
0003
,  // measure 45
0200
0000
0000
0300
,  // measure 46
0020
0000
0000
0030
,  // measure 47
2000
0000
0000
3000
,  // measure 48
0002
0000
0000
0003
,  // measure 49
1000
0000
0000
0000
;
