#TITLE:Trixie;
#SUBTITLE:;
#ARTIST:Jeff Burgess;
#TITLETRANSLIT:;
#SUBTITLETRANSLIT:;
#ARTISTTRANSLIT:;
#GENRE:Rock;
#CREDIT:;
#BANNER:Trixie.png;
#BACKGROUND:Trixie-bg.png;
#LYRICSPATH:;
#CDTITLE:;
#MUSIC:Trixie.mp3;
#OFFSET:-0.035;
#SAMPLESTART:48.000;
#SAMPLELENGTH:15.000;
#SELECTABLE:YES;
#BPMS:0.000=220.000
;
#STOPS:
;
#BGCHANGES:;
#KEYSOUNDS:;
#ATTACKS:;

//---------------dance-single - ----------------
#NOTES:
     dance-single:
     :
     Easy:
     8:
     0.463,0.541,0.332,0.096,0.000,263.000,31.000,9.000,0.000,0.000,0.000,0.463,0.541,0.332,0.096,0.000,263.000,31.000,9.000,0.000,0.000,0.000:
0010
0010
0001
1000
,
0010
0000
0110
0000
,
0010
0010
1000
0001
,
0010
0000
0110
0000
,
0100
0100
1000
0001
,
0100
0000
0110
0000
,
0100
0100
0001
1000
,
0100
0000
0000
0110
,
0010
0001
0010
0001
,
0100
0001
0100
0000
,
0010
1000
0010
1000
,
0001
0000
1001
0000
,
1000
0100
0010
0001
,
1000
0010
0100
0000
,
0001
0100
0010
1000
,
1001
0000
0110
0000
,
0010
1000
0001
0010
,
0100
0100
0100
0000
,
0010
0001
1000
0010
,
0110
1001
0110
1001
,
1000
0100
1000
0010
,
0100
0000
0000
0100
0000
0100
0000
0000
,
0020
0000
2030
0000
,
3002
0000
0103
0001
,
1000
0010
1000
0100
,
0010
0000
0000
0010
0000
0010
0000
0000
,
0002
0000
0023
0000
,
0130
0010
0001
1000
,
0010
1000
0010
0001
,
0010
0000
0000
0100
0000
0000
0000
0000
,
0010
1000
0001
0010
,
0100
0100
1000
0000
,
0001
1000
0010
1000
,
0001
0000
0000
0010
0000
0000
0001
0000
,
0000
0000
0000
0000
1000
0000
0000
0001
,
0000
0000
0000
1001
0000
0000
1000
0000
,
0100
1000
0010
0100
,
0001
0010
0100
1000
,
0010
0010
1000
0001
,
0010
0010
0001
1000
,
0100
1000
0010
0100
,
0001
0010
0100
1000
,
0001
0000
0000
0001
0000
0010
0000
0000
,
0220
0000
0000
0330
,
0100
0100
0100
0100
,
1000
0010
0100
0001
,
1000
1000
0100
1000
,
0010
0010
0100
0010
,
0100
0100
0001
0100
,
0001
0010
0100
1000
,
0001
0001
0010
0001
,
0100
0100
0010
0100
,
0010
0010
1000
0010
,
0110
0000
0000
1001
,
1010
1000
0001
1000
,
1001
0001
0010
0001
,
0011
0010
0100
0010
,
0110
0100
1000
0100
,
1000
0001
0100
1000
,
1100
0000
0000
0101
,
0100
0010
0100
0010
,
1000
1000
1000
1000
,
0001
0100
0001
0001
,
1000
0100
1000
1000
,
0001
0010
0001
0001
,
1000
0010
1000
1000
,
0100
0010
0100
0100
,
0010
0001
0100
0010
,
1000
1000
0010
1000
,
1001
0000
0000
1001
,
0011
0010
0001
0010
,
0110
0100
1000
0100
,
1100
1000
0001
1000
,
1001
0001
0100
0001
,
0101
0100
0010
0100
,
0110
0000
0000
0000
,
2002
0000
0000
0000
,
0000
0000
0000
0000
,
0000
0000
0000
0000
,
0000
0000
0000
0000
,
0000
0000
0000
0000
,
0000
0000
0000
0000
,
0000
0000
0000
0000
,
0000
0000
0000
0000
,
3003
1001
0000
0000
;

//---------------dance-single - ----------------
#NOTES:
     dance-single:
     :
     Hard:
     12:
     0.677,0.721,0.621,0.021,0.011,383.000,58.000,2.000,0.000,0.000,2.000,0.677,0.721,0.621,0.021,0.011,383.000,58.000,2.000,0.000,0.000,2.000: // measure 0
1000
0000
0010
0000
1000
0001
1000
0000
,  // measure 1
0001
0000
0010
0100
0000
0100
0001
0100
,  // measure 2
1000
0000
0010
0000
1000
0001
1000
0000
,  // measure 3
0001
0000
0100
0010
0100
0010
1000
0100
,  // measure 4
0010
0000
0001
0000
0010
0100
0010
0000
,  // measure 5
0100
0000
1000
0001
0000
0100
0001
0100
,  // measure 6
0010
0000
1000
0000
0001
1000
0001
0000
,  // measure 7
0110
0000
0000
0000
0010
0010
1000
0000
,  // measure 8
0001
0010
0011
0100
,  // measure 9
1000
0001
0000
0100
0000
0000
0010
1000
,  // measure 10
0010
0000
1000
0000
0001
0000
0010
0100
,  // measure 11
0000
1000
0100
0000
0010
0000
0001
0100
,  // measure 12
0001
0100
0010
0110
,  // measure 13
0010
1000
0001
0010
,  // measure 14
0100
0000
1000
0001
0000
0001
0100
0000
,  // measure 15
0010
0000
1000
0000
0100
0010
0100
0000
,  // measure 16
1000
0100
0110
0010
,  // measure 17
0011
0000
0001
1000
0000
0001
1000
0000
,  // measure 18
0010
0000
0100
0000
0010
1000
0000
0001
,  // measure 19
0010
0100
0010
0100
1000
0001
1000
0001
,  // measure 20
0100
0010
1000
0001
,  // measure 21
0011
0000
0000
0110
0000
0110
0000
0100
,  // measure 22
1000
0000
0010
0100
0001
0000
0100
0010
,  // measure 23
0001
0000
0010
1000
0100
0000
0010
0100
,  // measure 24
0010
0100
1000
0001
,  // measure 25
0101
0000
0000
0110
0000
0110
0000
0010
,  // measure 26
1000
0000
0100
0010
0100
0000
1000
0001
,  // measure 27
1000
0010
1000
0010
0100
0001
0100
0001
,  // measure 28
0010
0100
0010
0011
,  // measure 29
0001
0000
0100
0010
0000
0010
1000
0000
,  // measure 30
0001
0000
1000
0000
0100
0010
0000
0110
,  // measure 31
0000
1001
0000
0011
0000
0000
0010
0000
,  // measure 32
0100
1000
0010
0100
,  // measure 33
0110
0000
0000
0101
0000
0000
1001
0000
,  // measure 34
0000
0000
1000
0000
0100
0010
0000
0010
,  // measure 35
0110
0000
0110
0000
0010
0001
0100
0010
,  // measure 36
1000
0001
1000
0100
,  // measure 37
0010
0000
0110
0100
,  // measure 38
1000
0000
0100
0000
1000
0000
0001
0000
0000
0100
0000
0000
,  // measure 39
0010
0000
1000
0010
0000
0010
0100
0000
,  // measure 40
0001
1000
0100
0010
,  // measure 41
0110
0000
0100
1000
0000
1000
0001
0000
,  // measure 42
0101
0000
0000
0110
0000
1010
0000
0000
,  // measure 43
2002
0000
3003
0000
,  // measure 44
1000
1000
0001
0001
0010
0010
0001
0001
,  // measure 45
1000
0010
0100
0001
1000
0100
1000
0100
,  // measure 46
0010
1100
0010
1100
,  // measure 47
0010
0100
0001
0100
0000
0001
0010
0000
,  // measure 48
0100
0011
0100
0011
,  // measure 49
0001
1000
0010
1000
0100
0000
0110
0000
,  // measure 50
0010
0101
0010
0101
,  // measure 51
0001
1000
0001
1000
0000
0010
1000
0000
,  // measure 52
0100
0000
0010
0100
0010
0001
0100
0000
,  // measure 53
0010
1000
0001
0010
0001
0100
1000
0000
,  // measure 54
0100
1010
0100
1010
,  // measure 55
0010
1000
0001
0010
0100
0100
0010
0001
,  // measure 56
0000
1000
0001
0000
0100
0000
1010
0000
,  // measure 57
0100
0010
0100
0000
0101
0000
0011
0000
,  // measure 58
0110
1100
1000
0010
,  // measure 59
0001
0010
1000
0100
0000
0001
0100
0000
,  // measure 60
0010
1100
0010
1100
,  // measure 61
1000
0100
1000
0100
0010
0001
0100
0010
,  // measure 62
1000
0011
1000
0011
,  // measure 63
0010
0100
0010
0001
0000
0100
0010
0000
,  // measure 64
0100
0011
0100
0011
,  // measure 65
0010
0100
1000
0010
0001
0000
0010
0000
,  // measure 66
0100
1010
0100
1010
,  // measure 67
1000
0001
0100
0010
0000
0100
0100
0000
,  // measure 68
0001
1010
0001
1010
,  // measure 69
1000
0001
0010
0100
0010
0001
0100
0000
,  // measure 70
0010
1100
0010
1100
,  // measure 71
1000
0100
0010
0001
0100
0100
0010
0100
,  // measure 72
0000
0001
0101
0000
1000
0000
0101
0000
,  // measure 73
0001
0010
0001
1000
0100
0000
0010
0000
,  // measure 74
0001
1100
0001
1100
,  // measure 75
1000
0001
1000
0000
0100
0000
0000
0000
,  // measure 76
0440
0000
0000
0000
,  // measure 77
0000
0000
0000
0000
,  // measure 78
0000
0000
0000
0000
,  // measure 79
0000
0000
0000
0000
,  // measure 80
0000
0000
0000
0000
,  // measure 81
0000
0000
0000
0000
,  // measure 82
0000
0000
0000
0000
,  // measure 83
0000
0000
0000
0000
,  // measure 84
0330
0110
0000
0000
;

//---------------dance-single - ----------------
#NOTES:
     dance-single:
     :
     Beginner:
     4:
     0.159,0.180,0.064,0.021,0.000,96.000,6.000,2.000,0.000,0.000,0.000,0.159,0.180,0.064,0.021,0.000,96.000,6.000,2.000,0.000,0.000,0.000:
0010
0000
0000
0000
,
0010
0000
0000
0000
,
1000
0000
0000
0000
,
1000
0000
0000
0000
,
0001
0000
0000
0000
,
0001
0000
0000
0000
,
0010
0000
0000
0000
,
0110
0000
0000
0000
,
0100
0000
0000
0000
,
0100
0000
0000
0000
,
1000
0000
0000
0000
,
0001
0000
0000
0000
,
0010
0000
0000
0000
,
0100
0000
0000
0000
,
1000
0000
0000
0000
,
0001
0000
0000
0000
,
0100
0000
0000
0000
,
0100
0000
0000
0000
,
0001
0000
0000
0000
,
1000
0000
0000
0000
,
0100
0000
0000
0000
,
0010
0000
0000
0000
,
0001
0000
0010
0000
,
0100
0000
1000
0000
,
0010
0000
0000
0000
,
0100
0000
0000
0000
,
0001
0000
0100
0000
,
0010
0000
1000
0000
,
0001
0000
0000
0000
,
0001
0000
0000
0000
,
0010
0000
0000
0000
,
0010
0000
0000
0000
,
0100
0000
0000
0000
,
0100
0000
0000
0000
,
1000
0000
0000
0000
,
1000
0000
0000
0000
,
0010
0000
0000
0000
,
1000
0000
0000
0000
,
0001
0000
0000
0000
,
0100
0000
0000
0000
,
0001
0000
0000
0000
,
0010
0000
0000
0000
,
0100
0000
0000
0000
,
1100
0000
0000
0000
,
0000
0000
0000
0000
,
0000
1000
1000
0000
,
0001
0000
0000
0000
,
0000
0010
0010
0000
,
0100
0000
0000
0000
,
0000
1000
1000
0000
,
0001
0000
0000
0000
,
0000
0010
0010
0000
,
0100
0000
0000
0000
,
0110
0000
0001
0000
,
1000
0000
0000
0000
,
0000
0100
0100
0000
,
0010
0000
0000
0000
,
0000
0001
0001
0000
,
1000
0000
0000
0000
,
1001
0000
0010
0000
,
0100
0000
0000
0000
,
0000
1000
1000
0000
,
0001
0000
0000
0000
,
0000
0010
0010
0000
,
0100
0000
0000
0000
,
0000
1000
1000
0000
,
0001
0000
0000
0000
,
0000
0010
0010
0000
,
0100
0000
0000
0000
,
0110
0000
0100
0000
,
0010
0000
0000
0000
,
0000
0001
0001
0000
,
1000
0000
0000
0000
,
0000
0100
0100
0000
,
0010
0000
0000
0000
,
0001
0000
1000
0000
,
2002
0000
0000
0000
,
0000
0000
0000
0000
,
0000
0000
0000
0000
,
0000
0000
0000
0000
,
0000
0000
0000
0000
,
0000
0000
0000
0000
,
0000
0000
0000
0000
,
0000
0000
0000
0000
,
0000
3003
0000
0000
;

//---------------dance-single - ----------------
#NOTES:
     dance-single:
     :
     Medium:
     10:
     0.531,0.541,0.236,0.214,0.011,305.000,22.000,20.000,0.000,0.000,0.000,0.531,0.541,0.236,0.214,0.011,305.000,22.000,20.000,0.000,0.000,0.000: // measure 0
1000
0000
0001
0000
0000
0010
0001
0000
,  // measure 1
0010
0010
0100
0100
,  // measure 2
1000
0000
0010
0000
0000
1000
0001
0000
,  // measure 3
0010
0010
0100
0100
,  // measure 4
1000
0000
0100
0000
0000
1000
0010
0000
,  // measure 5
0100
0100
0010
0010
,  // measure 6
1000
0000
1000
0000
0000
0001
1000
0000
,  // measure 7
1001
0000
0000
0000
0000
0001
1000
0000
,  // measure 8
0100
0010
0100
0010
,  // measure 9
0100
1000
0000
0001
0000
0000
0000
0100
,  // measure 10
0001
0000
0010
0000
0100
0000
1000
0100
,  // measure 11
0000
0000
0000
0000
1000
0000
0001
0100
,  // measure 12
0001
0100
0010
1000
,  // measure 13
0001
1000
0001
0010
,  // measure 14
0100
0000
0000
1000
0000
1000
0000
0000
,  // measure 15
1001
0000
1000
0010
,  // measure 16
0100
0100
0010
1000
,  // measure 17
0001
0000
0010
0100
0000
1000
0010
0000
,  // measure 18
0010
0000
0100
0000
0010
1000
0000
1000
,  // measure 19
0001
0000
0010
0000
0100
0000
1000
0001
,  // measure 20
1000
0010
1000
0001
,  // measure 21
0010
0000
0000
0110
0000
0110
0000
0100
,  // measure 22
2000
0000
3020
0000
,  // measure 23
0230
0000
0000
0000
0301
0000
0100
0001
,  // measure 24
0100
0001
0010
0100
,  // measure 25
1000
0000
0000
0001
0000
1000
0000
0010
,  // measure 26
2000
0000
3020
0000
,  // measure 27
0130
0000
0100
0000
0001
0000
0001
1000
,  // measure 28
0001
1000
0010
0100
,  // measure 29
0010
0000
0000
1010
0000
1010
0000
0000
,  // measure 30
1000
0000
0000
0000
0001
1000
0000
1001
,  // measure 31
0000
1001
0000
1001
0000
0000
0001
0000
,  // measure 32
0010
0100
0010
0001
,  // measure 33
0011
0000
0000
0101
0000
0000
0011
0000
,  // measure 34
0000
0000
0000
0000
0010
0100
0000
1000
,  // measure 35
0100
0000
0010
0000
0100
1000
0100
1000
,  // measure 36
0100
1000
0001
0100
,  // measure 37
0010
0000
1000
1000
,  // measure 38
0001
0000
1000
0000
0001
0000
1000
0000
0000
0001
0000
0000
,  // measure 39
1000
0000
0010
0100
0000
0000
0000
0010
,  // measure 40
1000
0001
0100
1000
,  // measure 41
0100
0000
0001
0010
0000
0010
0100
0000
,  // measure 42
0110
0000
0000
1001
0000
1001
0000
0000
,  // measure 43
0110
0000
0000
0000
,  // measure 44
0010
0001
0010
0000
0001
0100
0001
0000
,  // measure 45
0100
0010
0100
0010
0000
0000
0010
0000
,  // measure 46
1000
2000
0000
0001
,  // measure 47
3001
1000
0001
1000
0000
0100
1000
0000
,  // measure 48
0010
0020
0000
0100
,  // measure 49
0130
0010
0100
0001
0100
0000
0001
0000
,  // measure 50
1000
2000
0000
3001
,  // measure 51
1000
0100
0010
0001
0000
0000
0100
0000
,  // measure 52
0010
0020
0000
0130
,  // measure 53
0110
0000
0000
0000
0000
0001
0100
0000
,  // measure 54
0010
0020
0000
1000
,  // measure 55
1030
0010
1000
0010
1000
0001
1000
0001
,  // measure 56
0000
0020
0000
0100
,  // measure 57
0130
0010
0100
0000
0100
0000
1000
0000
,  // measure 58
0001
0002
0000
1000
,  // measure 59
1003
0001
1000
0001
0000
0000
0010
0000
,  // measure 60
0100
0200
0000
0010
,  // measure 61
0310
0100
0010
0100
0010
0100
0010
0100
,  // measure 62
1000
2000
0000
0001
,  // measure 63
3001
1000
0001
0000
0010
0100
0010
0000
,  // measure 64
0100
2000
0000
0001
,  // measure 65
3001
1000
0100
1000
0001
0000
0100
0000
,  // measure 66
0010
0020
0000
0100
,  // measure 67
0130
0010
1000
0100
0000
0000
0010
0000
,  // measure 68
0001
0002
0000
1003
,  // measure 69
1001
0000
0000
0000
0000
1000
0100
0000
,  // measure 70
1000
2000
0000
0100
,  // measure 71
3100
1000
0010
0100
0010
0100
0001
0010
,  // measure 72
0000
0200
0000
0010
,  // measure 73
0310
0100
0010
0000
0001
0000
1000
0000
,  // measure 74
0001
2000
0000
3010
,  // measure 75
1010
0000
0101
0000
,  // measure 76
1001
0000
0000
0000
,  // measure 77
0000
0000
0000
0000
,  // measure 78
0000
0000
0000
0000
,  // measure 79
0000
0000
0000
0000
,  // measure 80
0000
0000
0000
0000
,  // measure 81
0000
0000
0000
0000
,  // measure 82
0000
0000
0000
0000
,  // measure 83
0000
0000
0000
0000
,  // measure 84
0000
1001
0000
0000
;
