#TITLE:Trixie's Good Side;
#SUBTITLE:;
#ARTIST:PinkiePieSwear;
#TITLETRANSLIT:;
#SUBTITLETRANSLIT:;
#ARTISTTRANSLIT:;
#CREDIT:;
#GENRE:Dance;
#BANNER:;
#BACKGROUND:;
#LYRICSPATH:;
#CDTITLE:;
#MUSIC:Trixie's Good Side.mp3;
#OFFSET:-7.720;
#SAMPLESTART:29.300;
#SAMPLELENGTH:15.000;
#SELECTABLE:YES;
#BPMS:0.000=125.000,44.000=62.500,46.000=125.000,106.000=62.500,108.000=125.000;
#STOPS:;
#BGCHANGES:;

//---------------dance-single - ----------------
#NOTES:
     dance-single:
     :
     Hard:
     9:
     0.340,0.359,0.047,0.103,0.023: // measure 1
2000
0000
0000
0000
,  // measure 2
0000
3002
0000
0000
,  // measure 3
0203
0000
0000
0000
,  // measure 4
0000
0320
0000
0000
,  // measure 5
1030
0100
0010
0001
,  // measure 6
0100
0000
0010
0000
0100
0000
0001
1000
,  // measure 7
0100
0010
0100
1000
,  // measure 8
0010
0000
0100
0000
0001
0000
1000
0100
,  // measure 9
0001
0100
1000
0001
,  // measure 10
0100
0000
0010
0000
1000
0000
0100
0010
,  // measure 11
0100
1000
0001
0100
,  // measure 12
0020
0000
0000
0000
1030
0100
0001
0100
,  // measure 13
1000
0100
0001
0000
0100
1000
0001
0100
,  // measure 14
1000
0100
0001
0000
0010
1000
0001
1000
,  // measure 15
0010
0001
1000
0000
0010
0100
0001
1000
,  // measure 16
0100
0000
0110
0000
0010
0001
0100
0010
,  // measure 17
0100
0001
1000
0000
0100
0010
0100
1000
,  // measure 18
0001
0100
0010
0000
1000
0100
0001
0100
,  // measure 19
1000
0001
0100
0010
1000
0100
0010
0000
,  // measure 20
0002
0000
0000
0000
1003
0000
0010
0100
,  // measure 21
0001
0100
0010
1000
0100
0000
0010
0000
,  // measure 22
0100
1000
0001
0100
0010
0000
1000
0000
,  // measure 23
0100
0000
1000
0001
0010
0000
0001
0100
,  // measure 24
2000
0000
0000
0000
3001
0000
1000
0100
,  // measure 25
0001
0000
0010
0100
1000
0000
0001
0000
,  // measure 26
0100
0000
0010
1000
0001
0000
0011
0000
,  // measure 27
0001
0000
0000
0000
1001
0000
0000
0000
1000
0000
0010
0100
0020
0000
0000
0000
,  // measure 28
1030
0000
0100
1000
0001
0100
0010
0000
,  // measure 29
0100
0000
0000
0000
0001
0000
1000
0000
0100
0000
0010
0000
0100
0000
0000
1000
,  // measure 30
0000
0010
0100
0000
0001
0100
0010
0000
,  // measure 31
1000
0100
0001
0000
0100
0000
0010
0001
,  // measure 32
1000
0000
0010
0100
0001
0000
1000
0100
,  // measure 33
0010
0000
0000
0000
0010
0000
0100
0000
1000
0000
0010
0000
0100
0000
0000
0001
,  // measure 34
0000
0100
0010
0000
1000
0010
0100
0000
,  // measure 35
0001
1000
0100
0000
0010
0001
2000
0000
,  // measure 36
3010
0000
0110
0000
0100
0001
1000
0100
,  // measure 37
0010
0000
0100
0000
1000
0000
0001
0000
0100
0000
0010
0000
1000
0000
0000
0001
,  // measure 38
0000
1000
0010
0100
0001
0010
0100
1000
,  // measure 39
0001
0100
0010
0100
0001
1000
0100
0001
,  // measure 40
0100
0010
0001
0100
0010
1000
0100
0010
,  // measure 41
0100
0000
1000
0000
0001
0000
0100
0000
0010
0000
1000
0000
0001
0000
0000
1000
,  // measure 42
0000
0001
0100
1000
0100
0010
1000
0100
,  // measure 43
0010
0001
1000
0010
0100
0001
0010
0000
,  // measure 44
2002
0000
0000
0000
,  // measure 45
0000
0000
0000
0000
,  // measure 46
3003
0000
0000
0000
;

//---------------dance-single - ----------------
#NOTES:
     dance-single:
     :
     Medium:
     6:
     0.220,0.211,0.000,0.084,0.000:
2000
0000
3000
0000
,
0002
0000
0003
0000
,
0200
0000
0300
0000
,
0020
0000
0030
0000
,
1000
0000
1000
0000
,
0100
0010
0100
1000
,
0001
0000
0001
0000
,
0100
0010
0100
0001
,
1000
0000
1000
0000
,
0100
0010
0100
1000
,
0010
0000
0100
0000
,
0000
0000
0001
0010
,
0100
0100
1000
0001
,
0100
0100
0010
0100
,
0001
0001
1000
0100
,
2000
0000
3010
0100
,
0010
0010
1000
0001
,
1000
1000
0100
0001
,
0100
0100
0010
0001
,
2000
0000
3010
0100
,
0001
0100
0010
0010
,
1000
0100
0001
0001
,
0100
1000
0001
0100
,
0020
0000
0130
0001
,
0010
0100
0100
0001
,
0100
1000
0001
0100
,
0010
0000
1000
0000
0000
0001
0002
0000
,
1003
0010
0100
0001
,
1000
0000
0100
0000
0010
0001
0010
0000
,
0100
1000
0001
0100
,
0010
0000
1000
0000
0100
0000
0010
0100
,
0010
0100
1000
0001
,
0100
0000
0010
0000
1000
0001
1000
0000
,
0001
0010
0100
1000
,
0010
0000
0100
0000
0001
0000
1000
0100
,
1000
0010
0100
1000
,
0100
0000
0001
0000
0010
0001
0010
0000
,
0100
1000
0001
0100
,
0010
0000
0100
0000
0001
0000
1000
0100
,
1000
0100
0001
0100
,
1000
0000
0010
0000
0100
0010
0100
0000
,
0001
1000
0100
0010
,
0001
1000
0010
0100
,
0002
0000
0000
0000
,
0000
0000
0000
0000
,
0003
0000
0000
0000
;

//---------------dance-single - ----------------
#NOTES:
     dance-single:
     :
     Easy:
     3:
     0.135,0.148,0.000,0.038,0.000:
1000
0000
0000
0000
,
0000
0010
0000
0000
,
0100
0000
0000
0000
,
0000
0001
0000
0000
,
1000
0000
0100
0000
,
0010
0000
0001
0000
,
0100
0000
0010
0000
,
1000
0000
0001
0000
,
1000
0000
0010
0000
,
0100
0000
0001
0000
,
0010
0000
0100
0000
,
0000
0000
1000
0000
,
0010
0000
0100
0000
,
0001
0010
0001
0000
,
1000
1000
0000
0010
,
0020
0000
0130
0000
,
0001
0000
1000
0000
,
0100
1000
0010
0000
,
0100
0000
0100
0000
,
0002
0000
0013
0000
,
0001
0000
0100
0000
,
0010
1000
0010
0000
,
0100
0100
0000
0001
,
0002
0000
1003
0000
,
0100
0000
0010
0000
,
0001
1000
0010
0000
,
0100
0000
0001
0000
,
0010
0000
0001
0000
,
0010
0100
1000
0000
,
0001
0000
0100
0000
,
0010
1000
0001
0000
,
0010
0000
0100
0000
,
1000
0001
0100
0000
,
0010
0000
0100
0000
,
0001
1000
0100
0000
,
0010
0000
0001
0000
,
0100
0010
0100
0000
,
0001
0000
0010
0000
,
0100
1000
0010
0000
,
0100
0000
0001
0000
,
1000
0100
0010
0000
,
0001
0000
1000
0000
,
0010
0100
0001
1000
,
0200
0000
0000
0000
,
0000
0000
0000
0000
,
0300
0000
0000
0000
;

//---------------dance-single - ----------------
#NOTES:
     dance-single:
     :
     Beginner:
     1:
     0.064,0.081,0.000,0.019,0.000:
2000
0000
0000
0000
,
3000
0000
0000
0000
,
0002
0000
0000
0000
,
0003
0000
0000
0000
,
0100
0000
0000
0000
,
0010
0000
0000
0000
,
0100
0000
0000
0000
,
0010
0000
0000
0000
,
1000
0000
0000
0000
,
0001
0000
0000
0000
,
1000
0000
0000
0000
,
0000
0000
0100
0000
,
0000
0000
0010
0000
,
0000
0000
0001
0000
,
1000
0000
0001
0000
,
0000
0000
0100
0000
,
0000
0000
0010
0000
,
0000
0000
1000
0000
,
0100
0000
1000
0000
,
0000
0000
0010
0000
,
0000
0000
0100
0000
,
0000
0000
0001
0000
,
1000
0000
0001
0000
,
0000
0000
0010
0000
,
0000
0000
0100
0000
,
0000
0000
1000
0000
,
0010
0000
1000
0000
,
0010
0000
0000
0000
,
0010
0000
0000
0000
,
0100
0000
0000
0000
,
0100
0000
0000
0000
,
0001
0000
0000
0000
,
0001
0000
0000
0000
,
0010
0000
0000
0000
,
0010
0000
0000
0000
,
0100
0000
0000
0000
,
0100
0000
0000
0000
,
1000
0000
0000
0000
,
1000
0000
0000
0000
,
0001
0000
0000
0000
,
0001
0000
0000
0000
,
0100
0000
0000
0000
,
0100
0000
0000
0000
,
0010
0000
0000
0000
;
