#VERSION:0.81;
#TITLE:Trixie The Pony Troll [VIP];
#SUBTITLE:;
#ARTIST:Alex S.;
#TITLETRANSLIT:;
#SUBTITLETRANSLIT:;
#ARTISTTRANSLIT:;
#GENRE:Modern Dubstep;
#ORIGIN:;
#CREDIT:;
#BANNER:Trixie The Pony Troll (VIP).png;
#BACKGROUND:Trixie The Pony Troll (VIP)-bg.png;
#PREVIEWVID:;
#JACKET:Trixie The Pony Troll (VIP)-jacket.png;
#CDIMAGE:;
#DISCIMAGE:;
#LYRICSPATH:;
#CDTITLE:;
#MUSIC:Trixie The Pony Troll [VIP].mp3;
#OFFSET:-5.535;
#SAMPLESTART:56.268;
#SAMPLELENGTH:15.000;
#SELECTABLE:YES;
#BPMS:0.000=175.000;
#STOPS:80.000=0.685;
#DELAYS:;
#WARPS:;
#TIMESIGNATURES:0.000=4=4,
80.000=2=4,
82.000=4=4;
#TICKCOUNTS:0.000=4;
#COMBOS:0.000=1;
#SPEEDS:0.000=1.000=0.000=0;
#SCROLLS:0.000=1.000;
#FAKES:;
#LABELS:0.000=Song Start;
#BGCHANGES:;
#KEYSOUNDS:;
#ATTACKS:
;

//---------------dance-single - ----------------
#NOTEDATA:;
#CHARTNAME:;
#STEPSTYPE:dance-single;
#DESCRIPTION:;
#CHARTSTYLE:;
#DIFFICULTY:Hard;
#METER:14;
#RADARVALUES:0.610,0.776,0.469,0.239,0.082,433.000,57.000,29.000,0.000,0.000,0.000,0.000,0.000,0.610,0.776,0.469,0.239,0.082,433.000,57.000,29.000,0.000,0.000,0.000,0.000,0.000;
#CREDIT:;
#NOTES:
1000
0000
0000
0001
0000
0001
0000
0000
,
0100
0000
0000
0010
0000
0010
0000
0000
,
1000
0000
0000
0100
0000
0100
0000
0000
,
0010
0000
0000
0001
0000
0001
0000
0000
,
1000
0000
0010
0100
0000
0010
0000
1000
,
0001
0000
0010
0100
0000
1000
0000
0100
,
0010
0000
0001
0100
0000
0010
0000
0100
,
0001
0000
1000
0100
0000
0010
0000
0100
,
1000
0000
0001
0100
0000
0010
0000
1000
,
0100
0000
0010
0001
0000
0100
0000
0010
,
0100
0000
0001
1000
0000
0100
0000
0010
,
0001
0000
1000
0010
0000
0100
0000
0001
,
0010
0000
0100
1000
0001
1000
0100
0000
,
0010
0000
0001
0100
1000
0100
0001
0000
,
0010
0000
0100
1000
0010
0100
0010
0000
,
1000
0000
0001
0010
0100
0010
0001
0000
,
1000
0010
0100
0010
1000
0100
0010
0100
,
1000
0001
0100
0010
0100
0001
0010
0100
,
1000
0010
0100
0001
0010
0100
1000
0010
,
0100
0001
0100
0001
1000
0100
1000
0100
0010
0001
0010
0001
1000
0010
1000
0010
,
0001
1001
2000
3001
,
0101
0010
1000
1000
0001
0001
0010
0010
,
0200
2300
3001
0100
,
0110
0000
1000
1000
0001
0001
0010
0010
,
2000
3002
0103
0010
,
0011
0001
0100
0100
0010
0010
1000
1000
,
0002
0023
0130
1000
,
1010
0000
0000
0000
0010
0000
0010
0000
0100
0000
0001
0100
0001
0000
0010
0000
,
0001
0010
0001
0000
0100
0000
0110
0000
2000
0000
0000
0000
3100
0000
0000
0000
,
0110
0010
0001
0001
1000
1000
0010
0010
,
0200
0302
1003
0100
,
0110
0000
0100
0100
1000
1000
0001
0001
,
0200
0320
0130
0010
,
1010
1000
0100
0100
0010
0010
0001
0001
,
2000
3020
0130
0001
,
0011
0000
0010
0000
0100
0000
0100
0000
1000
0000
0001
0100
0001
0000
0010
0000
,
0100
1000
0100
0000
0010
0000
1001
0000
0100
0000
0000
0000
1001
0000
0010
0000
,
0000
0011
0001
0000
1100
0000
1010
0100
,
0000
0001
0101
0000
0110
0000
0110
0010
,
0000
1001
0100
0000
0011
0000
1001
0100
,
0000
0010
1001
0000
2010
0000
3001
0010
,
0100
0100
1000
1000
0002
0000
0203
0000
,
0310
0000
1000
0010
2000
0000
0000
0000
3001
0000
0000
0000
0010
0000
0010
0000
,
0100
1000
0100
0100
0020
0000
0032
0000
,
1003
0000
0010
0000
2000
0000
3001
1000
0001
0000
0000
0000
0100
0000
0110
0000
,
0000
1010
0000
1000
1001
0000
0001
0011
,
0000
0110
0000
0100
1100
0000
1000
1010
,
0000
0110
0000
0100
0101
0000
0001
0011
,
0000
1100
0000
1000
0002
0000
0103
0100
,
0010
1000
0100
0100
2000
0000
3002
0000
,
0103
0000
0001
0010
0002
0000
0000
0000
1003
0000
0000
0000
0010
0000
0010
0000
,
0100
0001
0100
0100
0020
0000
0000
0000
,
0030
0000
1000
0000
0001
0100
0001
0100
0001
0000
0000
0000
0000
0000
0011
0000
,
0000
0011
0000
0000
0100
0000
0000
1100
,
0000
1100
0000
0000
1000
0000
0000
1010
,
0000
1010
0000
0000
0010
0000
0000
0110
,
0000
0110
0000
0000
0100
0000
0000
0101
,
0000
1010
0000
0000
0010
0000
0000
0110
,
0000
0101
0000
0000
0001
0000
0000
0011
,
0000
1100
0000
0000
1000
0000
0000
1010
,
0000
0110
0000
0000
0010
0000
1000
0100
,
1000
0001
0100
0000
0010
0000
1000
0100
,
0000
0100
1000
0000
0010
0000
0100
0001
,
0010
0001
0100
0000
0010
0000
1000
0001
,
0000
0001
0010
0000
0100
0000
1000
0001
,
0100
0010
0100
0000
0001
0000
0010
0100
,
0000
0100
1000
0000
0001
0000
0100
1000
,
0100
0001
0010
0000
0100
0000
1000
0010
,
0000
0010
0100
0000
0101
0000
0001
0010
,
0100
0010
0001
0000
1001
0000
1000
0010
,
0000
0010
0100
0000
0101
0000
0001
0010
,
0100
0010
0001
0000
1001
0000
1000
0010
,
0000
0010
0100
0000
0001
0010
0100
0010
,
0001
0100
0010
0100
0001
1000
0100
1000
,
0010
0100
0010
1000
0001
0010
0100
1000
,
0001
0100
0001
0100
0010
1000
0010
0000
0200
0000
0000
0000
0000
0000
0300
0000
,
1010
0011
2002
0000
,
0000
0000
0000
0000
,
0000
0000
3003
0000
;

//---------------dance-single - ----------------
#NOTEDATA:;
#CHARTNAME:;
#STEPSTYPE:dance-single;
#DESCRIPTION:;
#CHARTSTYLE:;
#DIFFICULTY:Easy;
#METER:6;
#RADARVALUES:0.239,0.255,0.074,0.033,0.000,190.000,9.000,4.000,0.000,0.000,0.000,0.000,0.000,0.239,0.255,0.074,0.033,0.000,190.000,9.000,4.000,0.000,0.000,0.000,0.000,0.000;
#CREDIT:;
#NOTES:
1000
0000
1000
0000
,
0001
0000
0001
0000
,
0010
0000
0010
0000
,
0100
0000
0100
0000
,
1000
0000
0010
0000
,
1000
0000
0010
0000
,
0100
0000
0001
0000
,
0100
0000
0001
0000
,
0010
0000
0001
0000
,
0010
0000
0100
0000
,
1000
0000
0100
0000
,
1000
0000
0001
0000
,
0100
0000
0010
0000
,
0100
0010
0100
0000
,
0001
0000
1000
0000
,
0001
1000
0001
0000
,
0010
0010
0001
0001
,
1000
1000
0100
0100
,
0010
0010
0001
0001
,
1000
0010
0100
0001
,
0020
0030
0100
0000
,
1100
0000
1000
0001
,
1000
0000
0010
0000
,
0110
0000
0100
0001
,
0100
0000
0001
0000
,
0011
0000
0010
0100
,
0010
0000
0100
0000
,
1100
0000
1000
0010
,
1000
0001
0100
0000
,
0110
0000
0010
1000
,
0100
0000
0010
0000
,
0110
0000
0100
1000
,
0001
0000
0100
0000
,
0110
0000
0010
1000
,
0001
0000
0010
0000
,
0011
0000
0001
0100
,
0010
1000
0001
0000
,
0010
0001
0100
0000
,
0010
1000
0100
0000
,
1000
0001
0100
0000
,
0010
1000
0001
0000
,
0010
0000
0001
0010
,
0001
0010
0001
0000
,
1000
0000
0100
1000
,
0100
0000
1000
0000
,
0010
0100
0001
0000
,
1000
0100
0010
0000
,
0001
1000
0010
0000
,
0100
0001
1000
0000
,
0100
1000
0001
0100
,
0010
0100
1000
0000
,
0100
0000
0002
0000
,
0000
0003
0010
0000
,
0100
0000
0010
0000
,
0000
0000
0001
0000
,
1000
0000
0001
0000
,
0000
0000
1000
0000
,
0100
0000
1000
0000
,
0000
0000
0010
0000
,
0100
0000
0010
0000
,
0000
0000
1000
0000
,
0100
0000
0010
0000
,
0001
0000
1000
0000
,
0010
0000
0100
0000
,
0001
0000
1000
0000
,
0100
0000
0001
0000
,
0100
0000
0010
0000
,
0001
0000
1000
0000
,
0010
0000
0100
0000
,
0001
0000
0100
0000
,
0010
0000
1000
0000
,
0100
0000
0010
0000
,
0001
0000
1000
0100
,
1000
0100
0010
0001
,
0010
0001
1000
0010
,
0100
0001
0010
0000
,
0100
1000
2002
0000
,
0000
0000
3003
0000
;

//---------------dance-single - ----------------
#NOTEDATA:;
#CHARTNAME:;
#STEPSTYPE:dance-single;
#DESCRIPTION:;
#CHARTSTYLE:;
#DIFFICULTY:Medium;
#METER:9;
#RADARVALUES:0.390,0.385,0.115,0.173,0.000,297.000,14.000,21.000,0.000,0.000,0.000,0.000,0.000,0.390,0.385,0.115,0.173,0.000,297.000,14.000,21.000,0.000,0.000,0.000,0.000,0.000;
#CREDIT:;
#NOTES:
0010
0000
0000
1000
0000
0010
0000
0000
,
0100
0000
0000
0001
0000
0100
0000
0000
,
0001
0000
0000
1000
0000
0001
0000
0000
,
0010
0000
0000
0001
0000
0010
0000
0000
,
0100
0000
0000
1000
0000
0100
0000
0000
,
1000
0000
0000
0010
0000
1000
0000
0000
,
0001
0000
0000
0010
0000
0001
0000
0000
,
0100
0000
0000
0010
0000
0100
0000
0000
,
0001
0000
0000
0010
0000
0001
0000
0000
,
1000
0000
0000
0100
0000
1000
0000
0000
,
0001
0000
0000
0100
0000
0001
0000
0000
,
1000
0000
0000
0010
0000
1000
0000
0000
,
0010
1000
0100
1000
,
0001
0000
0100
0000
0010
0100
0010
0000
,
1000
0100
0010
0001
,
1000
0000
0010
0000
0100
0001
0100
0000
,
0001
0010
0100
1000
,
0001
0100
0010
1000
,
0001
0010
0100
1000
,
0001
1000
0001
1000
0010
0000
0100
0000
,
0002
1003
0010
0100
,
0110
0000
0010
1000
0010
0000
0100
0000
,
0001
0001
0010
0100
,
1100
0000
1000
0100
0001
0000
0100
0000
,
1100
1000
0010
0100
,
0101
0000
0001
0010
1000
0000
0010
0000
,
0011
0001
0100
0010
,
1010
0000
1000
0100
1000
0000
0001
0100
,
0000
0100
0001
0000
0010
0000
0100
0000
,
1100
0000
1000
0001
0100
0000
0010
0000
,
1010
1000
0100
0010
,
0011
0000
0001
0100
1000
0000
0100
0000
,
0101
0001
1000
0100
,
0011
0000
0001
0100
0010
0000
1000
0000
,
1100
0001
0100
0010
,
0110
0000
0100
0001
0010
0000
0100
1000
,
0000
1000
0001
0000
0100
0000
0000
0010
,
0000
0100
0000
0000
0001
0000
0000
0100
,
0000
0001
0000
0000
1000
0000
0000
0100
,
0000
1000
0000
0000
0010
0000
0000
1000
,
0000
0010
0000
0000
0100
0000
0010
0000
,
0100
0000
0010
0100
0010
0000
1000
0000
,
0100
0000
0010
0000
0001
0000
1000
0100
,
1000
0001
0100
0010
,
1000
0000
0001
0000
0010
0000
0000
0001
,
0000
0010
0000
0000
0100
0000
0000
1000
,
0000
0100
0000
0000
1000
0000
0000
0010
,
0000
1000
0000
0000
0001
0000
0000
0100
,
0000
0001
0000
0000
0010
0000
0001
0000
,
0100
0000
0010
1000
0010
0000
0100
0000
,
0001
0000
0010
0000
0100
0000
1000
0100
,
1000
0001
0200
0000
,
0000
0000
0310
1000
0020
0000
0000
2000
,
0000
3030
0000
0000
0002
0000
0000
0020
,
0000
0033
0000
0000
0200
0000
0000
2000
,
0000
3300
0000
0000
0002
0000
0000
0200
,
0000
0303
0000
0000
0020
0000
0000
0200
,
0000
0330
0000
0000
0002
0000
0000
2000
,
0000
3003
0000
0000
0002
0000
0000
0020
,
0000
0033
0000
0000
0200
0000
0000
2000
,
0000
3300
0000
0000
0001
0000
0010
0000
,
0100
0000
1000
0000
0001
0000
0100
0010
,
0000
0010
0100
0000
0001
0000
0010
0000
,
0100
0000
1000
0000
0010
0000
0100
0001
,
0000
0001
0100
0000
0010
0000
1000
0000
,
0100
0000
0001
0000
0100
0000
1000
0001
,
0000
0001
0100
0000
0010
0000
1000
0000
,
0100
0000
0010
0000
0100
0000
1000
0001
,
0000
0001
0100
0000
0010
0000
1000
0000
,
0100
1000
0001
0000
0100
0000
0010
0100
,
0000
0100
0010
0000
1000
0000
0100
0000
,
0010
0001
1000
0000
0010
0000
0100
0001
,
0000
0001
0010
0000
0001
0000
0100
0000
,
1000
0100
0001
0010
,
1000
0000
0010
0000
0100
1000
0100
0000
,
1000
0001
1000
0000
0020
0000
0000
0000
,
0100
0130
2002
0000
,
0000
0000
0000
0000
,
3003
0000
0000
0000
;

//---------------dance-single - ----------------
#NOTEDATA:;
#CHARTNAME:;
#STEPSTYPE:dance-single;
#DESCRIPTION:;
#CHARTSTYLE:;
#DIFFICULTY:Beginner;
#METER:4;
#RADARVALUES:0.128,0.126,0.016,0.016,0.000,105.000,2.000,2.000,0.000,0.000,0.000,0.000,0.000,0.128,0.126,0.016,0.016,0.000,105.000,2.000,2.000,0.000,0.000,0.000,0.000,0.000;
#CREDIT:;
#NOTES:
1000
0000
0000
0000
,
0010
0000
0000
0000
,
0100
0000
0000
0000
,
0001
0000
0000
0000
,
0010
0000
0000
0000
,
0001
0000
0000
0000
,
1000
0000
0000
0000
,
0100
0000
0000
0000
,
1000
0000
0000
0000
,
0010
0000
0000
0000
,
0100
0000
0000
0000
,
0001
0000
0000
0000
,
0010
0000
0001
0000
,
0010
0000
0000
0000
,
0100
0000
1000
0000
,
0100
0000
0000
0000
,
1000
0000
1000
0000
,
0001
0000
0001
0000
,
0100
0000
0100
0000
,
0010
0000
0010
0000
,
0110
0000
1000
0000
,
0000
0000
0010
0000
,
0010
0000
0010
0000
,
0000
0000
0100
0000
,
0100
0000
0100
0000
,
0000
0000
0001
0000
,
0001
0000
0001
0000
,
0000
0000
1000
0000
,
1000
0000
1000
0000
,
0000
0000
0010
0000
,
1000
0000
0010
0000
,
0000
0000
0100
0000
,
0001
0000
0100
0000
,
0000
0000
0001
0000
,
0010
0000
0001
0000
,
0000
0000
1000
0000
,
0100
0000
1000
0000
,
1000
0000
1000
0000
,
0000
0000
0001
0000
,
0001
0000
0001
0000
,
0000
0000
0100
0000
,
0000
0000
0010
0000
,
0010
0000
0010
0000
,
0000
0000
0100
0000
,
0100
0000
0100
0000
,
0001
0000
0100
0000
,
0000
0000
0010
0000
,
1000
0000
0010
0000
,
0000
0000
1000
0000
,
0000
0000
0100
0000
,
0100
0000
0100
0000
,
0000
0000
0020
0000
,
0030
0000
0001
0000
,
0000
0000
0100
0000
,
0000
0000
0010
0000
,
0000
0000
1000
0000
,
0000
0000
0001
0000
,
0000
0000
0010
0000
,
0000
0000
0100
0000
,
0000
0000
1000
0000
,
0000
0000
0010
0000
,
0010
0000
0010
0000
,
0000
0000
0100
0000
,
0100
0000
0100
0000
,
0000
0000
0001
0000
,
0001
0000
0001
0000
,
0000
0000
1000
0000
,
1000
0000
1000
0000
,
0000
0000
0010
0000
,
0000
0000
0100
0000
,
0000
0000
0001
0000
,
0000
0000
1000
0000
,
0000
0000
0100
0000
,
0100
0000
0100
0000
,
0000
0000
0010
0000
,
0010
0000
0020
0000
,
0030
0000
0110
0000
;
