#VERSION:0.81;
#TITLE:This is Our Big Night;
#SUBTITLE:;
#ARTIST:♪♪♪♪♪;
#TITLETRANSLIT:;
#SUBTITLETRANSLIT:;
#ARTISTTRANSLIT:;
#GENRE:My Little Pony;
#ORIGIN:;
#CREDIT:;
#BANNER:This is Our Big Night.png;
#BACKGROUND:This is Our Big Night-bg.png;
#PREVIEWVID:;
#JACKET:This is Our Big Night-jacket.png;
#CDIMAGE:;
#DISCIMAGE:;
#LYRICSPATH:;
#CDTITLE:;
#MUSIC:This is Our Big Night.mp3;
#OFFSET:0.481179;
#SAMPLESTART:44.299999;
#SAMPLELENGTH:15.000000;
#SELECTABLE:YES;
#DISPLAYBPM:130.000;
#BPMS:0.000=130.000,64.000=132.000,65.000=130.000;
#STOPS:;
#DELAYS:;
#WARPS:;
#TIMESIGNATURES:0.000=4=4;
#TICKCOUNTS:0.000=4;
#COMBOS:0.000=1;
#SPEEDS:0.000=1.000=0.000=0;
#SCROLLS:0.000=1.000;
#FAKES:;
#LABELS:0.000=Song Start;
#BGCHANGES:1.000=This is Our Big Night.avi=1.000=0=0=0=StretchNoLoop====,
99999=-nosongbg-=1.000=0=0=0 // don't automatically add -songbackground-
;
#KEYSOUNDS:;
#ATTACKS:
;

//---------------dance-single - ----------------
#NOTEDATA:;
#CHARTNAME:;
#STEPSTYPE:dance-single;
#DESCRIPTION:;
#CHARTSTYLE:;
#DIFFICULTY:Easy;
#METER:4;
#RADARVALUES:0.236146,0.213843,0.091835,0.065596,0.000000,114.000000,7.000000,5.000000,0.000000,0.000000,0.000000,0.000000,0.000000,0.236146,0.213843,0.091835,0.065596,0.000000,114.000000,7.000000,5.000000,0.000000,0.000000,0.000000,0.000000,0.000000;
#CREDIT:;
#NOTES:
0000
0000
1000
1000
,
0001
0000
0100
0000
,
0010
1000
0010
1000
,
0001
0000
0100
0000
,
0001
1000
0001
0001
,
0010
0000
0100
0000
,
0010
0100
0010
0100
,
1000
0000
1000
0000
,
0001
0100
0010
1000
,
0001
0000
0001
0000
,
1000
1000
1000
0010
,
0010
0000
0010
0000
,
0100
0100
0001
0001
,
1000
0000
1000
0000
,
0001
0001
0001
0010
,
0010
0000
0010
0000
,
0100
0100
1000
1000
,
1001
0000
0100
0000
,
2000
0000
3010
0000
,
0020
0000
0100
0000
,
2000
0000
0000
3030
,
1001
0000
0100
0000
,
0002
0000
0013
0000
,
0020
0000
0100
0000
,
0001
0000
0001
0031
,
0010
0000
0010
0000
,
0100
1000
0100
1000
,
0001
0000
0001
0000
,
0100
0001
0100
0001
,
0010
0000
0100
0000
,
1000
0100
1000
0100
,
0010
0000
0001
0000
,
0100
0001
0100
0001
,
1001
0000
1000
0000
,
0010
1000
0001
0100
,
0101
0000
0001
0000
,
0010
0100
1000
0010
,
0011
0000
0010
0000
,
1000
0001
1000
0001
,
0011
0000
1100
0000
,
1000
0100
0010
0001
;

//---------------dance-single - ----------------
#NOTEDATA:;
#CHARTNAME:;
#STEPSTYPE:dance-single;
#DESCRIPTION:;
#CHARTSTYLE:;
#DIFFICULTY:Beginner;
#METER:1;
#RADARVALUES:0.084338,0.080191,0.052477,0.000000,0.000000,41.000000,4.000000,0.000000,0.000000,0.000000,0.000000,0.000000,0.000000,0.084338,0.080191,0.052477,0.000000,0.000000,41.000000,4.000000,0.000000,0.000000,0.000000,0.000000,0.000000,0.000000;
#CREDIT:;
#NOTES:
0000
0000
0000
0000
,
0000
0000
0000
0000
,
0000
0000
0000
0000
,
0000
0000
0000
0000
,
0000
0000
0000
0000
,
1000
0000
0000
0000
,
0001
0000
0000
0000
,
1000
0000
0000
0000
,
0001
0000
0000
0000
,
1001
0000
0000
0000
,
0100
0000
0000
0000
,
0010
0000
0000
0000
,
0001
0000
0000
0000
,
1000
0000
0000
0000
,
0010
0000
0000
0000
,
0100
0000
0000
0000
,
0001
0000
0000
0000
,
0001
0000
0000
0000
,
0010
0000
0000
0000
,
0100
0000
0000
0000
,
1000
0000
0000
0000
,
0010
0000
0000
0000
,
0100
0000
0000
0000
,
0001
0000
0000
0000
,
1000
0000
0000
0000
,
1001
0000
0000
0000
,
0100
0000
0000
0000
,
0010
0000
0010
0000
,
0010
0000
0000
0000
,
0110
0000
0000
0000
,
0001
0000
0000
0000
,
1000
0000
1000
0000
,
1000
0000
0000
0000
,
0010
0000
0000
0000
,
0100
0000
0000
0000
,
0010
0000
0100
0000
,
0010
0000
0000
0000
,
1000
0000
0000
0000
,
0001
0000
0000
0000
,
1000
0000
0001
0000
,
1000
0000
0000
1001
;

//---------------dance-single - ----------------
#NOTEDATA:;
#CHARTNAME:;
#STEPSTYPE:dance-single;
#DESCRIPTION:;
#CHARTSTYLE:;
#DIFFICULTY:Medium;
#METER:6;
#RADARVALUES:0.303616,0.294035,0.275504,0.026238,0.000000,139.000000,21.000000,2.000000,0.000000,0.000000,0.000000,0.000000,0.000000,0.303616,0.294035,0.275504,0.026238,0.000000,139.000000,21.000000,2.000000,0.000000,0.000000,0.000000,0.000000,0.000000;
#CREDIT:;
#NOTES:
0000
0000
0000
0000
,
0000
0000
0000
0000
,
0000
0000
0000
0000
,
0000
0000
0000
0000
,
0000
0000
0010
0100
,
1001
0000
0000
0100
0000
0000
0010
0000
,
0000
0100
1000
0001
,
0100
0010
1000
0001
,
0000
0010
0100
1000
,
1001
0000
0100
0000
,
0010
0001
0100
0100
,
0010
1000
0100
1000
,
0001
0000
0100
0000
0010
1000
0010
0000
,
0100
0001
1000
0100
,
0010
0100
1000
0010
,
0100
0001
0010
0100
,
0010
0010
0010
0000
0001
0000
1000
0000
,
0000
0000
0010
0000
0100
0000
0001
1000
,
0002
0000
1000
0000
,
0103
0010
1000
0100
,
1000
0010
0100
1000
,
0100
0000
0010
0000
1000
0000
0100
0010
,
0200
0000
0001
0000
,
1300
0010
0100
0001
,
0010
0000
0000
0100
1000
0100
1000
0000
,
1001
0000
0000
0110
0000
0000
1001
0000
,
0100
0000
0010
0000
0001
1000
0001
0000
,
0100
0010
1000
0100
,
0010
0000
0001
0000
1000
0001
1000
0000
,
1010
0000
0000
0110
0000
0000
0101
0000
,
0000
0000
0001
0000
0010
0001
0010
0000
,
0100
1000
0010
0100
,
0001
0000
0010
0000
0100
0010
0100
0000
,
0110
0000
0000
1001
0000
0000
0110
0000
,
0000
0000
0010
0000
1000
0100
1000
0000
,
1010
0000
0000
0110
0000
0000
0101
0000
,
0000
0000
0001
0000
0010
0100
0010
0000
,
0110
0000
0000
0011
0000
0000
1001
0000
,
0000
0000
1000
0000
0010
0100
0010
0000
,
1010
0000
0000
1001
0000
0000
1100
0000
,
0100
0000
0010
0001
0010
0000
0110
0000
;

//---------------dance-single - ----------------
#NOTEDATA:;
#CHARTNAME:;
#STEPSTYPE:dance-single;
#DESCRIPTION:;
#CHARTSTYLE:;
#DIFFICULTY:Hard;
#METER:8;
#RADARVALUES:0.416067,0.400956,0.183669,0.131192,0.000000,198.000000,14.000000,10.000000,0.000000,0.000000,0.000000,0.000000,0.000000,0.416067,0.400956,0.183669,0.131192,0.000000,198.000000,14.000000,10.000000,0.000000,0.000000,0.000000,0.000000,0.000000;
#CREDIT:;
#NOTES:
0000
0000
0000
0000
,
0000
0000
0000
0000
,
0000
0000
0000
0000
,
0000
0000
0000
0000
,
0000
0000
0000
1000
0001
1000
0001
0000
,
1001
0000
0000
0110
0000
0000
1001
0000
,
0000
0001
0100
0010
0100
0000
0001
1000
,
0100
1000
0000
0010
0000
0000
0110
0000
,
0100
0100
0100
0100
,
0001
0010
0002
0000
1003
0000
0010
0100
,
1000
0100
0001
0010
0100
1000
0002
0000
,
0103
0000
0010
1000
0100
1000
0001
0010
,
0100
0010
0001
1000
0010
0100
0001
1000
,
0000
0100
2000
0000
3010
0000
0002
0000
,
0013
1000
0100
0001
0100
1000
0020
0000
,
0130
0000
0001
0010
0002
0000
1003
0010
,
0100
0001
1000
0000
1001
0000
0110
0000
,
0000
0000
1001
0000
1001
0000
0100
0010
,
0200
0000
0001
0000
,
1300
0000
0010
0100
0000
0100
0001
0000
,
1000
0000
0100
0010
0000
0010
0001
0000
,
0010
0000
0110
0000
0110
0000
0001
1000
,
0002
0000
0010
0000
,
1003
0000
0010
0100
0000
0100
0001
0000
,
1000
0000
0100
0010
0100
0010
0100
0000
,
1001
0000
0010
1000
0000
1000
0001
0000
,
0010
0100
1000
0001
1000
0010
0100
0001
,
0100
0010
1000
0001
0000
0001
0010
0000
,
0100
1000
0010
0100
0001
1000
0100
0000
,
0110
0000
0010
0100
0000
0100
1000
0000
,
0001
0100
0010
0100
0001
1000
0100
0010
,
0001
0100
0000
0010
0000
0010
1000
0000
,
0001
0000
0010
0100
1000
0100
1000
0000
,
1001
0000
0001
0100
0000
0010
1000
0000
,
0001
0000
0010
0100
1000
0100
1000
0000
,
1000
0001
1000
0001
0000
0001
0100
0000
,
0010
1000
0100
0010
0001
1000
0010
0000
,
0110
0000
0100
0001
0000
0001
1000
0000
,
0100
0000
0010
0001
1000
0010
1000
0000
,
0002
0000
0000
2003
0000
0000
3001
0000
,
0010
0000
0100
1000
0000
0001
0100
0000
;

//---------------dance-double - ----------------
#NOTEDATA:;
#CHARTNAME:;
#STEPSTYPE:dance-double;
#DESCRIPTION:;
#CHARTSTYLE:;
#DIFFICULTY:Easy;
#METER:4;
#RADARVALUES:0.213656,0.187113,0.078715,0.052477,0.000000,104.000000,6.000000,4.000000,0.000000,0.000000,0.000000,0.000000,0.000000,0.213656,0.187113,0.078715,0.052477,0.000000,104.000000,6.000000,4.000000,0.000000,0.000000,0.000000,0.000000,0.000000;
#CREDIT:;
#NOTES:
00000000
00000000
00000000
00000000
,
00000000
00000000
00000000
00000000
,
00000000
00000000
00000000
00000000
,
00000000
00000000
00000000
00000000
,
00000000
00000000
00100000
01000000
,
01100000
00000000
10010000
00000000
,
01000000
00100000
00010000
01000000
,
00100000
00000000
01000000
00000000
,
00010000
00100000
00001000
00010000
,
00000010
00001000
00000010
00000000
,
00001000
00000000
00000100
00000000
,
00000010
00000001
00000010
00000000
,
00000100
00000000
00001000
00000000
,
00000010
00000100
00000001
00000000
,
00000100
00000000
00000010
00000000
,
00010000
00000000
00001000
00000000
,
00100000
00010000
10000000
10000000
,
00100000
00000000
01000000
00000000
,
00020000
00000000
00230000
00000000
,
00301000
00000000
00010000
00000000
,
00000010
00001000
00000100
00000010
,
00000000
00000001
00001000
00000010
,
00002000
00000000
00003200
00000000
,
00010300
00000000
00001000
00100000
,
00010000
00000000
01000000
00100000
,
01100000
00000000
10010000
00000000
,
01000000
00100000
00010000
10000000
,
00100000
00000000
01000000
00000000
,
00010000
00100000
00001000
00010000
,
00000010
00000000
00001000
00000000
,
00000100
00000010
00000001
00000100
,
00000010
00000000
00001000
00000000
,
00000100
00010000
00001000
01000000
,
01100000
00000000
00100000
00000000
,
10000000
01000000
00100000
00010000
,
01000000
00000000
00001000
00000000
,
00010000
00000100
00000010
00000001
,
00000100
00000000
00000010
00000000
,
00001000
00000100
00010000
00001000
,
01000000
00000000
00010000
00000000
,
00100000
01000000
10000000
10010000
;

//---------------dance-double - ----------------
#NOTEDATA:;
#CHARTNAME:;
#STEPSTYPE:dance-double;
#DESCRIPTION:;
#CHARTSTYLE:;
#DIFFICULTY:Medium;
#METER:5;
#RADARVALUES:0.288623,0.294035,0.236146,0.052477,0.000000,132.000000,18.000000,4.000000,0.000000,0.000000,0.000000,0.000000,0.000000,0.288623,0.294035,0.236146,0.052477,0.000000,132.000000,18.000000,4.000000,0.000000,0.000000,0.000000,0.000000,0.000000;
#CREDIT:;
#NOTES:
00000000
00000000
00000000
00000000
,
00000000
00000000
00000000
00000000
,
00000000
00000000
00000000
00000000
,
00000000
00000000
00000000
00000000
,
00000000
00000000
00010000
10000000
,
10010000
00000000
00000000
01100000
00000000
00000000
10010000
00000000
,
00000000
00010000
01000000
00001000
,
00010000
00000000
00000000
00000010
00000000
00000000
00001000
00000000
,
00000100
00000010
00000001
00000100
,
00000010
00001000
00000100
00000100
,
00001000
00000010
00010000
00000000
,
00001000
00010000
00100000
01000000
,
00010000
00100000
01000000
01000000
,
00000000
10000000
00010000
01000000
,
00001000
00010000
00000100
00000100
,
00000010
00000001
00000100
00000010
,
00001000
00000001
00001001
00001001
,
00000000
00000100
00001000
00000010
,
00020000
00000000
00032000
00000000
,
01003000
00000000
00000000
00010000
00000000
00000000
00100000
00000000
,
01000000
10000000
00100000
01000000
,
00010000
00100000
00001000
00010000
,
00000020
00000000
00000230
00000000
,
00000301
00000000
00000000
00000010
00000000
00000000
00000100
00000000
,
00001000
00000000
00000010
00000000
00010000
00001000
00010000
00000000
,
00011000
00000000
00000000
00110000
00000000
00000000
01100000
00000000
,
00000000
01000000
10000000
00100000
,
01000000
00000000
00010000
00100000
00000000
00000000
00100000
00000000
,
00001000
00010000
00000010
00001000
,
00001001
00000000
00000000
00000011
00000000
00000000
00000110
00000000
,
00000000
00000100
00001000
00000010
,
00010000
00001000
00000000
00100000
00000000
00100000
00010000
00000000
,
01000000
00100000
10000000
00010000
,
10010000
00000000
00000000
01100000
00000000
00000000
10010000
00000000
,
00010000
01000000
00010000
00100000
,
00010000
00000000
00000000
01000000
00000000
00000000
00001000
00000000
,
00010000
00000000
00000010
00000000
00001000
00000001
00001000
00000000
,
00001001
00000000
00000000
00000110
00000000
00000000
00001001
00000000
,
00000010
00000000
00001000
00000000
00000100
00010000
00000100
00000000
,
00010000
00001000
01000000
00100000
,
10000000
00000000
00010000
10000000
00010000
00000000
10010000
00000000
;

//---------------dance-double - ----------------
#NOTEDATA:;
#CHARTNAME:;
#STEPSTYPE:dance-double;
#DESCRIPTION:;
#CHARTSTYLE:;
#DIFFICULTY:Hard;
#METER:8;
#RADARVALUES:0.416067,0.374226,0.249265,0.078715,0.000000,197.000000,19.000000,6.000000,0.000000,0.000000,0.000000,0.000000,0.000000,0.416067,0.374226,0.249265,0.078715,0.000000,197.000000,19.000000,6.000000,0.000000,0.000000,0.000000,0.000000,0.000000;
#CREDIT:;
#NOTES:
00000000
00000000
00000000
00000000
,
00000000
00000000
00000000
00000000
,
00000000
00000000
00000000
00000000
,
00000000
00000000
00000000
00000000
,
00000000
00000000
00000000
00010000
00100000
00010000
00100000
00000000
,
00110000
00000000
00000000
00101000
00000000
00000000
00011000
00000000
,
00000000
00010000
00000010
00010000
00000100
00000000
00001000
00000010
,
00000100
00000001
00000000
00000010
00000000
00000010
00000100
00000000
,
00001000
00000010
00000100
00000001
,
00000000
00001000
00000100
00000000
00000100
00000000
00010000
00000010
,
00010000
00001000
00100000
00010000
01000000
00100000
10000000
00000000
,
01000000
00000000
00100000
00010000
10000000
00100000
01000000
00010000
,
00100000
00001000
00010000
00000010
00001000
00000100
00000010
00000001
,
00000000
00000001
00000020
00000000
00001030
00000000
00020000
00000000
,
00130000
01000000
00010000
00100000
01000000
10000000
00100000
00000000
,
01000000
00000000
00010000
10000000
01000000
00000000
10000000
00100000
,
01000000
00010000
00100000
00000000
01100000
00000000
10010000
00000000
,
00000000
00000000
00110000
00000000
01010000
00000000
01000000
00001000
,
00020000
00000000
00030020
00000000
,
00001030
00000000
00000100
00001000
00000000
00001000
00000001
00000000
,
00000100
00000000
00000010
00001000
00000000
00001000
00000100
00000000
,
00010000
00000000
00011000
00000000
01010000
00000000
01000000
00100000
,
20000000
00000000
30020000
00000000
,
00130000
00000000
01000000
10000000
00000000
10000000
00010000
00000000
,
01000000
00000000
00100000
10000000
00010000
00100000
01000000
00000000
,
10010000
00000000
10000000
01000000
00000000
10000000
01000000
00000000
,
00100000
00010000
01000000
00100000
00010000
00001000
00010000
00000010
,
00001000
00000100
00000010
00000001
00000000
00000001
00000100
00000000
,
00000010
00001000
00000001
00000010
00000100
00001000
00000001
00000000
,
00001001
00000000
00001000
00000010
00000000
00000100
00000010
00000000
,
00001000
00000010
00001000
00000100
00010000
00001000
00100000
00010000
,
01000000
00100000
00000000
10000000
00000000
10000000
00010000
00000000
,
00100000
01000000
10000000
00010000
01000000
00100000
10000000
00000000
,
10100000
00000000
00000000
10010000
00000000
00000000
01010000
00000000
,
00100000
00000000
00001000
00010000
00000010
00001000
00000001
00000000
,
00000010
00000001
00000010
00000100
00000000
00000100
00001000
00000000
,
00000010
00000000
00010000
00001000
01000000
00010000
00100000
00000000
,
01100000
00000000
01000000
10000000
00000000
00010000
01000000
00000000
,
00100000
00000000
00010000
01000000
00001000
00010000
00000010
00000000
,
00000110
00000000
00000000
00001001
00000000
00000000
00000110
00000000
,
00000100
00000010
00000100
00001000
00000001
00000000
00001001
00000000
;

//---------------dance-single - ----------------
#NOTEDATA:;
#CHARTNAME:;
#STEPSTYPE:dance-single;
#DESCRIPTION:;
#CHARTSTYLE:;
#DIFFICULTY:Challenge;
#METER:10;
#RADARVALUES:0.562253,0.430311,0.341100,0.196788,0.039358,259.000000,26.000000,15.000000,0.000000,0.000000,0.000000,0.000000,0.000000,0.562253,0.430311,0.341100,0.196788,0.039358,259.000000,26.000000,15.000000,0.000000,0.000000,0.000000,0.000000,0.000000;
#CREDIT:;
#NOTES:
0000
0000
0000
1000
0010
0100
0001
0000
,
1001
0000
1000
0100
1000
0000
0001
0000
,
0100
0001
0010
0100
0010
0001
0100
1000
,
0001
0010
1000
1100
0000
0020
0130
0000
,
1100
0000
1000
0001
0100
0010
0001
0010
,
0100
0000
0001
0010
0000
0010
0100
0000
,
1000
0001
1000
0010
0100
0000
0010
0100
,
0001
0010
0100
1000
0000
0002
1003
0000
,
0001
0000
0010
0100
0010
0000
0001
0000
1000
0000
0000
0000
1010
0000
0000
0000
,
0010
0100
0010
0000
0110
0000
0100
0001
,
0010
0010
0100
0010
0001
1000
0010
0000
,
0110
0000
0100
0001
1000
0100
1000
0010
,
0100
0001
0010
0100
1000
0001
1000
0001
,
0000
0100
0101
0000
1010
0000
1100
0000
,
0011
0001
1000
1000
0010
0001
0010
0000
,
0110
0000
0100
0001
1000
0000
0100
0010
,
0100
1000
0001
0100
0010
0000
0110
0000
,
1001
0000
1000
0100
0001
0000
1000
0010
,
0002
0000
0010
0100
0010
0000
0100
1000
,
0203
0000
0001
0010
0000
0010
1300
0000
,
0200
0000
1000
0010
0000
0010
0301
0000
,
0110
0000
0010
1000
0100
0000
0010
0001
,
0200
0000
1000
0001
1000
0000
0001
0010
,
0302
0000
0010
1000
0000
1000
0103
0000
,
0002
0000
0000
0000
0100
0000
1000
0000
0010
0000
1000
0000
0013
0001
0010
0001
,
0100
0000
0010
1000
0001
0000
0011
0000
,
0010
0100
1000
0100
0001
0100
1000
0010
,
0100
0001
0010
0110
0000
0200
1300
0000
,
1000
0000
0001
0100
0001
0000
0010
0000
0100
0000
0010
0000
0001
0000
0000
0000
,
1001
0000
1000
0010
0100
0010
1000
0000
,
0001
0001
0010
0100
0001
1000
0010
0001
,
0100
0010
1000
1001
0000
0002
0013
0000
,
0100
0000
0010
0001
0100
0000
0010
0000
1000
0000
0010
0000
0100
0000
0000
0000
,
0101
0000
0001
1000
0100
1000
0001
0000
,
0101
0000
0001
1000
0010
1000
0001
0000
,
0002
0010
0100
1003
0000
0001
0010
0000
,
0100
0000
0010
0100
0010
0000
0100
0000
1000
0000
0100
0000
1000
0000
0000
0000
,
1100
0000
1000
0001
0100
0001
1000
0000
,
1100
0000
1000
0001
0010
0001
1000
0000
,
2000
0010
0100
0010
0000
0100
0020
0030
,
3001
1000
1001
0101
0000
1001
0202
0000
,
0303
0000
0000
0000
;
