#TITLE:This Strange World;
#SUBTITLE:;
#ARTIST:♪♪♪♪♪;
#TITLETRANSLIT:;
#SUBTITLETRANSLIT:;
#ARTISTTRANSLIT:;
#GENRE:My Little Pony;
#CREDIT:;
#BANNER:This Strange World.png;
#BACKGROUND:This Strange World-bg.png;
#LYRICSPATH:;
#CDTITLE:;
#MUSIC:This Strange World.mp3;
#OFFSET:-0.480000;
#SAMPLESTART:42.279999;
#SAMPLELENGTH:15.000000;
#SELECTABLE:YES;
#BPMS:0.000000=125.999992
;
#STOPS:
;
#BGCHANGES:-0.500=This Strange World.avi=1.000=0=0=0=StretchNoLoop====,
99999=-nosongbg-=1.000=0=0=0 // don't automatically add -songbackground-
;
#KEYSOUNDS:;
#ATTACKS:;

//---------------dance-single - ----------------
#NOTES:
     dance-single:
     :
     Easy:
     3:
     0.160000,0.152000,0.040000,0.026667,0.000000,79.000000,3.000000,2.000000,0.000000,0.000000,0.000000,0.160000,0.152000,0.040000,0.026667,0.000000,79.000000,3.000000,2.000000,0.000000,0.000000,0.000000:
0000
0000
0000
0000
,
0000
0000
0000
0000
,
0010
0000
1000
0000
,
0010
0000
1000
0000
,
0001
0000
0010
0000
,
0001
0000
0010
0000
,
0100
0000
1000
0000
,
0100
0000
1000
0000
,
0001
0000
0100
0000
,
0100
0000
0001
0000
,
0110
0000
0010
0000
,
0100
0100
0100
0000
,
0001
0000
1000
0000
,
0001
0001
0001
0000
,
0010
0000
0100
0000
,
0010
0000
0100
0000
,
1000
0000
0001
0000
,
1000
0000
0001
0000
,
0100
0000
0010
0000
,
1000
0000
0001
0000
,
0010
0000
0001
0000
,
1000
0000
0100
0000
,
0110
0000
0100
0000
,
0010
0010
0010
0000
,
0001
0000
1000
0000
,
0100
0100
0100
0000
,
2000
0000
0010
0000
,
0010
0000
3010
0000
,
0100
0000
0001
0000
,
1000
0000
1000
0000
,
0002
0000
0100
0000
,
0100
0000
0103
0000
,
0010
0000
1000
0000
,
0100
0000
0010
0000
,
0001
0000
1000
0000
,
0001
0001
0001
0000
,
0100
0000
0010
0000
,
1000
1000
1000
0000
,
1001
0000
0000
0000
;

//---------------dance-single - ----------------
#NOTES:
     dance-single:
     :
     Beginner:
     1:
     0.076190,0.076000,0.040000,0.000000,0.000000,37.000000,3.000000,0.000000,0.000000,0.000000,0.000000,0.076190,0.076000,0.040000,0.000000,0.000000,37.000000,3.000000,0.000000,0.000000,0.000000,0.000000:
0000
0000
0000
0000
,
0000
0000
0000
0000
,
0010
0000
0000
0000
,
1000
0000
0000
0000
,
0001
0000
0000
0000
,
0100
0000
0000
0000
,
0010
0000
0000
0000
,
1000
0000
0000
0000
,
0100
0000
0000
0000
,
0010
0000
0000
0000
,
1001
0000
0000
0000
,
0100
0000
0000
0000
,
0001
0000
0000
0000
,
0010
0000
0000
0000
,
1000
0000
0000
0000
,
0100
0000
0000
0000
,
0010
0000
0000
0000
,
0001
0000
0000
0000
,
1000
0000
0000
0000
,
0010
0000
0000
0000
,
0100
0000
0000
0000
,
0001
0000
0000
0000
,
0110
0000
0000
0000
,
0100
0000
0000
0000
,
1000
0000
0000
0000
,
0010
0000
0000
0000
,
0100
0000
0000
0000
,
0001
0000
0000
0000
,
1000
0000
0000
0000
,
0100
0000
0000
0000
,
0010
0000
0000
0000
,
0001
0000
0000
0000
,
1000
0000
0000
0000
,
0010
0000
0000
0000
,
0100
0000
0000
0000
,
0001
0000
0000
0000
,
1000
0000
0000
0000
,
0100
0000
0000
0000
,
0110
0000
0000
0000
;

//---------------dance-single - ----------------
#NOTES:
     dance-single:
     :
     Medium:
     6:
     0.283810,0.253333,0.253333,0.026667,0.000000,128.000000,19.000000,2.000000,0.000000,0.000000,0.000000,0.283810,0.253333,0.253333,0.026667,0.000000,128.000000,19.000000,2.000000,0.000000,0.000000,0.000000:
0000
0000
0000
0000
,
0000
0000
0000
0000
,
0010
1000
0100
0000
,
1000
0001
0100
0000
,
0010
1000
0100
0001
,
1000
0010
0001
1000
,
0010
0100
0001
0000
,
1000
0100
0010
0000
,
0100
1000
0010
0001
,
1000
0100
0001
0000
,
1001
1001
0110
0000
,
0100
1000
0010
0100
,
0110
0110
1001
0000
,
0100
0010
0001
1000
,
0010
0100
0001
0100
,
0010
1000
0100
1000
,
0010
1000
0001
0100
,
0010
1000
0001
1000
,
0100
0010
0001
1000
,
0100
0010
0001
0010
,
0100
1000
0010
1000
,
0100
0010
0001
1000
,
1001
1001
0110
0000
,
0010
1000
0100
0010
,
0011
0011
1001
0000
,
1000
0010
0100
0001
,
0200
0000
0010
0000
,
0010
0010
0310
0000
,
1000
0100
1000
0010
,
0100
0001
0010
0100
,
2000
0000
0001
0000
,
0001
0001
3001
0000
,
0001
0100
0010
1000
,
0010
0100
1000
0100
,
0101
0101
0011
0000
,
0100
1000
0010
1000
,
1100
1100
1010
0000
,
0010
0100
0001
1000
,
1001
0000
0000
0000
;

//---------------dance-single - ----------------
#NOTES:
     dance-single:
     :
     Hard:
     8:
     0.419048,0.380000,0.266667,0.053333,0.000000,196.000000,20.000000,4.000000,0.000000,0.000000,0.000000,0.419048,0.380000,0.266667,0.053333,0.000000,196.000000,20.000000,4.000000,0.000000,0.000000,0.000000:
0000
0000
0000
0000
,
0000
0000
0000
0000
,
0010
1000
0100
1000
0001
0000
0000
0100
,
0010
1000
0001
0000
,
0010
0100
1000
0001
1000
0010
0100
1000
,
0100
0001
0010
0100
1000
0001
0100
0000
,
0010
1000
0100
0010
0100
0000
0000
1000
,
0001
0100
0010
1000
0001
0000
0000
0001
,
0010
0100
1000
0010
0100
0001
0010
0100
,
0001
0100
1000
0001
0100
0010
1000
0000
,
1001
0000
0110
0000
1001
0000
0000
0001
,
0000
0100
0000
0010
1000
0000
0001
0000
,
0011
0000
1100
0000
1001
0000
0000
0010
,
0000
0100
0000
0001
1000
0000
1100
0000
,
0010
0100
1000
0100
0010
0001
0000
0100
,
0010
0100
0001
1000
0100
0000
0010
0000
,
0001
1000
0010
1000
0001
0010
0100
1000
,
0001
0100
0010
0100
0001
1000
0100
0000
,
0010
0001
0100
1000
0100
0001
0010
0000
,
0100
1000
0001
0000
0200
0000
0310
0000
,
0010
1000
0100
1000
0001
0100
0010
1000
,
0001
0010
0100
1000
0001
0100
0010
0000
,
0110
0000
1010
0000
0110
0000
0100
0001
,
0000
0010
0000
0100
1000
0000
0001
0000
,
0101
0000
0110
0000
0101
0000
0001
1000
,
0000
0100
0000
0010
0001
0000
1000
0000
,
0020
0000
0000
0100
0000
0000
0130
0000
,
0001
0010
0100
1000
,
0002
0100
1000
0103
,
0010
0000
1000
0100
1000
0001
0100
0000
,
0020
0000
0000
1000
0000
0000
0100
0000
,
1030
0100
0010
0001
1000
0010
0100
0001
,
0010
0100
1000
0001
,
1000
0000
0010
0100
0001
0000
1000
0000
,
1100
0000
0011
0000
1100
0000
0001
0100
,
0000
0010
0000
0100
0001
0000
0010
0000
,
0011
0000
0101
0000
0110
0000
0010
1000
,
0000
0001
0000
0010
0100
0000
1000
0000
,
1001
0000
0000
0000
;

//---------------dance-double - ----------------
#NOTES:
     dance-double:
     :
     Easy:
     3:
     0.186667,0.202667,0.013333,0.026667,0.000000,95.000000,1.000000,2.000000,0.000000,0.000000,0.000000,0.186667,0.202667,0.013333,0.026667,0.000000,95.000000,1.000000,2.000000,0.000000,0.000000,0.000000:
00000000
00000000
00000000
00000000
,
00000000
00000000
00000000
00000000
,
00100000
00000000
01000000
00000000
,
00010000
00000000
00100000
00000000
,
00001000
00000000
00010000
00000000
,
00000010
00000000
00001000
00000000
,
00000100
00000000
00000010
00000000
,
00000001
00000000
00000100
00000000
,
00000010
00000000
00000100
00000000
,
00000001
00000000
00000010
00000000
,
00000100
00000100
00000100
00000000
,
00001000
00000010
00010000
00000000
,
00001000
00001000
00001000
00000000
,
00100000
00010000
01000000
00000000
,
00100000
00000000
10000000
00000000
,
01000000
00000000
01000000
00000000
,
00100000
00000000
00010000
00000000
,
01000000
00000000
01000000
00000000
,
00001000
00000000
00010000
00000000
,
00000010
00000000
00000010
00000000
,
00001000
00000000
00000100
00000000
,
00000010
00000000
00000001
00000000
,
00001000
00001000
00001000
00000000
,
00000010
00000100
00000010
00000000
,
00010000
00010000
00010000
00000000
,
00001000
00100000
00010000
01000000
,
00200000
00000000
10000000
00000000
,
10000000
00000000
10300000
00000000
,
01000000
10000000
00010000
01000000
,
00001000
00010000
00000010
00001000
,
00000200
00000000
00000010
00000000
,
00000010
00000000
00000310
00000000
,
00000001
00000100
00000010
00001000
,
00000100
00010000
00001000
01000000
,
00100000
00100000
00100000
00000000
,
10000000
01000000
00100000
00010000
,
01000000
01000000
01000000
00000000
,
00001000
00010000
00001000
00000000
,
00011000
00000000
00000000
00000000
;

//---------------dance-double - ----------------
#NOTES:
     dance-double:
     :
     Medium:
     6:
     0.259048,0.202667,0.093333,0.026667,0.000000,127.000000,7.000000,2.000000,0.000000,0.000000,0.000000,0.259048,0.202667,0.093333,0.026667,0.000000,127.000000,7.000000,2.000000,0.000000,0.000000,0.000000:
00000000
00000000
00000000
00000000
,
00000000
00000000
00000000
00000000
,
00100000
10000000
01000000
00000000
,
10000000
00010000
01000000
00000000
,
00010000
00100000
00001000
00010000
,
00000010
00001000
00000100
00000010
,
00000001
00000100
00000001
00000000
,
00001000
00000100
00001000
00000000
,
00000010
00001000
00000100
00010000
,
00001000
01000000
00010000
00100000
,
01000000
10000000
10010000
00000000
,
00100000
01000000
00010000
00100000
,
00001000
00010000
00011000
00000000
,
00010000
00000010
00001000
00000100
,
00000010
00000001
00000010
00000010
,
00000001
00001000
00000010
00000000
,
00001000
00000100
00010000
00001000
,
01000000
00010000
00100000
01000000
,
10000000
00100000
01000000
00010000
,
00100000
00010000
01000000
00000000
,
00001000
00010000
00000100
00010000
,
00000010
00001000
00000100
00000010
,
00000001
00000010
00000011
00000000
,
00000100
00000010
00001000
00000100
,
00000010
00000100
00010100
00000000
,
00010000
00001000
00100000
00010000
,
02000000
00000000
00100000
00000000
,
10000000
00100000
03010000
00000000
,
00100000
01000000
10000000
00010000
,
00100000
00001000
00010000
00000010
,
00002000
00000000
00000100
00000000
,
00000001
00000010
00003100
00000000
,
00000010
00000001
00000100
00000010
,
00000100
00001000
00000100
00000010
,
00010000
00001000
00011000
00000000
,
00001000
00010000
00100000
01000000
,
00010000
00100000
01100000
00000000
,
01000000
10000000
00010000
01000000
,
01100000
00000000
00000000
00000000
;

//---------------dance-double - ----------------
#NOTES:
     dance-double:
     :
     Hard:
     8:
     0.434286,0.380000,0.280000,0.026667,0.000000,205.000000,21.000000,2.000000,0.000000,0.000000,0.000000,0.434286,0.380000,0.280000,0.026667,0.000000,205.000000,21.000000,2.000000,0.000000,0.000000,0.000000:
00000000
00000000
00000000
00000000
,
00000000
00000000
00000000
00000000
00000000
00000000
00000000
00100000
,
10000000
01000000
10000000
00010000
01000000
00000000
00000000
00010000
,
00100000
00001000
00010000
00000000
,
00010000
00001000
00000010
00001000
00000010
00000100
00001000
00000001
,
00000100
00000010
00000100
00000010
00010000
00001000
00100000
00000000
,
00010000
01000000
00100000
10000000
01000000
00000000
01000000
10000000
,
00010000
01000000
00100000
01000000
00010000
00000000
00000000
00010000
,
00100000
00010000
01000000
00001000
00010000
00000010
00001000
00000001
,
00000010
00000100
00000010
00000001
00001000
00000010
00010000
00000000
,
00011000
00000000
00101000
00000000
00110000
00000000
00010000
01000000
,
00000000
00100000
00000000
10000000
01000000
00000000
10000000
00000000
,
10100000
00000000
01100000
00000000
01010000
00000000
00010000
00100000
,
00000000
00001000
00000000
00010000
00000010
00000000
00001000
00000000
,
00000100
00000010
00000100
00001000
00000001
00000100
00000000
00000100
,
00000010
00001000
00000001
00000010
00000100
00000000
00001000
00000000
,
00000010
00010000
00001000
00100000
00010000
01000000
00100000
10000000
,
01000000
00100000
00010000
01000000
00001000
00010000
00000010
00000000
,
00000100
00001000
00000010
00000001
00000010
00001000
00000100
00000000
,
00010000
00000010
00001000
00000010
00010000
00000000
00001000
00000000
,
00100000
00010000
01000000
00100000
10000000
01000000
10000000
00010000
,
01000000
00100000
01000000
00010000
00100000
00001000
00010000
00000000
,
00010010
00000000
00001010
00000000
00001100
00000000
00000100
00000010
,
00000000
00000001
00000000
00000100
00000010
00000000
00001000
00000000
,
00001100
00000000
00101000
00000000
00110000
00000000
01000000
10000000
,
00000000
00100000
01000000
00010000
00100000
00000000
01000000
00000000
,
21000000
00100000
00010000
00100000
,
31000000
00000000
00100000
00010000
00000000
00010000
01000000
00000000
,
00001000
00010000
00000010
00001000
00000100
00000000
00000010
00000000
,
00000001
00000100
00000010
00001000
00000100
00010000
00000010
00000000
,
00002010
00000000
00000000
00000100
00000000
00000000
00000001
00000000
,
00000010
00000100
00003010
00000000
,
00010000
00001000
00100000
00010000
01000000
00000000
00100000
00000000
,
10000000
00000000
01000000
10000000
00100000
01000000
00010000
00000000
,
00110000
00000000
00101000
00000000
00011000
00000000
00010000
00000010
,
00000000
00001000
00000000
00000001
00000010
00000000
00000100
00000000
,
00011000
00000000
00010010
00000000
00110000
00000000
00010000
01000000
,
00000000
00100000
00000000
10000000
01000000
00000000
00100000
00000000
,
01100000
00000000
00000000
00000000
;

//---------------dance-single - ----------------
#NOTES:
     dance-single:
     :
     Challenge:
     11:
     0.672381,0.557333,0.880000,0.026667,0.093333,285.000000,66.000000,2.000000,0.000000,0.000000,0.000000,0.672381,0.557333,0.880000,0.026667,0.093333,285.000000,66.000000,2.000000,0.000000,0.000000,0.000000:
// measure 0
0000
0000
0000
0000
,  // measure 1
0000
0000
0000
0000
0000
0000
0000
0100
,  // measure 2
0010
0010
0001
0010
0100
0000
1000
0001
,  // measure 3
0100
0000
0101
0000
1010
0000
0010
0100
,  // measure 4
0001
0001
0010
0001
0100
0010
1000
0001
,  // measure 5
1000
1000
0001
1000
0010
0100
0010
0000
,  // measure 6
0100
0100
0001
0100
0010
0000
1000
1000
,  // measure 7
0001
0001
0100
0010
1000
0000
0100
1000
,  // measure 8
0010
0010
0100
0001
1000
0100
1000
0000
,  // measure 9
0010
0000
1000
0000
0010
0000
1000
0000
0001
0000
0010
0000
0001
1000
0001
1000
,  // measure 10
0001
1000
1001
1000
1010
0000
1000
1001
,  // measure 11
1000
0000
1100
0000
0100
0000
0010
0000
0011
0000
0010
0000
0010
0000
0100
0010
,  // measure 12
0001
1000
1001
0001
0011
0000
0010
0110
,  // measure 13
0100
0000
1100
0000
1000
0000
0010
0000
0110
0000
0010
0000
0010
0000
1000
0010
,  // measure 14
0100
0001
0100
0101
0001
1000
1100
0100
,  // measure 15
0010
0001
0100
0101
0001
1000
1010
0000
,  // measure 16
1000
0001
0010
0110
0100
0010
0011
0001
,  // measure 17
1000
0010
0100
0110
0010
1000
1001
0000
,  // measure 18
0001
1000
0001
0011
0010
0100
0110
0100
,  // measure 19
1000
0000
0001
0000
0100
0000
0101
0000
0100
0000
0010
0000
0110
0000
0010
0001
,  // measure 20
0010
1000
0100
0101
0100
1000
1010
0010
,  // measure 21
0100
0000
0001
0000
0010
0000
1010
0000
0010
0000
0001
0000
0101
0000
0100
0010
,  // measure 22
1000
0001
1001
0001
0011
0000
0010
0110
,  // measure 23
0100
0000
1100
0000
1000
0000
0001
0000
0101
0000
0100
0000
0010
0000
1000
0010
,  // measure 24
0100
0010
0110
0010
1010
1000
0001
1001
,  // measure 25
0001
0000
0011
0000
0010
0000
0100
0000
1000
0000
1000
0000
0001
0000
0100
0001
,  // measure 26
0010
0100
1000
1100
1000
0001
0101
0001
,  // measure 27
1000
0000
0010
0000
1000
0000
1010
0000
1000
0000
0001
0000
0011
0000
0010
0100
,  // measure 28
1000
0001
2000
3010
1000
0002
0013
0001
,  // measure 29
0100
0000
0110
0000
0110
0000
0010
0000
1000
0000
0001
0000
0010
0000
0100
0010
,  // measure 30
0001
0100
0001
0101
0001
1000
1100
1000
,  // measure 31
0010
0000
0100
0000
0010
0000
0110
0000
0100
0000
0001
0000
1001
0000
1000
0100
,  // measure 32
0010
0010
0001
0101
0100
0000
0010
0000
,  // measure 33
1000
0000
1001
0000
1001
0000
1001
0000
1001
0000
1001
0000
1001
0000
1000
0100
,  // measure 34
0010
0001
0011
0001
1001
0000
1000
1010
,  // measure 35
0010
0000
0110
0000
0100
0000
0001
0000
1001
0000
0000
0000
0110
0000
0010
0001
,  // measure 36
0100
0010
1010
1000
1001
0000
0001
0011
,  // measure 37
0010
0000
0110
0000
0100
0000
1000
0000
1001
0000
0000
0000
0110
0000
0010
1000
,  // measure 38
0100
0000
0000
0000
;
