#TITLE:The Silliest of the Silly Ponies!;
#SUBTITLE:;
#ARTIST:NoizyBrony;
#TITLETRANSLIT:;
#SUBTITLETRANSLIT:;
#ARTISTTRANSLIT:;
#GENRE:Speed Electro;
#CREDIT:;
#BANNER:The Silliest of the Silly Ponies!.png;
#BACKGROUND:The Silliest of the Silly Ponies!-bg.png;
#LYRICSPATH:;
#CDTITLE:;
#MUSIC:The Silliest of the Silly Ponies!.mp3;
#OFFSET:0.000;
#SAMPLESTART:35.882;
#SAMPLELENGTH:15.000;
#SELECTABLE:YES;
#BPMS:0.000=174.000
;
#STOPS:
;
#BGCHANGES:;
#KEYSOUNDS:;
#ATTACKS:;

//---------------dance-single - ----------------
#NOTES:
     dance-single:
     :
     Beginner:
     3:
     0.131,0.133,0.055,0.022,0.000,77.000,5.000,2.000,0.000,0.000,0.000,0.131,0.133,0.055,0.022,0.000,77.000,5.000,2.000,0.000,0.000,0.000:
0010
0000
0010
0000
,
0010
0000
0010
0000
,
0001
0000
0000
0000
,
1000
0000
0000
0000
,
0001
0000
0000
0000
,
0001
0000
0000
0000
,
1000
0000
0000
0000
,
0001
0000
0000
0000
,
1000
0000
0000
0000
,
1000
0000
0000
0000
,
0010
0000
0000
0000
,
0100
0000
0000
0000
,
0010
0000
0000
0000
,
0010
0000
0000
0000
,
0100
0000
0000
0000
,
0010
0000
0000
0000
,
0100
0000
0000
0000
,
0100
0000
0000
0000
,
0001
0000
0000
0000
,
1000
0000
0000
0000
,
0010
0000
0000
0000
,
0100
0000
0000
0000
,
0001
0000
0000
0000
,
1000
0000
0000
0000
,
0100
0000
0000
0000
,
0010
0000
0000
0000
,
1001
0000
0000
0000
,
0000
0000
0000
0000
,
1000
0000
1000
0000
,
1000
0000
0000
0000
,
1001
0000
0000
0000
,
0000
0000
0000
0000
,
0001
0000
0001
0000
,
0001
0000
0000
0000
,
0110
0000
0000
0000
,
0000
0000
0000
0000
,
0010
0000
0010
0000
,
0010
0000
0000
0000
,
0110
0000
0000
0000
,
0000
0000
0000
0000
,
0100
0000
0100
0000
,
0100
0000
0000
0000
,
0010
0000
0010
0000
,
0010
0000
0010
0000
,
0001
0000
0001
0000
,
0001
0000
0001
0000
,
1000
0000
1000
0000
,
1000
0000
1000
0000
,
0100
0000
0100
0000
,
0100
0000
0100
0000
,
0010
0000
0010
0000
,
0010
0000
0010
0000
,
0100
0000
0100
0000
,
0100
0000
0100
0000
,
1000
0000
1000
0000
,
1000
0000
1000
0000
,
0001
0000
0001
0000
,
0001
0000
0001
0000
,
2002
0000
0000
0000
,
0000
0000
0000
0000
,
0000
0000
0000
0000
,
3003
0000
0000
0000
;

//---------------dance-single - ----------------
#NOTES:
     dance-single:
     :
     Hard:
     12:
     0.678,0.532,0.273,0.196,0.000,392.000,25.000,18.000,0.000,0.000,0.000,0.678,0.532,0.273,0.196,0.000,392.000,25.000,18.000,0.000,0.000,0.000: // measure 0
0010
1000
0010
1000
,  // measure 1
0001
0010
0001
0010
,  // measure 2
0100
1000
0001
0100
0010
1000
0001
0100
,  // measure 3
0010
1000
0001
0010
0100
1000
0001
0010
,  // measure 4
0100
1000
0010
1000
0100
0001
1000
0001
,  // measure 5
0100
1000
0010
1000
0100
0001
1000
0001
,  // measure 6
0100
1000
0010
0100
0010
1000
0100
0010
,  // measure 7
0001
0100
0010
0001
0010
0100
0001
0010
,  // measure 8
0100
1000
0001
1000
0100
0001
1000
0001
,  // measure 9
0100
0010
0001
0100
0010
1000
0001
0000
,  // measure 10
1000
0010
1000
0010
0100
0001
0100
0001
,  // measure 11
1000
1000
0001
1000
0001
0001
1000
0001
,  // measure 12
0010
0001
0010
0001
1000
0100
1000
0100
,  // measure 13
1000
1000
0001
0001
0010
0010
0100
0100
,  // measure 14
0010
0100
0010
0100
1000
0001
1000
0001
,  // measure 15
0010
0010
0100
0010
0100
0100
0010
0100
,  // measure 16
1000
0001
1000
0001
0010
0100
0010
0100
,  // measure 17
0010
0010
0100
0100
1000
1000
0001
0001
,  // measure 18
0100
0001
0100
0001
1000
0010
1000
0010
,  // measure 19
1000
1000
0001
1000
0001
0001
1000
0001
,  // measure 20
0010
0100
0010
0100
1000
0100
1000
0001
,  // measure 21
1000
1000
0001
0001
0010
0010
0100
0100
,  // measure 22
1000
0001
1000
0001
0010
0100
0010
0100
,  // measure 23
0010
0010
0100
0010
0100
0100
0010
0100
,  // measure 24
1000
0001
1000
0001
0010
0100
0010
0100
,  // measure 25
0010
0010
0100
0100
1000
1000
0001
0001
,  // measure 26
0101
1100
0201
1300
,  // measure 27
0001
0001
0010
1000
0001
0001
0100
1000
,  // measure 28
1001
0011
2010
3100
,  // measure 29
1000
1000
0100
0100
0010
0010
0001
0001
,  // measure 30
1001
0110
2010
3001
,  // measure 31
1000
1000
0100
0010
1000
1000
0010
0100
,  // measure 32
1100
0011
0201
0310
,  // measure 33
0010
1000
0100
0100
0001
1000
0010
0010
,  // measure 34
0110
1001
2100
3010
,  // measure 35
0100
0100
1000
0001
0010
0010
1000
0001
,  // measure 36
0011
1100
2010
3001
,  // measure 37
1000
1000
0010
0010
0100
0100
0001
0001
,  // measure 38
1001
1100
0021
1030
,  // measure 39
1000
1000
0010
0001
0100
0100
1000
0001
,  // measure 40
0011
1010
2100
3001
,  // measure 41
1000
0100
0010
0010
0100
1000
0001
0001
,  // measure 42
0100
0001
0200
0301
,  // measure 43
1000
0001
0100
0100
0001
1000
0100
0100
,  // measure 44
1000
0010
2000
3010
,  // measure 45
1000
1000
0001
0010
1000
1000
0001
0100
,  // measure 46
1000
0010
2000
3010
,  // measure 47
1000
0100
0001
0001
1000
0010
0001
0001
,  // measure 48
0100
0010
0200
0310
,  // measure 49
0100
0001
1000
1000
0100
0001
1000
1000
,  // measure 50
0010
0100
0020
0130
,  // measure 51
0010
0001
0100
0100
0010
1000
0100
0100
,  // measure 52
0010
0001
0020
0031
,  // measure 53
0010
1000
0001
0001
0100
1000
0001
0001
,  // measure 54
0100
0010
0200
0310
,  // measure 55
0100
0010
1000
1000
0100
0010
0001
0001
,  // measure 56
0100
0001
0200
0301
,  // measure 57
0100
1000
0001
0001
0010
1000
0001
0001
,  // measure 58
2002
0000
0000
0000
,  // measure 59
0000
0000
0000
0000
,  // measure 60
0000
0000
0000
0000
,  // measure 61
3003
0000
0000
0000
;

//---------------dance-single - Blank----------------
#NOTES:
     dance-single:
     Blank:
     Medium:
     9:
     0.464,0.532,0.524,0.229,0.000,229.000,48.000,21.000,0.000,0.000,0.000,0.464,0.532,0.524,0.229,0.000,229.000,48.000,21.000,0.000,0.000,0.000:
0000
0000
0000
0000
,
0000
0000
0000
0000
,
0010
0001
0100
0010
,
1000
0000
0100
0000
1000
0001
0100
0000
,
0010
0100
0001
0010
,
0100
0000
1000
0000
0010
0100
0010
0000
,
1000
0100
0010
0001
,
1000
0000
0010
0000
0100
0001
0100
0000
,
0001
0010
0100
1000
,
0001
0000
0100
0000
0010
1000
0010
0000
,
1000
0000
0100
0000
0010
0001
0100
0000
,
0010
0000
0100
0000
0001
1000
0100
0000
,
0010
0000
0001
0000
1000
0010
0100
0000
,
0001
0001
1000
1000
,
0100
0000
0010
0000
0100
1000
0010
0000
,
0100
0000
0001
0000
0010
0100
1000
0000
,
0100
0000
0010
0000
0001
0100
0010
0000
,
1000
1000
0001
0001
,
1000
0000
0010
0000
0001
0010
1000
0000
,
0100
0000
0010
0000
0001
0100
0010
0000
,
0100
0000
0001
0000
0010
0100
0010
0000
,
0100
1000
0010
0100
,
0010
0000
1000
0000
0100
0010
0100
0000
,
1000
0000
0001
0000
0100
0010
0100
0000
,
0001
0000
0010
0000
0100
1000
0100
0000
,
0010
0001
0100
0001
,
0011
0011
0110
0110
,
1100
1100
1001
1001
,
0101
0101
0110
0110
,
0010
1000
0100
0000
0010
0001
0100
0000
,
0101
0101
1100
1100
,
1010
1010
0110
0110
,
0101
0101
1001
1001
,
1000
0100
0001
0000
0001
0100
1000
0000
,
1100
1100
1001
1001
,
0101
0101
0110
0110
,
1010
1010
1001
1001
,
0001
0010
1000
0000
1000
0010
0001
0000
,
0011
0011
0101
0101
,
0110
0110
1010
1010
,
1001
1001
0011
0011
,
0001
0100
0010
0100
0001
0000
0010
0000
,
0200
0000
2300
0000
,
3020
0000
0230
0000
,
0302
0000
2003
0000
,
3200
0000
0302
0000
,
0203
0000
0320
0000
,
0032
0000
2003
0000
,
3020
0000
0230
0000
,
0302
0000
2003
0000
,
3100
1000
0100
1000
,
0001
0100
0001
0100
,
0010
1000
0010
1000
,
0002
0000
0023
0000
,
0031
0100
0001
0100
,
0010
1000
0010
1000
,
0001
0010
0001
0010
,
0200
0000
2300
0000
,
3002
0000
0000
0000
,
0000
0000
0000
0000
,
0000
0000
0000
0000
,
0003
0000
0000
0000
;

//---------------dance-single - Blank----------------
#NOTES:
     dance-single:
     Blank:
     Easy:
     5:
     0.277,0.266,0.011,0.196,0.000,159.000,1.000,18.000,0.000,0.000,0.000,0.277,0.266,0.011,0.196,0.000,159.000,1.000,18.000,0.000,0.000,0.000:
0000
0000
0000
0000
,
0000
0000
0000
0000
,
1000
0000
0010
0000
,
0100
0000
0001
0000
,
0010
0000
0100
0000
,
1000
0000
0010
0000
,
0100
0000
0001
0000
,
0010
0000
0100
0000
,
0010
0000
0001
0000
,
1000
0000
0010
0000
,
0100
0000
0001
0000
,
1000
0100
1000
0000
,
0010
0000
0100
0000
,
0001
0010
0001
0001
,
0010
0000
0100
0000
,
1000
0001
0100
0000
,
0010
0000
1000
0000
,
0100
0010
0100
0100
,
0010
0000
0001
0000
,
0100
1000
0100
0010
,
1000
0000
0001
0000
,
0010
0001
1000
1000
,
0001
0000
0010
0000
,
0100
1000
0010
0100
,
0010
0000
1000
0000
,
0001
0010
0100
0100
,
0010
0010
0001
0001
,
0100
0100
1000
1000
,
0100
0100
0001
0001
,
0010
0100
1000
0001
,
0100
0100
0010
0010
,
1000
1000
0001
0001
,
0010
0010
1000
1000
,
0010
0100
1000
0010
,
0100
0100
0001
0001
,
0010
0010
1000
1000
,
0100
0100
0010
0010
,
1000
0100
0010
0001
,
0100
0100
1000
1000
,
0010
0010
0001
0001
,
0100
0100
0010
0010
,
1000
0100
0010
0001
,
2000
0000
3010
0000
,
0200
0000
0301
0000
,
2000
0000
3100
0000
,
0020
0000
0031
0000
,
0200
0000
0310
0000
,
0020
0000
0130
0000
,
0002
0000
1003
0000
,
2000
0000
3001
0000
,
0020
0000
1030
0000
,
0002
0000
0103
0000
,
2000
0000
3100
0000
,
0020
0000
0031
0000
,
0200
0000
0310
0000
,
2000
0000
3001
0000
,
0020
0000
0130
0000
,
2000
0000
3001
0000
,
2002
0000
0000
0000
,
0000
0000
0000
0000
,
0000
0000
0000
0000
,
3003
0000
0000
0000
;
