#TITLE:The Perfect Stallion;
#SUBTITLE:;
#ARTIST:♪♪♪♪♪;
#TITLETRANSLIT:;
#SUBTITLETRANSLIT:;
#ARTISTTRANSLIT:;
#GENRE:My Little Pony;
#CREDIT:;
#BANNER:The Perfect Stallion.png;
#BACKGROUND:;
#LYRICSPATH:;
#CDTITLE:;
#MUSIC:The Perfect Stallion.mp3;
#OFFSET:-4.000000;
#SAMPLESTART:22.613001;
#SAMPLELENGTH:15.000000;
#SELECTABLE:YES;
#DISPLAYBPM:62.000000:124.000000;
#BPMS:0.000000=124.000000
,4.000000=120.000031
,6.000000=124.000038
,36.000000=124.000038
,70.000000=62.000004
,72.000000=124.999985
,74.000000=123.999985
,108.000000=62.000000
,110.000000=124.999985
,112.000000=124.000000
,140.000000=62.000000
,142.000000=124.000000
,168.000000=124.999985
,172.000000=124.000008
;
#STOPS:
;
#BGCHANGES:-8.500=The Perfect Stallion.avi=1.000=0=0=0=StretchNoLoop====,
99999=-nosongbg-=1.000=0=0=0 // don't automatically add -songbackground-
;
#KEYSOUNDS:;
#ATTACKS:;

//---------------dance-single - Blank----------------
#NOTES:
     dance-single:
     Blank:
     Hard:
     8:
     0.362425,0.377847,0.053978,0.291482,0.016193,203.000000,5.000000,27.000000,0.000000,0.000000,0.000000,0.362425,0.377847,0.053978,0.291482,0.016193,203.000000,5.000000,27.000000,0.000000,0.000000,0.000000:
// measure 0
0100
0001
1000
0100
1000
0000
0010
0000
,  // measure 1
0200
0000
0001
0000
1000
0000
0310
1000
,  // measure 2
0100
0000
0010
0001
1000
0000
0010
0000
,  // measure 3
0100
0002
0010
0000
1000
0000
0103
0010
,  // measure 4
0100
0001
1000
0100
0010
0000
0001
0000
,  // measure 5
0200
1000
0010
0301
,  // measure 6
0010
0100
1000
0100
0010
0000
0001
0000
,  // measure 7
2000
0000
3020
0000
,  // measure 8
0230
0000
0000
0000
,  // measure 9
0020
0000
0000
0000
0330
1000
0100
1000
,  // measure 10
0001
0000
0000
0100
0010
0000
0100
0000
,  // measure 11
0002
0000
0010
0000
0013
0001
0100
0010
,  // measure 12
1000
0000
0001
0000
0100
0010
0100
0000
,  // measure 13
0001
1000
0000
1001
0000
1000
0010
0100
,  // measure 14
0001
0010
0000
0010
0001
1000
0010
0000
,  // measure 15
0110
0000
0000
0000
0000
0000
0000
0000
0000
0200
0000
0000
0000
0000
0000
0000
0000
0000
0000
0000
0020
0300
0000
0000
0000
0000
0000
0000
0000
0000
0000
0000
0000
0000
0000
0000
0030
0000
0000
0000
0000
0000
1000
0000
0000
0000
0000
0000
,  // measure 16
0100
0001
0100
1000
0001
0100
0000
0010
,  // measure 17
2000
0000
3002
0000
0023
0000
0000
0030
,  // measure 18
0000
0000
0000
0000
0000
0000
0100
1000
,  // measure 19
0100
1000
0000
1000
0001
0000
0100
0000
,  // measure 20
0010
0100
0001
0000
0010
0000
0100
1000
,  // measure 21
0100
0000
0010
0001
0200
0000
0320
0000
,  // measure 22
1030
0001
1000
0000
0010
0000
0100
0001
,  // measure 23
0100
0000
0010
1000
0010
0000
1000
0001
,  // measure 24
2000
0000
3200
0000
0310
0001
0000
0100
,  // measure 25
0010
0000
0100
0001
0010
0000
0100
0000
,  // measure 26
2000
3002
0203
0320
,  // measure 27
0030
0000
0000
0000
,  // measure 28
1000
0100
1000
0001
0100
0000
0010
0000
,  // measure 29
0100
0002
0000
0000
0000
0000
0013
0000
,  // measure 30
0100
1000
0001
0100
0010
0000
0100
0000
,  // measure 31
0001
2000
0000
0000
0000
0000
3000
0010
,  // measure 32
0100
0001
1000
0100
1000
0010
0100
0001
,  // measure 33
0010
0100
1000
0001
0100
0010
0100
0001
,  // measure 34
0010
0000
0100
0000
1000
0000
0001
0000
0100
0010
0000
0000
1001
0000
0000
0000
,  // measure 35
0000
0000
0000
0000
0000
0000
0000
1000
,  // measure 36
0100
1000
0100
0010
0001
0000
0010
0000
,  // measure 37
0110
0000
0000
0000
0000
0000
0000
0010
,  // measure 38
0001
0100
0010
1000
0002
0000
0203
0000
,  // measure 39
0310
0000
1000
0000
0100
0000
0010
0001
,  // measure 40
0100
0010
1000
0100
2000
0000
3002
0000
,  // measure 41
0103
0010
0100
0000
0001
0000
1000
0000
,  // measure 42
0000
0000
0000
0000
,  // measure 43
0000
0000
0000
1001
;

//---------------dance-single - Blank----------------
#NOTES:
     dance-single:
     Blank:
     Beginner:
     1:
     0.053978,0.070846,0.010796,0.010796,0.000000,33.000000,1.000000,1.000000,0.000000,0.000000,0.000000,0.053978,0.070846,0.010796,0.010796,0.000000,33.000000,1.000000,1.000000,0.000000,0.000000,0.000000:
1000
0000
0000
0000
,
0000
0000
0000
0000
,
0001
0000
0000
0000
,
0000
0000
0000
0000
,
0100
0000
0000
0000
,
0010
0000
0000
0000
,
1000
0000
0000
0000
,
0002
0000
0000
0000
,
0003
0000
0000
0000
,
0000
0000
0000
0000
,
1000
0000
0000
0000
,
0010
0000
0000
0000
,
0100
0000
0000
0000
,
0001
0000
0000
0000
,
0010
0000
0000
0000
,
0100
0000
0000
0000
,
1000
0000
0000
0000
,
0001
0000
0000
0000
,
0000
0000
0000
0000
,
0100
0000
0000
0000
,
0010
0000
0000
0000
,
0100
0000
0000
0000
,
0001
0000
0000
0000
,
1000
0000
0000
0000
,
0010
0000
0000
0000
,
0100
0000
0000
0000
,
0010
0000
0000
0000
,
0000
0000
0000
0000
,
1000
0000
0000
0000
,
0000
0000
0000
0000
,
0001
0000
0000
0000
,
0000
0000
0000
0000
,
0010
0000
0000
0000
,
0100
0000
0000
0000
,
0010
0000
0000
0000
,
0000
0000
0000
0000
,
0000
0000
0000
0000
,
0110
0000
0000
0000
,
0001
0000
0000
0000
,
1000
0000
0000
0000
,
0010
0000
0000
0000
,
0100
0000
0000
0000
,
0000
0000
0000
0000
,
0000
0000
0000
0010
;

//---------------dance-single - Blank----------------
#NOTES:
     dance-single:
     Blank:
     Easy:
     3:
     0.092534,0.141693,0.021591,0.010796,0.000000,57.000000,2.000000,1.000000,0.000000,0.000000,0.000000,0.092534,0.141693,0.021591,0.010796,0.000000,57.000000,2.000000,1.000000,0.000000,0.000000,0.000000:
1000
0000
0000
0000
,
0100
0000
0000
0000
,
0010
0000
0000
0000
,
0001
0000
0000
0000
,
1000
0000
0000
0000
,
0010
0000
0000
0000
,
0001
0000
0000
0000
,
0100
0000
0000
0000
,
2000
0000
0000
0000
,
3000
0000
0000
0000
,
0010
0000
0000
0000
,
0100
0000
0000
0000
,
0010
0000
0010
0000
,
0010
0000
0000
0000
,
1000
0000
0000
0000
,
0001
0000
0000
0000
,
1000
0000
1000
0000
,
1000
1000
1000
0000
,
0000
0000
0000
0000
,
0100
0000
0000
0000
,
0010
0000
0000
0000
,
0100
0000
0010
0000
,
0100
0000
0000
0000
,
1000
0000
0000
0000
,
0001
0000
0000
0000
,
1000
0000
0001
0000
,
1000
1000
1000
1000
,
0000
0000
0000
0000
,
0010
0000
0000
0000
,
0100
0000
0000
0000
,
0001
0000
0000
0000
,
0010
0000
0000
0000
,
0100
0000
0100
0000
,
1000
0000
1000
0000
,
0001
0000
0001
0001
,
0000
0000
0000
0000
,
0000
0000
0000
0000
,
0110
0000
0000
0000
,
0010
0000
1000
0000
,
0010
0000
0010
0000
,
0100
0000
0001
0000
,
0100
0100
0100
0100
,
0000
0000
0000
0000
,
0000
0000
0000
0110
;

//---------------dance-single - Blank----------------
#NOTES:
     dance-single:
     Blank:
     Medium:
     5:
     0.209744,0.212539,0.043183,0.107956,0.000000,122.000000,4.000000,10.000000,0.000000,0.000000,0.000000,0.209744,0.212539,0.043183,0.107956,0.000000,122.000000,4.000000,10.000000,0.000000,0.000000,0.000000:
// measure 0
0010
1000
0001
0001
,  // measure 1
0020
0000
0000
0130
,  // measure 2
1000
0001
0001
0100
,  // measure 3
0002
0000
0000
0013
,  // measure 4
0100
1000
0010
0010
,  // measure 5
2000
0000
0000
3000
,  // measure 6
0100
0010
0001
0100
,  // measure 7
0020
0030
2000
0000
,  // measure 8
0002
0000
0000
0000
,  // measure 9
3003
0000
0000
0010
,  // measure 10
0010
0000
0001
0100
,  // measure 11
0010
1000
1000
0100
,  // measure 12
0010
0001
1000
0010
,  // measure 13
0100
0010
1001
0000
,  // measure 14
0100
0010
0100
1000
,  // measure 15
0001
0100
0010
0000
,  // measure 16
0010
1000
0100
0010
,  // measure 17
0001
1000
0020
0000
,  // measure 18
0030
0000
0000
0000
,  // measure 19
0100
0000
0001
0100
,  // measure 20
0100
0010
1000
0100
,  // measure 21
0010
0000
0100
1000
,  // measure 22
0001
0100
0100
0001
,  // measure 23
0010
0000
0100
0000
,  // measure 24
1000
0001
0001
0000
,  // measure 25
0100
0010
1000
0100
,  // measure 26
0010
0001
0100
0020
,  // measure 27
0000
0000
0030
0000
,  // measure 28
1000
0000
0100
0000
,  // measure 29
0010
0000
0001
0000
,  // measure 30
0100
0000
0010
0000
,  // measure 31
1000
0000
0001
0000
,  // measure 32
0010
1000
1000
0010
,  // measure 33
0001
0100
0100
1000
,  // measure 34
0010
0001
0100
0110
,  // measure 35
0000
0000
0000
0000
,  // measure 36
0010
1000
0001
0100
,  // measure 37
0110
0000
0000
0000
,  // measure 38
0010
1000
0001
0001
,  // measure 39
0020
0100
0100
0130
,  // measure 40
1000
0001
0100
0010
,  // measure 41
2000
0001
0001
3001
,  // measure 42
0000
0000
0000
0000
,  // measure 43
0000
0000
0000
1001
;

//---------------dance-double - Blank----------------
#NOTES:
     dance-double:
     Blank:
     Easy:
     3:
     0.138801,0.165308,0.021591,0.064774,0.000000,82.000000,2.000000,6.000000,0.000000,0.000000,0.000000,0.138801,0.165308,0.021591,0.064774,0.000000,82.000000,2.000000,6.000000,0.000000,0.000000,0.000000:
10000000
00000000
00100000
00000000
,
02000000
00000000
03000000
00000000
,
00010000
00000000
00100000
00000000
,
00002000
00000000
00003000
00000000
,
00010000
00000000
00000010
00000000
,
00002000
00000000
00003000
00000000
,
00000100
00000000
00000010
00000000
,
00000002
00000000
00002000
00000000
,
00000000
00000000
00000000
00000000
,
00003003
00000000
00000000
00000010
,
00000010
00000000
00000100
00000001
,
00001000
00000000
00000000
00000100
,
00010000
00001000
00001000
01000000
,
00100000
00000000
00000000
10000000
,
01000000
00000000
00100000
00010000
,
01000000
00000000
00000000
00100000
,
10000000
01000000
00100000
00000000
,
00010000
01000000
00002000
00000000
,
00003000
00000000
00000000
00000000
,
00010000
00000000
00000100
00010000
,
00000100
00000000
00001000
00000000
,
00000010
00000000
00000100
00000001
,
00000100
00000000
00000010
00000000
,
00001000
00000000
00000100
00000000
,
00010000
00000000
00001000
00000000
,
01000000
00000000
00010000
00000000
,
00100000
01000000
10000000
00010000
,
00000000
00000000
00000000
00000000
,
10000000
00000000
00000000
00000000
,
00100000
00000000
00000000
00000000
,
00010000
00000000
00000000
00000000
,
00001000
00000000
00000000
00000000
,
00000010
00000000
00000100
00000000
,
00001000
00000000
00000001
00000000
,
00000100
00000000
00000010
00000010
,
00000000
00000000
00000000
00000000
,
00010000
00000000
00001000
00000000
,
00011000
00000000
00000000
00000000
,
00010000
00000000
00001000
01000000
,
00100000
00000000
10000000
00000000
,
01000000
00000000
00100000
00000000
,
00010000
01000000
00001000
00010000
,
00000000
00000000
00000000
00000000
,
00000000
00000000
00000000
00011000
;

//---------------dance-double - Blank----------------
#NOTES:
     dance-double:
     Blank:
     Medium:
     5:
     0.212828,0.188924,0.032387,0.107956,0.000000,125.000000,3.000000,10.000000,0.000000,0.000000,0.000000,0.212828,0.188924,0.032387,0.107956,0.000000,125.000000,3.000000,10.000000,0.000000,0.000000,0.000000:
00010000
00000000
00100000
01000000
,
00200000
00000000
00310000
01000000
,
00100000
01000000
00001000
00010000
,
00000100
00000000
00000100
00001000
,
00000010
00000100
00000001
00000010
,
00000200
00000000
00001300
00000000
,
00000010
00000100
00000001
00000010
,
00000200
00000000
00020300
00000000
,
00002000
00000000
00000000
00000000
,
00033000
00000000
00000000
00001000
,
00100000
00000000
00010000
01000000
,
00100000
10000000
10000000
01000000
,
00100000
00010000
01000000
01000000
,
00010000
00000000
00100000
00000000
,
00100000
00000000
00001000
00000000
,
00010000
00000100
00000100
00000000
,
00001000
00000010
00000100
00000000
,
00000001
00000010
00000200
00000000
,
00000300
00000000
00000000
00000000
,
00000100
00001000
00000001
00001000
,
00000010
00010000
00010000
00001000
,
00100000
00010000
01000000
00100000
,
10000000
00010000
00010000
00100000
,
01000000
00000000
00010000
00000000
,
00001000
00001000
00000100
00000000
,
00000100
00000010
00001000
00000001
,
00000010
00000100
00020000
00002000
,
00000000
00000000
00033000
00000000
,
01000000
00010000
00100000
01000000
,
20000000
00000000
00000000
30100000
,
00010000
00100000
01000000
00001000
,
00020000
00000000
00000000
00000000
,
00031000
00010000
00000100
00001000
,
00001000
00000010
00000100
00000001
,
00000001
00000010
00000100
00001100
,
00000000
00000000
00000000
00000000
,
00000010
00001000
00000100
00010000
,
00011000
00000000
00000000
00000000
,
00001000
01000000
00100000
01000000
,
00010000
00100000
01000000
10000000
,
00010000
01000000
00001000
00010000
,
00000100
00000010
00000001
00001000
,
00000000
00000000
00000000
00000000
,
00000000
00000000
00000000
00011000
;

//---------------dance-double - Blank----------------
#NOTES:
     dance-double:
     Blank:
     Hard:
     8:
     0.359341,0.377847,0.032387,0.140343,0.016193,217.000000,3.000000,13.000000,0.000000,0.000000,0.000000,0.359341,0.377847,0.032387,0.140343,0.016193,217.000000,3.000000,13.000000,0.000000,0.000000,0.000000:
00010000
00100000
00001000
00010000
00000010
00000000
00001000
00000000
,
00000100
00000000
00000010
00000000
00000001
00000000
00000010
00000100
,
00001000
00000000
00000001
00000100
00000010
00000000
00001000
00000000
,
00000100
00010000
00001000
00000000
01000000
00000000
00010000
00100000
,
01000000
10000000
00100000
01000000
00010000
00000000
00100000
00000000
,
01000000
10000000
00100000
00010000
,
00100000
01000000
00001000
00010000
00000100
00000000
00000010
00000000
,
00002000
00000000
00003002
00000000
,
00000203
00000000
00000000
00000000
,
00000020
00000000
00000000
00000000
00000330
00000001
00000100
00000010
,
00001000
00000000
00000100
00010000
00001000
00000000
01000000
00000000
,
00010000
00100000
01000000
10000000
00100000
01000000
00010000
00100000
,
01000000
00000000
10000000
00000000
00010000
01000000
00001000
00000000
,
00010000
00000100
00000000
00001100
00000000
00000100
00001000
00000010
,
00000100
00000001
00000000
00000001
00000010
00000100
00001000
00000000
,
00000010
00000000
00000000
00000000
00000000
00000000
00000000
00000000
00000000
00000100
00000000
00000000
00000000
00000000
00000000
00000000
00000000
00000000
00000000
00000000
00000010
00000000
00000000
00000000
00000000
00000000
00000000
00000000
00000000
00000000
00000000
00000000
00000000
00000000
00000000
00000000
00001000
00000000
00000000
00000000
00000000
00000000
00000100
00000000
00000000
00000000
00000000
00000000
,
00001000
00000001
00000100
00000010
00001000
00000100
00000000
00010000
,
00001000
01000000
00020000
00000000
,
00030000
00000000
00000000
00000000
00000000
00000000
00010000
00100000
,
01000000
10000000
00000000
10000000
00010000
00000000
01000000
00000000
,
00100000
00010000
00001000
00000000
00010000
00000000
00000100
00001000
,
00000010
00000000
00000100
00000001
00000010
00000000
00000100
00000000
,
00001000
00000010
00000100
00000000
00001000
00000000
00010000
00001000
,
01000000
00000000
00010000
00100000
01000000
00000000
10000000
00010000
,
01000000
00000000
00100000
00000000
10000000
01000000
00100000
00000000
,
00010000
00000000
01000000
00100000
01000000
00000000
00010000
00000000
,
00200000
00302000
00023000
00030200
,
00000000
00000000
00000300
00000000
,
00001000
00000010
00000100
00000001
00000010
00000000
00000100
00000000
,
00001000
00000001
00000100
00000000
00000010
00001000
00000100
00000000
,
00010000
00001000
01000000
00010000
00100000
00000000
01000000
00000000
,
10000000
00020000
00000000
00000000
00000000
00000000
00030000
01000000
,
00100000
10000000
01000000
10000000
00010000
01000000
00100000
01000000
,
00010000
00100000
00001000
00010000
00000100
00001000
00000010
00010000
,
00000100
00000000
00001000
00000000
00000001
00000000
00000100
00000000
00000010
00000100
00000000
00000000
00001001
00000000
00000000
00000000
,
00000000
00000000
00000000
00000000
00000000
00000000
00000000
00000001
,
00000100
00000010
00010000
00001000
02000000
00000000
03200000
00000000
,
10300000
00000000
00000000
02000000
00000000
00000000
03000000
10000000
,
00100000
01000000
00010000
00100000
00001000
00000000
00010000
00000000
,
00001000
00010000
00000100
00001000
00000010
00000100
00000001
00000010
,
00000100
00001000
00000010
00010000
00001000
00000000
01000000
00000000
,
00010000
00100000
01000000
10000000
00010000
01000000
00001000
00010000
,
00000000
00000000
00000000
00000000
,
00000000
00000000
00000000
00011000
;
