#VERSION:0.81;
#TITLE:The Flim Flam Brothers (Locomotion Mix ft. Rina);
#SUBTITLE:;
#ARTIST:Eurobeat Brony;
#TITLETRANSLIT:;
#SUBTITLETRANSLIT:;
#ARTISTTRANSLIT:;
#GENRE:Eurobeat;
#ORIGIN:;
#CREDIT:;
#BANNER:;
#BACKGROUND:;
#PREVIEWVID:;
#JACKET:;
#CDIMAGE:;
#DISCIMAGE:;
#LYRICSPATH:;
#CDTITLE:;
#MUSIC:The Flim Flam Brothers (Locomotion Mix ft. Rina).mp3;
#OFFSET:-0.069;
#SAMPLESTART:40.220;
#SAMPLELENGTH:15.000;
#SELECTABLE:YES;
#BPMS:0.000=147.000;
#STOPS:;
#DELAYS:;
#WARPS:;
#TIMESIGNATURES:0.000=4=4;
#TICKCOUNTS:0.000=4;
#COMBOS:0.000=1;
#SPEEDS:0.000=1.000=0.000=0;
#SCROLLS:0.000=1.000;
#FAKES:;
#LABELS:0.000=Song Start;
#BGCHANGES:;
#KEYSOUNDS:;
#ATTACKS:
;

//---------------dance-single - ----------------
#NOTEDATA:;
#CHARTNAME:;
#STEPSTYPE:dance-single;
#DESCRIPTION:;
#CHARTSTYLE:;
#DIFFICULTY:Hard;
#METER:13;
#RADARVALUES:0.676,0.665,0.254,0.546,0.371,403.000,26.000,56.000,0.000,0.000,0.000,0.000,0.000,0.676,0.665,0.254,0.546,0.371,403.000,26.000,56.000,0.000,0.000,0.000,0.000,0.000;
#CREDIT:;
#NOTES:
0000
0000
0000
0000
,
0000
0000
0000
0000
,
0000
0000
0000
0000
,
0000
0000
0000
0000
,
1000
0100
0000
0001
0100
0000
1001
0000
,
1000
0010
0001
0010
0100
0000
1001
0000
,
0001
0010
0000
1000
0010
0000
1001
0000
,
0001
0100
1000
0100
0010
0000
0110
0000
,
2002
0000
0000
3003
,
0001
0000
0000
0001
0000
0100
0010
0000
0100
0000
0002
0000
0000
0000
1003
0000
,
0100
0000
0000
0100
0000
1000
0010
0000
0100
0000
0001
0000
1000
0010
1000
0010
,
0100
0000
0000
0100
0000
0001
0010
0000
0100
0000
2000
0000
0000
0000
3001
0000
,
1000
0010
1000
0000
0001
0010
0001
0000
2200
0000
3300
0000
0202
0000
0303
0000
,
0010
0000
0000
0010
0000
0100
0001
0000
0010
0000
0200
0000
0000
0000
1300
0000
,
0001
0010
0001
0000
1000
0100
1000
0000
0022
0000
0033
0000
0202
0000
0303
0000
,
0100
0000
0000
0100
0000
0010
1000
0000
0001
0000
0100
0000
1000
0000
0100
0000
,
0020
0000
0000
0000
1030
0000
0000
0000
0001
0000
1000
0000
0100
0010
0100
0010
,
0001
0000
1000
0000
0100
0000
1000
0001
0000
0000
0100
0000
0010
1000
0010
1000
,
0200
0000
1000
0000
0310
0000
0100
1000
,
0010
1000
0010
0000
0100
0000
0100
0000
0001
0010
0001
0010
0100
1000
0100
1000
,
0002
0000
0000
0000
0100
0000
0000
0000
1003
0000
0001
0100
0001
0000
1000
0100
,
1000
0000
0010
0000
0100
0010
0100
0000
0010
0000
0100
0000
0001
0100
0001
0000
,
0020
0000
0000
0000
0100
0000
0000
0000
1030
0000
0010
0100
0010
0000
0100
0000
,
1000
0000
0001
0100
0001
0000
0100
0000
0010
1000
0010
1000
0001
0000
0010
0000
,
0200
0000
0010
0000
0310
0100
1000
0010
,
1000
0000
0001
0000
1000
0100
0000
1000
0000
0000
0010
0000
0100
0000
0001
0000
,
0100
0000
0010
0000
0100
0001
0000
0020
0000
0000
0031
0000
0000
0000
1000
0000
,
1000
0000
0001
0000
0001
0000
1000
0010
1000
0000
0001
0010
0001
0000
1000
0000
,
0100
0002
0100
0000
0103
0000
0001
0100
,
1000
0000
1000
0010
0011
0000
1010
0000
,
2002
0000
0000
3003
,
1000
0000
0000
1000
0000
0010
0100
0000
0010
0000
2000
0000
0000
0000
3001
0000
,
0010
0000
0000
0010
0000
0001
0100
0000
0010
0000
1000
0000
0001
0100
0001
0100
,
0010
0000
0000
0010
0000
1000
0100
0000
0010
0000
0002
0000
0000
0000
1003
0000
,
0001
0100
0001
0000
1000
0100
1000
0000
0022
0000
0033
0000
2020
0000
3030
0000
,
0100
0000
0000
0100
0000
0010
1000
0000
0100
0000
0020
0000
0000
0000
0031
0000
,
1000
0100
1000
0000
0001
0010
0001
0000
2200
0000
3300
0000
2020
0000
3030
0000
,
0010
0000
0000
0010
0000
0100
0001
0000
1000
0000
0010
0000
0001
0000
0010
0000
,
0200
0000
0301
0000
2000
0000
3001
0100
,
0010
0000
0000
0010
1000
0000
0100
0000
1000
0000
0001
0010
0001
0000
0100
0000
,
0010
0000
1000
0000
0002
0000
0000
0000
1003
0000
0001
0000
0010
0000
0100
1000
,
0100
0000
0010
0000
0001
1000
0001
0000
0100
0000
0010
0000
1000
0010
0000
0010
,
0200
0000
0000
0000
0001
0000
0000
0000
0310
0000
0100
0000
0001
0010
0001
0000
,
1000
0010
0001
0010
1000
0001
0000
1000
,
0001
0000
0100
0000
1000
0100
1000
0000
0100
0000
0001
0000
0000
0000
1000
0000
,
0001
0010
0001
0000
0010
0000
0100
0000
1000
0100
1000
0100
0010
0000
0001
0000
,
2000
0000
3002
0000
0000
0100
0100
0103
,
0001
0000
1000
0000
0001
0010
0000
0001
0000
0000
0100
0000
0010
0000
1000
0000
,
0010
0000
0100
0000
0010
1000
0000
0200
0000
0000
1300
0000
0000
0000
0001
0000
,
0001
0000
1000
0000
1000
0000
0001
0100
0001
0000
1000
0100
1000
0000
0001
0000
,
0010
2000
0010
0000
3010
0000
1000
0010
,
0001
0000
0001
0100
1100
0000
0101
0000
,
0000
2002
0000
0000
0000
0000
0000
0000
0000
0000
0000
0000
0000
0000
0000
0000
0000
0000
0000
0000
0000
0000
0000
0000
0000
0000
0000
0000
0000
0000
0000
0000
0000
0000
0000
0000
0000
0000
0000
0000
0000
0000
0000
0000
0000
0000
0000
0000
0000
0000
0000
0000
0000
0000
0000
0000
0000
0000
0000
0000
0000
0000
0000
0000
0000
0000
0000
0000
0000
0000
0000
0000
0000
0000
0000
0000
0000
0000
0000
0000
0000
0000
0000
0000
0000
0000
0000
0000
0000
0000
0000
0000
0000
0000
0000
0000
0000
0000
0000
0000
0000
0000
0000
0000
0000
0000
0000
0000
0000
0000
0000
0000
0000
0000
0000
0000
0000
0000
0000
0000
0000
0000
0000
0000
0000
0000
0000
0000
0000
0000
0000
0000
0000
0000
0000
0000
0000
0000
0000
0000
0000
0000
0000
0000
3003
0000
0000
0000
0000
0000
0000
0000
0000
0000
0000
0000
0000
0000
0000
0000
0000
0000
0000
0000
0000
0000
0000
0000
0000
0000
0000
0000
0000
0000
0000
0000
0000
0000
0000
0000
0000
0000
0000
0000
0000
0000
0000
0000
0000
0000
0000
0000
,
2010
0000
0000
0000
3001
0000
0100
0001
0100
0000
0010
0000
0000
0000
2000
0000
,
0000
0001
0001
3001
0101
0000
1100
0000
,
1002
0000
0010
0010
0010
0010
0000
0100
,
0000
1000
1000
1003
0011
0000
1010
0000
,
1000
0002
0000
0103
0020
0000
1030
0002
,
0000
0203
0000
2300
0000
0100
0100
3100
,
0002
0000
0010
0010
0010
0013
0000
0200
,
0000
0000
1000
0000
1000
0000
1300
0000
0002
0000
0000
0000
1003
0001
1000
0000
,
0220
0000
0000
0000
,
0330
0000
0000
0000
;

//---------------dance-single - ----------------
#NOTEDATA:;
#CHARTNAME:;
#STEPSTYPE:dance-single;
#DESCRIPTION:;
#CHARTSTYLE:;
#DIFFICULTY:Beginner;
#METER:2;
#RADARVALUES:0.107,0.119,0.059,0.000,0.000,71.000,6.000,0.000,0.000,0.000,0.000,0.000,0.000,0.107,0.119,0.059,0.000,0.000,71.000,6.000,0.000,0.000,0.000,0.000,0.000,0.000;
#CREDIT:;
#NOTES:
// measure 0
0000
0000
0000
0000
,  // measure 1
0000
0000
0000
0000
,  // measure 2
0000
0000
0000
0000
,  // measure 3
0000
0000
0000
0000
,  // measure 4
1000
0000
0000
0000
,  // measure 5
0100
0000
0000
0000
,  // measure 6
0010
0000
0000
0000
,  // measure 7
0001
0000
0000
0000
,  // measure 8
1001
0000
0000
0000
,  // measure 9
0001
0000
0000
0000
,  // measure 10
0100
0000
0000
0000
,  // measure 11
0010
0000
0000
0000
,  // measure 12
1000
0000
1000
0000
,  // measure 13
1000
0000
0000
0000
,  // measure 14
0001
0000
0000
0000
,  // measure 15
0010
0000
0000
0000
,  // measure 16
0100
0000
0100
0000
,  // measure 17
0100
0000
0000
0000
,  // measure 18
1000
0000
0000
0000
,  // measure 19
0001
0000
0000
0000
,  // measure 20
0010
0000
0000
0000
,  // measure 21
0001
0000
0000
0000
,  // measure 22
0100
0000
0000
0000
,  // measure 23
0010
0000
0000
0000
,  // measure 24
1001
0000
0000
0000
,  // measure 25
1000
0000
1000
0000
,  // measure 26
1000
0000
1000
0000
,  // measure 27
0001
0000
0001
0000
,  // measure 28
0001
0000
0001
0000
,  // measure 29
0100
0000
0010
0000
,  // measure 30
1001
0000
0000
0000
,  // measure 31
1000
0000
0000
0000
,  // measure 32
0010
0000
0000
0000
,  // measure 33
0100
0000
0000
0000
,  // measure 34
0001
0000
0001
0000
,  // measure 35
0001
0000
0000
0000
,  // measure 36
0010
0000
0000
0000
,  // measure 37
0100
0000
0000
0000
,  // measure 38
1000
0000
1000
0000
,  // measure 39
1000
0000
0000
0000
,  // measure 40
0001
0000
0000
0000
,  // measure 41
0100
0000
0000
0000
,  // measure 42
0010
0000
0000
0000
,  // measure 43
1000
0000
0000
0000
,  // measure 44
0001
0000
0000
0000
,  // measure 45
0010
0000
0010
0000
,  // measure 46
1001
0000
0000
0000
,  // measure 47
1000
0000
0000
0000
,  // measure 48
0100
0000
0000
0000
,  // measure 49
0010
0000
0000
0000
,  // measure 50
0001
0000
0000
0000
,  // measure 51
0100
0000
0010
0000
,  // measure 52
1001
0000
0000
0000
,  // measure 53
1000
0000
0000
0000
,  // measure 54
0010
0000
0000
0000
,  // measure 55
0100
0000
0000
0000
,  // measure 56
0001
0000
0001
0000
,  // measure 57
0001
0000
0000
0000
,  // measure 58
0010
0000
0000
0000
,  // measure 59
0100
0000
0000
0000
,  // measure 60
1000
0000
1000
0000
,  // measure 61
1001
0000
0000
0000
;

//---------------dance-single - ----------------
#NOTEDATA:;
#CHARTNAME:;
#STEPSTYPE:dance-single;
#DESCRIPTION:;
#CHARTSTYLE:;
#DIFFICULTY:Easy;
#METER:6;
#RADARVALUES:0.291,0.268,0.078,0.176,0.000,183.000,8.000,18.000,0.000,0.000,0.000,0.000,0.000,0.291,0.268,0.078,0.176,0.000,183.000,8.000,18.000,0.000,0.000,0.000,0.000,0.000;
#CREDIT:;
#NOTES:
0000
0000
0000
0000
,
0000
0000
0000
0000
,
0000
0000
0000
0000
,
0000
0000
0000
0000
,
1000
0000
0100
1000
,
0100
0000
0010
0100
,
0010
0000
0001
0010
,
0001
0000
1000
0001
,
2002
0000
3003
0000
,
0001
0100
0010
0000
,
1000
0010
0100
0000
,
0001
0010
0100
0000
,
1000
0100
0010
0000
,
0001
0100
1000
0000
,
0001
0010
1000
0000
,
0001
0010
0100
1000
,
0002
0003
2000
3000
,
0010
1000
0100
1000
,
0001
1000
0100
0000
,
1000
0010
0100
0010
,
1000
0010
0100
0000
,
0001
0010
0001
0100
,
0001
1000
0001
0000
,
1000
0010
0100
0001
,
2002
0000
0000
3003
,
1000
0100
0010
0001
,
1000
0010
0100
0001
,
1000
0100
0001
0100
,
1000
0010
0001
0010
,
1000
1000
0001
0001
,
0220
0000
0000
0330
,
1000
0010
0100
0000
,
0001
0100
0010
0000
,
1000
0100
0010
0000
,
0001
0010
0100
0000
,
1000
0010
0001
0000
,
1000
0100
0001
0000
,
1000
0100
0010
0001
,
2000
3000
0002
0003
,
1000
0010
0100
0010
,
0001
0010
0100
0000
,
0001
0010
0100
0010
,
1000
0010
0100
0000
,
0010
0001
0100
0000
,
0010
1000
0100
0000
,
0010
0001
0100
0010
,
2002
0000
0000
3003
,
0001
0010
0100
1000
,
0001
0100
0010
1000
,
0001
0010
1000
0010
,
0001
0100
1000
0100
,
0001
0001
1000
1000
,
0220
0000
0000
0330
,
2000
3000
0002
0003
,
0100
0010
0100
0110
,
0002
0003
2000
3000
,
0100
0010
0100
1001
,
1000
1000
0010
0010
,
0100
0100
0001
0001
,
1000
0100
0010
0001
,
0010
0100
1000
0001
,
1001
0000
0000
0000
;

//---------------dance-single - ----------------
#NOTEDATA:;
#CHARTNAME:;
#STEPSTYPE:dance-single;
#DESCRIPTION:;
#CHARTSTYLE:;
#DIFFICULTY:Medium;
#METER:9;
#RADARVALUES:0.485,0.453,0.497,0.254,0.000,271.000,51.000,26.000,0.000,0.000,0.000,0.000,0.000,0.485,0.453,0.497,0.254,0.000,271.000,51.000,26.000,0.000,0.000,0.000,0.000,0.000;
#CREDIT:;
#NOTES:
0000
0000
0000
0000
,
0000
0000
0000
0000
,
0000
0000
0000
0000
,
0000
0000
0000
0000
,
1000
0100
0000
1000
0001
0000
1001
0000
,
0001
0100
0010
1001
,
1000
0010
0000
1000
0001
0000
1001
0000
,
0001
0010
0100
0110
,
2002
0000
0000
3003
,
1000
0000
0100
0000
0010
0001
0010
0000
,
0100
1000
0001
1001
,
0001
0000
0100
0000
0010
1000
0010
0000
,
0100
0001
1001
0110
,
0001
0000
0010
0000
0100
1000
0100
0000
,
0010
0001
1001
0110
,
0001
0000
0100
0000
0010
1000
0010
1000
,
0002
0013
0200
1300
,
0001
0100
0001
0000
0100
0001
0100
0000
,
0010
0100
0001
0101
,
0010
0100
0010
0000
0100
1000
0100
0000
,
0010
0100
1000
1010
,
0100
0001
0100
0000
0010
1000
0010
0000
,
1000
0100
1000
0000
0001
0010
0001
0000
,
1100
0011
0101
1010
,
2002
0000
3003
0110
,
1000
0100
1000
0100
0020
0000
0031
0000
,
1000
0010
1000
0010
0200
0000
0301
0000
,
1010
0000
0101
0000
0001
1000
0001
1000
,
0010
0100
0010
0000
2000
0000
3001
0000
,
1100
0011
0101
1010
,
2002
0000
0000
3003
,
0001
0000
0010
0000
0100
1000
0100
0000
,
0010
0001
1000
1001
,
1000
0000
0010
0000
0100
0001
0100
0000
,
0010
1000
1001
0110
,
1000
0000
0100
0000
0010
0001
0010
0000
,
0100
1000
1001
0110
,
1000
0000
0010
0000
0100
0001
0100
0001
,
2000
3100
0020
0031
,
1000
0010
1000
0000
0010
1000
0010
0000
,
1000
0010
1000
0000
0010
0000
0101
0000
,
0001
0010
0001
0000
0010
0001
0010
0000
,
0001
0010
0001
0000
0010
0000
1100
0000
,
0001
1000
0001
1000
0001
1000
0000
0000
,
0010
0100
0010
0100
0010
0100
0000
0000
,
0001
0100
0001
0000
1000
0010
1000
0000
,
0101
2002
3003
0110
,
0001
0010
0001
0010
0200
0000
1300
0000
,
0001
0100
0001
0100
0020
0000
1030
0000
,
0101
0000
1010
0000
1000
0001
1000
0001
,
0100
0010
0100
0000
0002
0000
1003
0000
,
0011
1100
1010
0101
,
2002
0000
0000
3003
,
2000
3010
0002
0013
,
1000
0100
0001
0100
0010
0000
1001
0000
,
0002
0013
2000
3010
,
0001
0100
1000
0100
0010
0000
1001
0000
,
1000
0100
1000
0000
0100
0001
0100
0000
,
0001
0010
0001
0000
0010
1000
0010
0000
,
1010
0100
0011
0100
,
1010
0101
0011
1100
,
2002
0000
0000
0000
,
3003
0000
0000
0000
;
