#TITLE:The Apology;
#SUBTITLE:;
#ARTIST:d.Notive;
#TITLETRANSLIT:;
#SUBTITLETRANSLIT:;
#ARTISTTRANSLIT:;
#GENRE:Hip-Pop;
#CREDIT:;
#BANNER:The Apology.png;
#BACKGROUND:The Apology-bg.png;
#LYRICSPATH:;
#CDTITLE:;
#MUSIC:The Apology.mp3;
#OFFSET:-1.000;
#SAMPLESTART:77.040;
#SAMPLELENGTH:15.000;
#SELECTABLE:YES;
#BPMS:0.000=90.000
;
#STOPS:
;
#BGCHANGES:;
#KEYSOUNDS:;
#ATTACKS:;

//---------------dance-single - ----------------
#NOTES:
     dance-single:
     :
     Easy:
     4:
     0.158,0.121,0.000,0.083,0.000,112.000,0.000,9.000,0.000,0.000,0.000,0.158,0.121,0.000,0.083,0.000,112.000,0.000,9.000,0.000,0.000,0.000: // measure 0
0000
0000
0000
0000
,  // measure 1
1000
0000
0001
0001
,  // measure 2
0010
0000
0100
0100
,  // measure 3
1000
0000
0010
0010
,  // measure 4
0100
0000
0001
0001
,  // measure 5
1000
0001
1000
0000
,  // measure 6
0100
0010
0100
0000
,  // measure 7
1000
0100
1000
0000
,  // measure 8
0100
0010
0001
0000
,  // measure 9
0100
0010
0100
0000
,  // measure 10
0001
0100
0001
0000
,  // measure 11
1000
0001
1000
0000
,  // measure 12
0100
1000
0010
0010
,  // measure 13
0100
0001
1000
0000
,  // measure 14
0100
1000
0010
0000
,  // measure 15
0100
0010
0001
0000
,  // measure 16
0010
1000
0001
0001
,  // measure 17
1000
0100
1000
0000
,  // measure 18
0100
0001
0100
0000
,  // measure 19
0010
0100
1000
0000
,  // measure 20
0020
0000
0000
0130
,  // measure 21
0010
0010
1000
0001
,  // measure 22
0020
0000
0000
0130
,  // measure 23
0010
0001
0100
0010
,  // measure 24
2000
0000
0000
3001
,  // measure 25
1000
0100
0010
0001
,  // measure 26
2000
0000
0000
3010
,  // measure 27
1000
0100
1000
0001
,  // measure 28
0200
0000
0000
0310
,  // measure 29
0100
0001
0010
0100
,  // measure 30
0020
0000
0000
0031
,  // measure 31
0010
0100
1000
0010
,  // measure 32
2000
0000
0000
3001
,  // measure 33
1000
0100
0001
0100
,  // measure 34
2000
0000
0000
3001
,  // measure 35
1000
0010
0001
0010
,  // measure 36
0200
0000
0000
0310
,  // measure 37
0100
0100
0000
0100
;
