#VERSION:0.81;
#TITLE:Take My Hand;
#SUBTITLE:;
#ARTIST:Tara Strong;
#TITLETRANSLIT:;
#SUBTITLETRANSLIT:;
#ARTISTTRANSLIT:;
#GENRE:Inspirational Rock;
#ORIGIN:;
#CREDIT:;
#BANNER:Take My Hand.png;
#BACKGROUND:Take My Hand-bg.png;
#PREVIEWVID:;
#JACKET:Take My Hand-jacket.png;
#CDIMAGE:;
#DISCIMAGE:;
#LYRICSPATH:;
#CDTITLE:;
#MUSIC:Take My Hand.mp3;
#OFFSET:-0.071000;
#SAMPLESTART:25.520000;
#SAMPLELENGTH:15.000000;
#SELECTABLE:YES;
#BPMS:0.000=226.000,
88.000=113.000,
92.000=226.000;
#STOPS:;
#DELAYS:;
#WARPS:;
#TIMESIGNATURES:0.000=4=4;
#TICKCOUNTS:0.000=4;
#COMBOS:0.000=1;
#SPEEDS:0.000=1.000=0.000=0;
#SCROLLS:0.000=1.000;
#FAKES:;
#LABELS:0.000=Song Start;
#BGCHANGES:-0.500=Take My Hand.avi=1.000=0=0=0=StretchNoLoop====,
99999=-nosongbg-=1.000=0=0=0 // don't automatically add -songbackground-
;
#KEYSOUNDS:;
#ATTACKS:
;

//---------------dance-single - ----------------
#NOTEDATA:;
#CHARTNAME:;
#STEPSTYPE:dance-single;
#DESCRIPTION:;
#CHARTSTYLE:;
#DIFFICULTY:Hard;
#METER:12;
#RADARVALUES:0.688331,0.642074,0.674123,0.055256,0.016577,370.000000,61.000000,5.000000,0.000000,0.000000,0.000000,0.000000,0.000000,0.688331,0.642074,0.674123,0.055256,0.016577,370.000000,61.000000,5.000000,0.000000,0.000000,0.000000,0.000000,0.000000;
#CREDIT:;
#NOTES:
// measure 0
0000
0000
0000
0000
,  // measure 1
0000
0000
0000
0000
,  // measure 2
0000
0000
0000
0000
,  // measure 3
0000
0000
0000
0000
,  // measure 4
1000
0000
0001
0000
1001
0000
1000
0010
,  // measure 5
0000
0001
0000
0010
0000
0100
0000
0000
,  // measure 6
0002
0000
0000
0000
1000
0000
1003
0001
,  // measure 7
0000
0001
0010
0100
1000
0000
0010
0000
,  // measure 8
0100
0000
0010
0000
0110
0000
0010
1000
,  // measure 9
0000
0001
0000
0010
0000
0100
0000
0000
,  // measure 10
0020
0000
0000
0000
0100
0000
0130
0010
,  // measure 11
0000
0001
0010
0100
1000
0000
0001
1000
,  // measure 12
0010
0000
0000
1000
0000
0000
0001
0000
0010
0000
0000
0001
,  // measure 13
0000
0100
0000
0010
0000
1000
0000
0000
,  // measure 14
0002
0000
0000
0000
1000
0000
1003
0001
,  // measure 15
0000
1000
0010
0100
0001
0000
0010
0100
,  // measure 16
0010
0001
0010
0110
,  // measure 17
0000
2100
3001
1001
,  // measure 18
1000
0000
0010
0000
1000
0000
0001
1000
,  // measure 19
0000
1000
0100
0010
0100
0000
0010
0000
,  // measure 20
0011
0001
0100
0010
,  // measure 21
0000
0110
0000
1001
,  // measure 22
0110
0000
0000
0000
0000
0000
0000
0000
0002
0000
0000
1003
0001
0000
0000
0000
,  // measure 23
1000
0000
0010
0000
0100
0010
0100
0010
,  // measure 24
0000
0010
1000
0000
1000
0001
0010
0100
,  // measure 25
0010
0000
0001
0000
0010
0000
0001
0100
,  // measure 26
0000
0110
0000
0110
0000
0110
0000
0000
,  // measure 27
0010
0000
1000
0000
0001
1000
0001
1000
,  // measure 28
0000
0001
0010
0000
0100
0010
0100
0010
,  // measure 29
0001
0100
0000
0110
0000
0110
0000
1010
,  // measure 30
0000
0101
0000
0011
0000
1100
0000
0000
,  // measure 31
1000
0000
0001
0000
0010
0001
0010
0001
,  // measure 32
0000
0010
0100
0000
1000
0100
1000
0010
,  // measure 33
0100
0000
0001
0000
0101
0000
0001
1000
,  // measure 34
0000
0100
0000
0000
1100
0000
1100
0000
,  // measure 35
0110
0000
0010
0000
0001
0000
0100
0001
,  // measure 36
0000
1000
0001
0000
1000
0100
1000
0100
,  // measure 37
0010
0000
0100
0000
1000
0001
0000
0000
,  // measure 38
0010
0100
0000
1000
0000
0001
0000
0000
,  // measure 39
1001
0000
1000
0000
0010
0000
0100
0010
,  // measure 40
0000
0010
1000
0000
1000
0001
1000
0001
,  // measure 41
0100
0000
0010
0000
0110
0000
0010
1000
,  // measure 42
0000
1000
0001
0000
0010
0001
0010
0001
,  // measure 43
0100
0010
1000
1010
,  // measure 44
1000
1001
0001
0011
,  // measure 45
0010
0100
1000
1100
,  // measure 46
1000
1001
0001
0101
,  // measure 47
0100
0010
1000
1010
,  // measure 48
1000
1001
0001
0011
,  // measure 49
0010
0000
0100
0000
0010
0000
0100
1000
,  // measure 50
0000
1000
0010
0000
0100
0010
0100
0010
,  // measure 51
1000
0001
0100
0101
,  // measure 52
0001
1001
1000
1100
,  // measure 53
0100
0010
0001
0011
,  // measure 54
0001
1001
1000
1010
,  // measure 55
0010
1000
0100
1100
,  // measure 56
1000
1001
0001
0110
,  // measure 57
0010
0000
0001
0000
0010
0000
0001
1000
,  // measure 58
0010
0100
0010
0100
0010
0100
0010
0100
,  // measure 59
0001
0000
0001
0000
0010
0001
0010
0001
,  // measure 60
0000
0001
1000
0000
1000
0010
0100
0001
,  // measure 61
1000
0000
0100
0000
0010
0000
0100
1000
,  // measure 62
0000
1001
0000
1001
0000
1001
0000
0000
,  // measure 63
1000
0000
0010
0000
0100
0010
0100
0010
,  // measure 64
0000
0010
1000
0000
1000
0001
1000
0001
,  // measure 65
0010
0100
0000
0110
0000
0110
0000
0011
,  // measure 66
0000
1100
0000
1010
0000
0101
0000
0000
,  // measure 67
0001
0000
1000
0000
0100
1000
0010
0100
,  // measure 68
0000
0100
0001
0000
0010
0001
0100
0010
,  // measure 69
1000
0000
0001
0000
0010
0000
0100
0010
,  // measure 70
0000
0001
0000
0000
1001
0000
1001
0000
,  // measure 71
1000
0000
0010
0000
1000
0000
0001
1000
,  // measure 72
0000
1000
0010
0000
0100
0000
0010
0100
,  // measure 73
0001
0000
0010
0000
0100
0010
0000
0000
,  // measure 74
0001
1000
0000
0010
0000
0110
0000
0000
,  // measure 75
0010
0000
1000
0000
0001
0000
0010
0100
,  // measure 76
0000
0100
0010
0000
0001
0010
0001
0010
,  // measure 77
0100
1000
0010
1000
,  // measure 78
0001
0010
0000
0110
0000
0100
0000
0000
,  // measure 79
1000
0000
0100
0000
0001
0000
0100
0010
,  // measure 80
0000
0010
0001
0000
0100
0001
0100
0001
,  // measure 81
0010
0000
0100
1000
0000
1001
0000
1010
,  // measure 82
0000
0101
0000
0011
0000
1100
0000
0000
,  // measure 83
1001
0000
0000
0000
;

//---------------dance-single - ----------------
#NOTEDATA:;
#CHARTNAME:;
#STEPSTYPE:dance-single;
#DESCRIPTION:;
#CHARTSTYLE:;
#DIFFICULTY:Easy;
#METER:6;
#RADARVALUES:0.397843,0.366899,0.033154,0.331536,0.000000,219.000000,3.000000,30.000000,0.000000,0.000000,0.000000,0.000000,0.000000,0.397843,0.366899,0.033154,0.331536,0.000000,219.000000,3.000000,30.000000,0.000000,0.000000,0.000000,0.000000,0.000000;
#CREDIT:;
#NOTES:
0000
0000
0000
0000
,
0000
0000
0000
0000
,
0000
0000
0000
0000
,
0000
0000
0000
0000
,
0000
0000
0100
0000
1000
0000
0000
0100
,
0000
0100
0000
0010
0000
0010
0000
0000
,
0002
0000
0000
0000
0000
0000
0000
2000
,
0003
0000
0000
0000
,
3000
0000
0010
0000
0010
0000
0000
0100
,
0000
0100
0000
0010
0000
0010
0000
0000
,
2000
0000
0000
0000
0000
0000
0000
3002
,
0000
0000
0000
0000
,
0003
1000
0100
0000
,
0010
0000
0000
0100
0000
0100
0000
0000
,
2000
0000
0000
3020
,
0000
0000
0000
0030
,
0000
0000
0100
0001
,
0000
1000
0000
1001
,
0000
0000
1000
0100
,
1000
0100
1000
0000
,
0000
0000
0001
1000
,
0000
0100
0000
0110
,
0020
0000
0001
0031
,
0010
0100
0010
0000
,
0100
1000
0100
0000
,
1000
0000
0001
0000
1000
0000
0000
0001
,
0000
0001
0000
0001
0000
0001
0000
0000
,
0010
0001
0010
0000
,
0100
0010
0100
0000
,
1000
0000
0100
0000
1000
0000
0000
0010
,
0000
0010
0000
0010
0000
0010
0000
0000
,
0100
0001
0100
0000
,
0001
0010
0001
0000
,
0100
0000
0010
0000
0100
0000
0000
0010
,
0000
0010
0000
0000
0010
0000
0010
0000
,
2000
0000
0001
0000
,
0010
0010
3001
0000
,
0001
1000
0100
0000
,
1000
0001
0010
0000
,
0100
0010
0100
0010
,
0001
1000
0001
1000
,
0010
0010
0010
0010
,
0100
0100
0100
0100
,
0002
0000
0000
2003
,
0000
3020
0000
0130
,
0200
0000
0000
0320
,
0000
2030
0000
3001
,
0002
0000
0000
0023
,
0000
0230
0000
1300
,
2000
0000
0000
0000
,
0001
0001
3001
0000
,
2000
0000
0000
3020
,
0000
0032
0000
0013
,
2000
0000
0000
3200
,
0000
0302
0000
0103
,
2000
0000
0000
3002
,
0000
0023
0000
0130
,
0100
0100
0100
0000
,
1000
0001
1000
0001
,
0100
0001
0100
0000
,
0010
0001
0010
0000
,
0100
0000
1000
0000
0100
0000
0000
0010
,
0000
1000
0000
0010
0000
0100
0000
0000
,
0010
0100
0010
0000
,
0100
0001
1000
0000
,
0100
0000
0010
0000
0100
0000
0000
0100
,
0000
1000
0000
0001
0000
0100
0000
0000
,
0010
0010
0010
0000
,
1000
0001
1000
0000
,
0100
0000
0100
0000
0100
0000
0000
0010
,
0000
0010
0000
0000
0010
0000
0010
0000
,
0002
0000
1000
0000
,
0010
0010
1003
0000
,
0001
0010
0100
1000
,
0001
0010
0100
1000
,
0020
0000
0100
0000
,
1000
1000
0130
0000
,
0010
1000
0001
0010
,
0100
1000
0001
0100
,
0020
0000
0100
0000
,
0001
0001
0130
0000
,
0010
1000
0010
1000
,
0001
0100
0001
0100
,
0110
0000
0000
0000
;

//---------------dance-single - ----------------
#NOTEDATA:;
#CHARTNAME:;
#STEPSTYPE:dance-single;
#DESCRIPTION:;
#CHARTSTYLE:;
#DIFFICULTY:Medium;
#METER:9;
#RADARVALUES:0.446784,0.412762,0.011051,0.176819,0.000000,266.000000,1.000000,16.000000,0.000000,0.000000,0.000000,0.000000,0.000000,0.446784,0.412762,0.011051,0.176819,0.000000,266.000000,1.000000,16.000000,0.000000,0.000000,0.000000,0.000000,0.000000;
#CREDIT:;
#NOTES:
0000
0000
0000
0000
,
0000
0000
0000
0000
,
0000
0000
0000
0000
,
0000
0000
0000
0000
,
0000
0000
0010
0000
1000
0000
0000
0100
,
0000
1000
0000
0001
0000
0100
0000
0000
,
0020
0000
1000
0000
,
0100
0000
0001
0000
,
1030
0000
0001
0000
1000
0000
0000
0100
,
0000
0010
0000
0100
0000
1000
0000
0000
,
0002
0000
0100
0000
,
1000
0000
0010
0000
,
0103
0000
0010
0000
1000
0000
0000
0100
,
0000
1000
0000
0001
0000
0100
0000
0000
,
0020
0000
1000
0000
,
0100
0000
1030
0000
,
0001
1000
0100
0010
,
0000
0100
0000
1000
,
0002
0000
2003
0000
,
3020
0000
0230
0000
,
0301
0010
0100
2000
,
0000
3200
0000
2300
,
0000
0000
3001
0000
,
1000
0000
0010
0000
1000
0000
0010
1000
,
0000
0010
1000
0000
0001
0000
0100
0000
,
0001
0000
0010
0000
0100
0000
0000
1000
,
0000
0001
0000
1000
0000
1000
0000
0000
,
0010
0000
0100
0000
0001
0000
0100
0010
,
0000
0100
0010
0000
1000
0000
0100
0000
,
0000
0010
0000
0001
0000
1000
0000
0010
,
0000
0100
0000
0001
0000
1000
0000
0000
,
0100
0000
0010
0000
0001
0000
1000
0010
,
0000
1000
0010
0000
0100
0000
0001
0000
,
0010
0000
0100
0000
1000
0000
0000
0001
,
0000
1000
0000
0000
0010
0000
1000
0000
,
0100
0001
1000
0010
,
0001
0100
0010
1000
,
0001
0100
0010
0000
,
1000
0100
1000
0002
,
0000
0100
0000
0010
,
0000
1000
0000
0103
,
0010
0000
1000
0000
0100
0000
0000
1000
,
0000
0001
0000
0000
0100
0000
0010
0000
,
1000
0001
0100
0010
,
0000
0100
0000
0001
,
1000
0100
0010
0001
,
0000
1000
0000
0010
,
0100
0001
1000
0100
,
0000
0010
0000
0001
,
0010
0100
1000
0001
,
0100
0010
1000
0100
,
0010
0001
0100
0020
,
0000
1000
0000
0130
,
0001
0010
0100
2000
,
0000
0010
0000
3001
,
0010
0100
1000
0002
,
0000
0100
0000
0013
,
0100
1000
0001
0100
,
0010
1000
0100
1000
,
0001
0000
0100
0000
0010
0000
1000
0001
,
0000
1000
0001
0000
0010
0000
0100
0000
,
1000
0000
0001
0000
0100
0000
0000
0010
,
0000
1000
0000
0100
0000
1000
0000
0000
,
0001
0000
0100
0000
0010
0000
1000
0001
,
0000
0010
0100
0000
1000
0000
0001
0000
,
0100
0000
0010
0000
1000
0100
0000
1000
,
0000
0010
0000
0100
0000
0001
0000
0000
,
0010
0000
0100
0000
1000
0000
0001
0100
,
0000
0001
1000
0000
0100
0000
0010
0000
,
0001
0000
0100
0000
0010
1000
0000
0100
,
0000
0010
0000
0000
0001
0000
1000
0000
,
0010
1000
0100
0001
,
1000
0010
0001
0100
,
1000
0100
0001
0010
,
0100
1000
0001
0200
,
0000
0010
0000
1000
,
0000
0001
0000
0310
,
1000
0100
0010
0100
,
1000
0001
0000
0100
0000
0020
0000
0000
,
0000
1000
0000
0100
,
0000
0001
0000
1030
,
0001
0000
0010
0000
0100
1000
0000
0001
,
0000
0100
0000
0010
0000
1000
0000
0000
,
1001
0000
0000
0000
;

//---------------dance-single - ----------------
#NOTEDATA:;
#CHARTNAME:;
#STEPSTYPE:dance-single;
#DESCRIPTION:;
#CHARTSTYLE:;
#DIFFICULTY:Beginner;
#METER:2;
#RADARVALUES:0.138929,0.183450,0.022102,0.077358,0.000000,79.000000,2.000000,7.000000,0.000000,0.000000,0.000000,0.000000,0.000000,0.138929,0.183450,0.022102,0.077358,0.000000,79.000000,2.000000,7.000000,0.000000,0.000000,0.000000,0.000000,0.000000;
#CREDIT:;
#NOTES:
0000
0000
0000
0000
,
0000
0000
0000
0000
,
0000
0000
0000
0000
,
0000
0000
0000
0000
,
1000
0000
0000
0000
,
0010
0000
0000
0000
,
0100
0000
0000
0000
,
0100
0000
0000
0000
,
0001
0000
0000
0000
,
0010
0000
0000
0000
,
0002
0000
0000
0000
,
0003
0000
0000
0000
,
1000
0000
0000
0000
,
0010
0000
0000
0000
,
1000
0000
0000
0000
,
0001
0000
0000
0000
,
0010
0000
0000
0000
,
0100
0000
0000
0000
,
1000
0000
0000
0000
,
0010
0000
0000
0000
,
0100
0000
0000
0000
,
0001
0000
0000
0000
,
1001
0000
0000
0000
,
0100
0000
0100
0000
,
0100
0000
0000
0000
,
0010
0000
0000
0000
,
0100
0000
0000
0000
,
1000
0000
1000
0000
,
1000
0000
0000
0000
,
0001
0000
0000
0000
,
1000
0000
0000
0000
,
0001
0000
0001
0000
,
0001
0000
0000
0000
,
0010
0000
0000
0000
,
0001
0000
0000
0000
,
0020
0000
0000
0000
,
0030
0000
0000
0000
,
0100
0000
0000
0000
,
0100
0000
0000
0000
,
2000
0000
0000
0000
,
3000
0000
0000
0000
,
0001
0000
0000
0000
,
0001
0000
0000
0000
,
0100
0000
0000
0000
,
0010
0000
0000
0000
,
1000
0000
0000
0000
,
0001
0000
0000
0000
,
0010
0000
0000
0000
,
0100
0000
0000
0000
,
1000
0000
0000
0000
,
0010
0000
0000
0000
,
0100
0000
0000
0000
,
0001
0000
0000
0000
,
1000
0000
0000
0000
,
0001
0000
0000
0000
,
0100
0000
0000
0000
,
0010
0000
0000
0000
,
2000
0000
0000
0000
,
0000
0000
3000
0000
,
1000
0000
1000
0000
,
1000
0000
0000
0000
,
0001
0000
0000
0000
,
1000
0000
0000
0000
,
0001
0000
0001
0000
,
0001
0000
0000
0000
,
0010
0000
0000
0000
,
0001
0000
0000
0000
,
0010
0000
0010
0000
,
0010
0000
0000
0000
,
0100
0000
0000
0000
,
0010
0000
0000
0000
,
0200
0000
0000
0000
,
0300
0000
0000
0000
,
1000
0000
0000
0000
,
0001
0000
0000
0000
,
0020
0000
0000
0000
,
0030
0000
0000
0000
,
0100
0000
0000
0000
,
1000
0000
0000
0000
,
0002
0000
0000
0000
,
0003
0000
0000
0000
,
0100
0000
0000
0000
,
0010
0000
0000
0000
,
0110
0000
0000
0000
;
