#TITLE:Sunshine and Celery Stalks;
#SUBTITLE:;
#ARTIST:PinkiePieSwear;
#TITLETRANSLIT:;
#SUBTITLETRANSLIT:;
#ARTISTTRANSLIT:;
#GENRE:House Trance;
#CREDIT:;
#BANNER:Sunshine and Celery Stalks.png;
#BACKGROUND:Sunshine and Celery Stalks-bg.png;
#LYRICSPATH:;
#CDTITLE:;
#MUSIC:Sunshine and Celery Stalks.mp3;
#OFFSET:0.613458;
#SAMPLESTART:69.500000;
#SAMPLELENGTH:15.000000;
#SELECTABLE:YES;
#BPMS:0.000000=130.000000
;
#STOPS:
;
#BGCHANGES:1.000=Sunshine and Celery Stalks.avi=1.000=0=0=0=StretchNoLoop====,
99999=-nosongbg-=1.000=0=0=0 // don't automatically add -songbackground-
;
#KEYSOUNDS:;
#ATTACKS:;

//---------------dance-single - ----------------
#NOTES:
     dance-single:
     :
     Easy:
     5:
     0.190600,0.210393,0.034210,0.017105,0.000000,150.000000,4.000000,2.000000,0.000000,0.000000,0.000000,0.190600,0.210393,0.034210,0.017105,0.000000,150.000000,4.000000,2.000000,0.000000,0.000000,0.000000:
0000
0000
0000
0000
,
0000
0000
0000
0000
,
1000
0000
1000
0000
,
0001
0000
0001
0000
,
0100
0000
0100
0000
,
0010
0000
0010
0000
,
1000
0000
0010
0000
,
0001
0000
0010
0010
,
1000
0000
0100
0000
,
0001
0001
0100
0100
,
1000
0000
0001
0000
,
0100
0000
0010
0010
,
0000
1000
0010
0100
,
0001
1000
0100
0010
,
0100
0100
0000
1000
,
0000
0001
0000
0001
,
0000
1000
0010
0100
,
0010
1000
0001
0001
,
0000
1000
0100
1000
,
0000
0001
0100
0001
,
0000
0010
0100
1000
,
0001
0100
0010
1000
,
0001
0000
0001
0000
,
1000
0000
1000
0000
,
0100
0000
0100
0000
,
0010
0000
0010
0000
,
0001
0000
0001
0000
,
0100
0000
0100
0000
,
0010
0000
0010
0000
,
1000
0000
1000
0000
,
0001
0000
0010
0000
,
0001
0000
0100
0000
,
0010
0000
1000
0000
,
0010
0000
0100
0000
,
0010
0000
1000
0000
,
0001
0000
0010
0000
,
0100
0000
1000
0000
,
0001
0000
0100
0000
,
0000
0010
1000
0100
,
0000
0010
0001
0100
,
0000
0001
2000
3010
,
1000
0001
1000
0000
,
0000
1001
0000
1001
,
0010
0100
1000
0010
,
0000
0100
0000
0100
,
0000
0001
1000
0001
,
0000
0010
0001
0100
,
0000
0010
1000
0100
,
0000
0010
0200
0310
,
0100
1000
0001
0000
,
0000
1001
0000
1001
,
0001
0010
0100
1000
,
0000
0001
0000
0001
,
0000
1000
0010
0010
,
0100
0000
0100
0000
,
0001
0000
0001
0000
,
1000
0000
1000
0000
,
0100
0000
0100
0000
,
0010
0000
0010
0000
,
0001
0000
0001
0000
,
0100
0000
0100
0000
,
1000
0000
1000
0000
;

//---------------dance-single - ----------------
#NOTES:
     dance-single:
     :
     Hard:
     13:
     0.562026,0.529724,0.307892,0.051315,0.192433,418.000000,36.000000,6.000000,0.000000,0.000000,0.000000,0.562026,0.529724,0.307892,0.051315,0.192433,418.000000,36.000000,6.000000,0.000000,0.000000,0.000000:
// measure 0
0000
0000
0000
0000
,  // measure 1
0000
0000
0000
0000
,  // measure 2
1000
0001
0010
0001
1000
0100
1000
0000
,  // measure 3
0001
1000
0010
1000
0001
0001
0100
0100
,  // measure 4
0010
1000
0001
0010
0100
0100
0010
0010
,  // measure 5
0001
0010
0100
1000
0001
0001
0100
0100
,  // measure 6
0010
0000
0000
0000
0110
0000
0000
0000
0010
0000
1000
0001
1000
0000
0010
0000
,  // measure 7
0100
0001
0000
0100
0010
1000
0100
0100
,  // measure 8
0000
0010
0100
1000
1001
0000
0011
0000
,  // measure 9
1001
1010
0110
0101
,  // measure 10
0001
0000
1000
0000
0100
0000
0000
0000
1000
0000
0010
0100
0010
0000
1000
0000
,  // measure 11
0001
1000
0000
0010
1000
0001
0010
0010
,  // measure 12
0000
0001
0010
0100
0110
0000
0011
0000
,  // measure 13
0101
0000
0120
1030
1010
0000
1001
0000
,  // measure 14
0001
0000
0000
0000
0110
0000
0000
0000
0010
0000
0001
0100
0001
0000
0010
0000
,  // measure 15
0100
1000
0010
0010
0100
0001
0010
0010
,  // measure 16
0000
0100
1000
0001
0101
0000
0110
0000
,  // measure 17
1010
1100
0110
0011
,  // measure 18
0001
0000
1000
0000
0010
0000
0000
0000
1000
0000
0010
0100
0010
0000
1000
0000
,  // measure 19
0001
0100
0010
0010
1000
0100
0010
0010
,  // measure 20
0001
0100
0001
1000
1001
0000
1100
0000
,  // measure 21
0110
0000
0021
0130
0110
0000
1001
0000
,  // measure 22
1000
1000
0000
0010
0010
0000
0100
0100
,  // measure 23
0000
0001
0001
0000
0010
0010
0100
0100
,  // measure 24
1000
1000
0000
0001
0001
0000
0100
0100
,  // measure 25
0000
0010
0010
0000
1000
1000
0001
0001
,  // measure 26
0010
0000
0010
0000
0000
0000
0001
0000
0001
0000
0000
0000
1000
0100
1000
0000
,  // measure 27
0000
0100
0100
0000
0010
0100
0010
0100
,  // measure 28
1000
0000
1000
0000
0000
0000
0001
0000
0001
0000
0000
0000
1000
0100
1000
0000
,  // measure 29
0000
0001
0001
0000
0100
0010
0100
0010
,  // measure 30
0100
0000
0100
0000
0000
0000
0010
0000
0010
0000
0000
0000
1000
0001
1000
0000
,  // measure 31
0000
0000
0001
0010
0001
0000
0000
0000
0010
0000
0010
0000
0100
0000
0100
0000
,  // measure 32
1000
0000
1000
0000
0000
0000
0001
0000
0001
0000
0000
0000
0100
0010
0100
0000
,  // measure 33
0000
0000
0010
1000
0010
0000
0000
0000
1000
0000
1000
0000
0100
0000
0100
0000
,  // measure 34
0010
0000
0010
0000
0000
0000
0001
0000
0001
0000
0000
0000
1000
0010
1000
0000
,  // measure 35
0000
0000
0001
1000
0001
0000
0000
0000
1000
0000
0001
0000
1000
0000
0001
0000
,  // measure 36
0010
0000
0010
0000
0000
0000
0100
0000
0100
0000
0000
0000
1000
0010
1000
0000
,  // measure 37
0000
0000
0001
0010
0001
0000
0000
0000
0100
0000
0001
0000
1000
0010
1000
0000
,  // measure 38
0100
0000
1000
0010
0101
0000
0011
0000
,  // measure 39
0001
0000
0010
0000
0100
0000
0000
0000
0010
0001
0010
0000
0001
0000
0100
0000
,  // measure 40
0010
0100
0001
1000
2001
0000
3010
0000
,  // measure 41
1000
0000
0000
1000
0000
0000
0010
0000
0200
0000
0000
0000
0310
0100
0010
0000
,  // measure 42
0100
0000
0001
0000
0010
0100
1100
1010
,  // measure 43
0000
0000
0010
0000
0100
0000
0000
0000
0010
1000
0010
0000
1000
0000
0100
0000
,  // measure 44
0010
0100
0010
0000
0001
1000
0001
0000
,  // measure 45
0100
0000
0010
0000
1000
0000
0000
0000
0100
0010
0100
0000
0010
0000
0000
0000
,  // measure 46
0001
0000
1000
0100
0011
0000
0101
0000
,  // measure 47
0001
0000
0100
0000
0010
0000
0000
0000
0100
0001
0100
0000
0001
0000
0010
0000
,  // measure 48
0100
0010
0001
1000
2001
0000
3100
0000
,  // measure 49
1000
0000
0000
1000
0000
0000
0100
0000
0020
0000
0000
0000
0130
0010
0100
0000
,  // measure 50
0010
0000
0001
0000
0001
0100
1010
1100
,  // measure 51
1000
0000
0100
0000
0010
0000
0000
0000
0100
1000
0100
0000
0010
0000
0100
0000
,  // measure 52
1000
0001
1000
0000
0010
0100
0010
0000
,  // measure 53
0100
0000
0001
0000
1000
0000
0000
0000
0100
0010
0100
0000
1000
0000
0000
0000
,  // measure 54
0010
0000
0100
0000
0001
0000
1000
0100
0000
1000
0100
0000
0010
0000
0001
0000
,  // measure 55
0100
0000
0010
0000
0100
0000
0001
0010
0000
0001
0010
0000
0100
0000
1000
0000
,  // measure 56
0001
0000
0100
0000
1000
0000
0100
0010
0000
0100
0010
0000
1000
0000
0001
0000
,  // measure 57
0010
0000
0100
0000
1000
0000
0001
0100
0000
0001
0100
0000
0010
0000
1000
0000
,  // measure 58
0001
0000
0010
0000
0100
0000
1000
0001
0000
1000
0001
1000
0001
0000
0100
0000
,  // measure 59
0010
0000
1000
0000
0001
0000
0010
0001
0000
0010
0001
0010
0001
0000
0010
0000
,  // measure 60
0100
0000
1000
0000
0001
0000
0100
0001
0000
0100
0001
0100
0001
0000
0100
0000
,  // measure 61
0010
0000
1000
0000
0100
0000
1000
0001
0000
0100
0010
0000
1000
0000
0001
1000
;

//---------------dance-single - ----------------
#NOTES:
     dance-single:
     :
     Beginner:
     2:
     0.094078,0.105624,0.000000,0.102631,0.000000,65.000000,0.000000,12.000000,0.000000,0.000000,0.000000,0.094078,0.105624,0.000000,0.102631,0.000000,65.000000,0.000000,12.000000,0.000000,0.000000,0.000000:
0000
0000
0000
0000
,
0000
0000
0000
0000
,
1000
0000
0000
0000
,
1000
0000
0000
0000
,
0001
0000
0000
0000
,
0100
0000
0000
0000
,
0010
0000
0000
0000
,
0010
0000
0010
0000
,
1000
0000
0000
0000
,
1000
0000
0001
0000
,
1000
0000
0000
0000
,
1000
0000
1000
0000
,
0100
0000
0000
0000
,
0010
0000
0100
0000
,
0010
0000
0000
0000
,
0010
0000
0010
0000
,
0001
0000
0000
0000
,
0001
0000
1000
0000
,
0001
0000
0000
0000
,
0100
0000
0100
0000
,
0010
0000
0000
0000
,
0010
0000
1000
0000
,
0020
0000
0000
0000
,
0030
0000
0000
0000
,
2000
0000
0000
0000
,
3000
0000
0000
0000
,
0002
0000
0000
0000
,
0003
0000
0000
0000
,
0020
0000
0000
0000
,
0030
0000
0000
0000
,
0200
0000
0000
0000
,
0300
0000
0000
0000
,
2000
0000
0000
0000
,
3000
0000
0000
0000
,
0002
0000
0000
0000
,
0003
0000
0000
0000
,
0200
0000
0000
0000
,
0300
0000
0000
0000
,
0000
0000
0010
0010
,
0000
0000
1000
1000
,
0000
0000
0001
0000
,
1000
0000
0000
0000
,
0000
0010
0000
0000
,
0010
0000
1000
0000
,
0000
0001
0000
0001
,
0000
0000
1000
1000
,
0000
0000
0100
0100
,
0000
0000
0010
0010
,
0000
0000
0001
0000
,
1000
0000
0000
0000
,
0000
0001
0000
0000
,
0001
0000
0010
0000
,
0000
0100
0000
0100
,
0000
0000
1000
0000
,
0002
0000
0000
0000
,
0003
0000
0000
0000
,
0020
0000
0000
0000
,
0030
0000
0000
0000
,
0200
0000
0000
0000
,
0300
0000
0000
0000
,
2000
0000
0000
0000
,
0000
0000
0000
3000
;

//---------------dance-single - ----------------
#NOTES:
     dance-single:
     :
     Medium:
     8:
     0.334772,0.291054,0.068421,0.179604,0.000000,245.000000,8.000000,21.000000,0.000000,0.000000,0.000000,0.334772,0.291054,0.068421,0.179604,0.000000,245.000000,8.000000,21.000000,0.000000,0.000000,0.000000:
0000
0000
0000
0000
,
0000
0000
0000
0000
,
0010
1000
0100
0100
,
1000
0010
0100
0001
,
1000
0000
0100
0000
0010
0001
1000
0000
,
0010
0000
0100
0000
1000
0100
0010
0000
,
1000
0001
0010
0100
,
1000
0000
0001
0000
0010
0001
0010
0000
,
0100
1000
0010
0100
,
0002
1003
0200
0310
,
0100
0000
1000
0000
0010
0000
0100
0001
,
1000
0000
0100
0000
0010
0000
0100
1000
,
0001
0100
0020
1030
,
0002
0013
0200
1300
,
0001
0000
0100
0010
0000
0010
0100
0000
,
0001
0000
1000
0000
0100
1000
0001
0000
,
0100
0010
2000
3001
,
0020
0130
2000
3001
,
0100
0000
0010
0000
0100
0001
1000
0000
,
0100
0000
0010
0001
0000
0001
1000
0000
,
0010
0100
2000
3100
,
0002
0013
0200
1300
,
0001
0000
0000
0100
0000
0000
1000
0000
,
0000
0100
0000
0000
0010
0000
1000
0000
,
0001
0000
0000
0010
0000
0000
0100
0000
,
0000
1000
0000
0000
0001
0000
1000
0000
,
0100
0000
0000
0010
0000
0000
0001
0000
,
0000
1000
0000
0000
0010
0000
0110
0000
,
0100
0000
0000
1000
0000
0000
0100
0000
,
0000
0001
0000
0000
0010
0000
0011
0000
,
0100
0000
0000
1000
0000
0000
0010
0000
,
0000
0100
0000
0000
0001
1000
0100
1000
,
0001
0000
0000
0100
0000
0000
0010
0000
,
0000
1000
0000
0000
0100
0010
0100
1000
,
0001
0000
0000
0100
0000
0000
0010
0000
,
0000
1000
0000
0000
1001
0000
0110
0000
,
1001
0000
0000
1010
0000
0000
0101
0000
,
0000
1001
0000
0000
0100
0000
0010
0000
,
0001
0000
0100
0010
1000
0000
0010
0000
,
0100
0001
1000
0000
0001
0001
0010
0000
,
0100
1000
0002
0103
,
0010
1000
0100
0001
,
0100
0000
1000
0000
0010
1000
0010
1000
,
0000
1000
0001
0000
0010
0010
0001
0000
,
0100
0010
1000
0001
,
0010
0000
0100
0000
1000
0001
1000
0000
,
0010
0000
0100
0001
1000
0000
0100
0000
,
0010
0001
1000
0000
0010
0010
0100
0000
,
0001
0000
1000
0100
2000
0000
3001
0000
,
0100
0010
0100
0001
,
1000
0000
0100
0000
1000
0001
0000
0001
,
0000
0100
0010
0000
1000
0001
1000
0000
,
0100
0010
0001
1000
,
0010
0100
0100
0000
0001
1000
0001
0000
,
0020
0000
0230
0000
,
2300
0000
3002
0000
,
0203
0000
0320
0000
,
2030
0000
3002
0000
,
0013
0100
1000
0001
,
0100
0010
1000
0100
,
0001
0100
0010
0001
,
1000
0000
0010
0000
0100
0000
0001
1000
;
