#TITLE:Spin That Record Vinyl Scratch (Assertive Fluttershy Remix);
#SUBTITLE:;
#ARTIST:KeepOnRockin';
#TITLETRANSLIT:;
#SUBTITLETRANSLIT:;
#ARTISTTRANSLIT:;
#GENRE:Hardcore;
#CREDIT:;
#BANNER:Spin That Record Vinyl Scratch (Assertive Fluttershy Mix).png;
#BACKGROUND:Spin That Record Vinyl Scratch (Assertive Fluttershy Mix)-jacket.png;
#LYRICSPATH:;
#CDTITLE:;
#MUSIC:Spin That Record Vinyl Scratch (Assertive Fluttershy Mix).mp3;
#OFFSET:-10.773638;
#SAMPLESTART:56.077000;
#SAMPLELENGTH:15.000000;
#SELECTABLE:YES;
#DISPLAYBPM:180.000000;
#BPMS:0.000000=180.000000
,32.000000=90.000000
,36.000000=180.000000
;
#STOPS:
;
#BGCHANGES:;
#KEYSOUNDS:;
#ATTACKS:;

//---------------dance-single - Blank----------------
#NOTES:
     dance-single:
     Blank:
     Beginner:
     2:
     0.127964,0.122576,0.009429,0.037716,0.000000,90.000000,1.000000,4.000000,0.000000,0.000000,0.000000,0.127964,0.122576,0.009429,0.037716,0.000000,90.000000,1.000000,4.000000,0.000000,0.000000,0.000000:
0010
0000
0000
0000
,
0010
0000
0000
0000
,
0100
0000
0000
0000
,
0100
0000
0000
0000
,
0001
0000
0000
0000
,
0001
0000
0000
0000
,
1000
0000
0000
0000
,
1000
0000
0000
0000
,
0010
0000
0000
0000
,
0200
0000
0000
0000
,
0300
0000
0000
0000
,
0002
0000
0000
0000
,
0003
0000
0000
0000
,
2000
0000
0000
0000
,
3000
0000
0000
0000
,
0020
0000
0000
0000
,
0030
0000
0000
0000
,
0100
0000
0001
0000
,
0100
0000
0000
0000
,
0010
0000
1000
0000
,
0010
0000
0000
0000
,
1000
0000
0001
0000
,
1000
0000
0000
0000
,
0001
0000
0010
0000
,
0001
0000
0000
0000
,
1000
0000
0100
0000
,
1000
0000
0000
0000
,
0001
0000
0100
0000
,
0001
0000
0000
0000
,
0010
0000
0100
0000
,
0010
0000
0000
0000
,
0001
0000
1000
0000
,
0001
0000
0000
0000
,
0100
0000
0100
0000
,
0100
0000
0000
0000
,
0010
0000
0010
0000
,
0010
0000
0000
0000
,
1000
0000
1000
0000
,
1000
0000
0000
0000
,
0001
0000
0001
0000
,
0001
0000
0000
0000
,
0010
0000
0010
0000
,
0010
0000
0000
0000
,
0100
0000
0100
0000
,
0100
0000
0000
0000
,
1000
0000
1000
0000
,
1000
0000
0000
0000
,
0001
0000
0001
0000
,
0001
0000
0000
0000
,
0100
0000
0100
0000
,
0100
0000
0100
0000
,
0100
0000
0100
0000
,
0100
0000
0000
0000
,
0010
0000
0010
0000
,
0010
0000
0010
0000
,
0010
0000
0010
0000
,
0010
0000
0000
0000
,
1000
0000
1000
0000
,
1000
0000
1000
0000
,
1000
0000
1000
0000
,
1000
0000
0000
0000
,
0001
0000
0001
0000
,
0001
0000
0001
0000
,
0001
0000
0001
0000
,
0001
0000
0000
0000
,
1001
0000
0000
0000
;

//---------------dance-single - Blank----------------
#NOTES:
     dance-single:
     Blank:
     Easy:
     6:
     0.290949,0.248923,0.009429,0.103718,0.000000,204.000000,1.000000,11.000000,0.000000,0.000000,0.000000,0.290949,0.248923,0.009429,0.103718,0.000000,204.000000,1.000000,11.000000,0.000000,0.000000,0.000000:
1000
0000
0100
0000
,
1000
0010
0100
0001
,
0010
0000
0001
0000
,
1000
0010
0100
0001
,
0010
0000
0100
0000
,
1000
0010
0001
0100
,
1000
0000
0010
0000
,
0100
0001
1000
0100
,
0010
0000
0000
0000
,
0002
0000
0003
0000
,
0200
0000
0300
0000
,
0020
0000
0030
0000
,
2000
3000
0002
0003
,
2000
0000
3000
0000
,
0200
0000
0300
0000
,
0020
0000
0030
0000
,
0002
0000
0003
0000
,
1000
0000
0010
0000
,
0100
0001
1000
0000
,
0100
0000
0010
0000
,
0001
0100
0010
0000
,
1000
0000
0100
0000
,
0001
0100
1000
0000
,
0010
0000
0001
0000
,
0010
1000
0001
0000
,
0010
0001
0010
0001
,
1000
0100
1000
0100
,
1000
0010
1000
0010
,
0100
0001
0100
0001
,
0010
0100
1000
0001
,
0100
0010
1000
0001
,
0010
0100
1000
0001
,
0100
0010
1000
0001
,
1000
1000
0100
0100
,
0010
0001
0100
0001
,
0010
0010
0001
0001
,
0100
0010
1000
0001
,
0010
0010
0100
0100
,
0010
0001
0100
0010
,
1000
1000
0001
0001
,
0010
0100
1000
0001
,
0100
0100
0010
0010
,
1000
0100
0010
0100
,
1000
1000
0001
0001
,
0100
0010
1000
0100
,
0010
0010
0001
0001
,
0100
0010
0100
0001
,
1000
1000
0100
0100
,
0010
0001
0000
0001
,
0100
0010
0100
0000
,
0010
1000
0010
0010
,
1000
0010
1000
0000
,
0001
1000
0001
0000
,
0010
0001
0010
0000
,
0100
1000
0100
0100
,
1000
0100
1000
0000
,
0001
1000
0001
0000
,
0100
0001
0100
0100
,
0010
0100
0010
0000
,
1000
0100
1000
1000
,
0010
1000
0010
0000
,
0100
0001
0010
0010
,
0001
0100
0001
0000
,
0010
0100
1000
0001
,
0100
0010
0000
0100
,
2002
0000
0000
0000
,
3003
0000
0000
0000
;

//---------------dance-single - Blank----------------
#NOTES:
     dance-single:
     Blank:
     Medium:
     9:
     0.416218,0.379041,0.103718,0.103718,0.141433,287.000000,11.000000,11.000000,0.000000,0.000000,0.000000,0.416218,0.379041,0.103718,0.103718,0.141433,287.000000,11.000000,11.000000,0.000000,0.000000,0.000000:
// measure 0
0010
0000
1000
0000
0100
1000
0100
0000
,  // measure 1
0010
0001
0100
0010
,  // measure 2
0100
0000
0001
0000
0010
0001
0010
0000
,  // measure 3
0100
1000
0001
0100
,  // measure 4
0010
0000
1000
0000
0001
0010
0001
0000
,  // measure 5
0010
0100
1000
0001
,  // measure 6
0100
0000
0010
0000
1000
0001
1000
0000
,  // measure 7
0100
0010
0001
1000
,  // measure 8
1001
0000
0000
0000
,  // measure 9
0200
0000
0000
0000
,  // measure 10
0320
0000
0000
0000
,  // measure 11
2030
0000
0000
0000
,  // measure 12
3002
0000
0023
0000
,  // measure 13
0032
0000
0000
0000
,  // measure 14
0203
0000
0000
0000
,  // measure 15
2300
0000
0000
0000
,  // measure 16
3020
0000
0000
0000
,  // measure 17
0031
0100
0010
1000
,  // measure 18
0100
0000
1000
0100
0000
0100
1000
0000
,  // measure 19
0010
0100
0001
0010
,  // measure 20
0100
0010
0100
0010
0000
0000
0100
0000
,  // measure 21
1000
0010
0100
0001
,  // measure 22
1000
0100
1000
0100
0000
1000
0000
0100
,  // measure 23
0010
0001
0100
0010
,  // measure 24
1000
0100
0010
0001
1000
0000
1001
0000
,  // measure 25
0100
0010
0100
0001
,  // measure 26
1000
0000
0100
1000
0001
0000
0001
0100
,  // measure 27
0010
0100
0001
0010
,  // measure 28
0100
0000
1000
0001
0100
0000
0010
0000
,  // measure 29
1000
0001
0010
0100
,  // measure 30
1000
0000
0001
0100
0010
0000
0100
0001
,  // measure 31
1000
0100
0010
0001
,  // measure 32
0100
0000
0010
1000
0001
0000
1001
0000
,  // measure 33
0010
0100
0001
0010
,  // measure 34
0100
0000
1000
0001
0100
0000
0010
1000
,  // measure 35
0001
0010
0100
1000
,  // measure 36
0001
0000
0100
0010
0100
0100
0001
0100
,  // measure 37
0001
1000
0001
0010
,  // measure 38
0100
0000
1000
0001
1000
0000
0100
0010
,  // measure 39
0100
1000
0010
0001
,  // measure 40
1000
0000
0100
0001
0100
0001
0010
0001
,  // measure 41
0010
0001
0100
0010
,  // measure 42
1000
0000
0100
1000
0100
0000
0010
0001
,  // measure 43
0010
0001
0100
0010
,  // measure 44
1000
0000
0001
0010
0001
0001
0100
0010
,  // measure 45
1000
0100
1000
0001
,  // measure 46
0100
0000
0010
1000
0100
0000
0100
1000
,  // measure 47
0010
0100
0001
0010
,  // measure 48
0100
0000
1000
0001
0100
0010
0100
0010
,  // measure 49
0000
0000
1000
0000
0000
0100
0000
0000
0010
0000
0000
0100
0000
0000
1000
0000
,  // measure 50
0000
0000
0001
0000
0000
0100
0000
0000
0010
0000
0000
0100
0000
0000
0001
0000
,  // measure 51
0000
0000
0010
0000
0000
1000
0000
0000
0010
0000
0000
0001
0000
0000
0100
0000
,  // measure 52
0000
0000
0010
0000
0000
1000
0000
0000
0100
0000
0000
1000
0000
0000
0001
0000
,  // measure 53
0000
0000
0100
0000
0000
0010
0000
0000
0100
0000
0000
0001
0000
0000
0010
0000
,  // measure 54
0000
0000
0100
0000
0000
1000
0000
0000
0001
0000
0000
0100
0000
0000
0010
0000
,  // measure 55
0000
0000
0100
0000
0000
0001
0000
0000
0010
0000
0000
0100
0000
0000
1000
0000
,  // measure 56
0000
0000
0001
0000
0000
0100
0000
0000
0010
0000
0000
0100
0000
0000
0001
0000
,  // measure 57
0000
0000
0010
0000
0000
0100
0000
0000
1000
0000
0000
0001
0000
0000
0101
0000
,  // measure 58
0000
0000
0100
0000
0000
0010
0000
0000
1000
0000
0000
0001
0000
0000
0011
0000
,  // measure 59
0000
0000
0010
0000
0000
0100
0000
0000
1000
0000
0000
0010
0000
0000
1010
0000
,  // measure 60
0000
0000
0010
0000
0000
0100
0000
0000
0001
0000
0000
1000
0000
0000
1100
0000
,  // measure 61
0000
0000
0100
0000
0000
0010
0000
0000
0100
0000
0000
1000
0000
0000
1001
0000
,  // measure 62
0000
0000
0001
0000
0000
0100
0000
0000
0010
0000
0000
0100
0000
0000
0110
0000
,  // measure 63
0000
0000
0010
0000
0000
1000
0000
0000
0100
0000
0000
1000
0000
0000
1001
0000
,  // measure 64
0000
0001
0100
0000
0010
0100
0001
0000
,  // measure 65
2002
0000
0000
0000
,  // measure 66
0000
0000
0000
0000
,  // measure 67
3003
0000
0000
0000
;

//---------------dance-single - Blank----------------
#NOTES:
     dance-single:
     Blank:
     Hard:
     13:
     0.606143,0.568562,0.169720,0.122576,0.198007,419.000000,18.000000,13.000000,0.000000,0.000000,0.000000,0.606143,0.568562,0.169720,0.122576,0.198007,419.000000,18.000000,13.000000,0.000000,0.000000,0.000000:
// measure 0
0001
0000
1001
0000
0010
0100
1001
0000
,  // measure 1
0001
0010
1000
0010
0001
0000
1001
0000
,  // measure 2
0010
1000
1100
0000
0100
0010
0011
0000
,  // measure 3
0001
0100
1000
0100
0001
0010
0011
0000
,  // measure 4
0010
0100
1100
0000
0001
0100
0110
0000
,  // measure 5
0010
1000
0100
1000
0001
0000
1010
0000
,  // measure 6
0010
1000
1100
0000
0001
0010
0011
0000
,  // measure 7
0010
0000
0100
1000
0100
1000
0001
0000
0100
0000
0010
0000
1000
0000
0000
0000
,  // measure 8
2002
0000
3003
0000
,  // measure 9
0020
0000
0000
0000
,  // measure 10
0230
0000
0000
0000
,  // measure 11
0302
0000
0000
0000
,  // measure 12
2003
0000
3200
0000
,  // measure 13
2300
0000
0000
0000
,  // measure 14
3020
0000
0000
0000
,  // measure 15
0032
0000
0000
0000
,  // measure 16
0203
0000
0000
0000
,  // measure 17
1300
0000
0000
0000
1100
0000
0000
0000
1000
0000
0000
0010
0000
0000
1000
0000
,  // measure 18
0000
0000
0001
0000
0010
0000
0000
0000
0001
0000
0000
0100
0000
0000
0010
0000
,  // measure 19
1000
0000
0000
0000
1001
0000
0000
0000
0010
0000
0000
0100
0000
0000
0010
0000
,  // measure 20
0000
0000
0001
0000
0100
0000
0000
0000
0010
0000
0000
1000
0000
0000
0001
0000
,  // measure 21
0010
0000
0000
0000
1100
0000
0000
0000
1000
0000
0000
0001
0000
0000
0100
0000
,  // measure 22
0000
0000
0010
0000
1000
0000
0000
0000
0100
0000
0000
0010
0000
0000
0100
0000
,  // measure 23
1000
0000
0000
0000
1001
0000
0000
0000
0100
0000
0000
0010
0000
0000
0100
0000
,  // measure 24
0000
0000
0001
0000
1000
0000
0000
0000
0100
0000
0000
0010
0000
0000
0001
0000
,  // measure 25
1000
0010
0001
0010
1000
0010
0001
0010
,  // measure 26
1000
0100
0001
0100
0010
0000
0001
0100
,  // measure 27
0010
1000
0100
1000
0001
0100
0010
0100
,  // measure 28
0001
0000
0010
0000
0100
0000
1000
0000
0001
0010
0001
0000
0100
0000
0010
0000
,  // measure 29
0100
0001
1000
0100
0010
0100
1000
0001
,  // measure 30
0100
0010
1000
0001
0010
0100
1000
0001
,  // measure 31
0100
1000
0100
0001
0010
1000
0010
0001
,  // measure 32
0100
1000
0100
0001
0010
0000
0110
0000
,  // measure 33
0100
1000
0001
1000
0100
1000
0001
1000
,  // measure 34
0100
1000
0000
1000
0001
1000
0000
1000
,  // measure 35
0100
0010
0001
0010
0100
0010
0001
0010
,  // measure 36
0100
0010
0000
0010
0001
0010
0000
0010
,  // measure 37
0001
0100
1000
0100
0001
0100
1000
0100
,  // measure 38
0001
0100
0000
0100
1000
0100
0000
0100
,  // measure 39
0001
0010
1000
0010
0001
0010
1000
0010
,  // measure 40
0001
0010
0000
0010
1000
0010
0000
0010
,  // measure 41
0001
0100
0010
1000
0001
1000
0010
0100
,  // measure 42
0001
0100
0000
0100
0001
1000
0000
1000
,  // measure 43
0001
0010
0100
1000
0001
0010
1000
0010
,  // measure 44
0001
0100
0000
0100
0001
0010
0000
0010
,  // measure 45
0100
1000
0001
1000
0010
1000
0001
1000
,  // measure 46
0100
1000
0000
1000
0010
1000
0000
1000
,  // measure 47
0001
0100
0010
1000
0001
0100
0010
0100
,  // measure 48
0001
0000
0000
0000
1000
0000
0000
0000
0001
0100
0001
0000
0010
0000
0100
0000
,  // measure 49
1000
0000
0010
0000
0100
0000
0010
0000
1000
0000
0001
1000
0000
0001
1000
0000
,  // measure 50
0001
0000
0010
0000
0001
0000
0100
0000
0010
0000
1000
0010
0000
1000
0010
0000
,  // measure 51
0100
0000
0001
0000
0010
0000
0100
0000
0010
0000
0001
0010
0000
0001
0010
0000
,  // measure 52
0001
0000
1000
0000
0100
0000
1000
0000
0001
0000
0100
0010
0000
0100
0010
0000
,  // measure 53
1000
0000
0100
0000
0010
0000
0001
0000
1000
0000
0010
0100
0000
0010
0100
0000
,  // measure 54
0001
0000
0010
0000
0001
0000
0100
0000
0010
0000
0100
0001
0000
0100
0001
0000
,  // measure 55
0010
0000
0001
0000
0010
0000
0100
0000
1000
0000
0100
1000
0000
0100
1000
0000
,  // measure 56
0010
0000
0100
0000
0001
0000
0100
0000
0010
0000
1000
0001
0000
1000
0001
0000
,  // measure 57
1000
0000
0100
0000
0001
0000
0100
0000
1000
0000
0010
0100
0000
0010
1000
0000
,  // measure 58
0001
0000
0010
0000
0100
0000
0010
0000
0001
0000
0100
0010
0000
0100
0001
0000
,  // measure 59
0010
0000
0100
0000
1000
0000
0001
0000
0100
0000
0010
1000
0000
0010
0100
0000
,  // measure 60
0001
0000
0010
0000
0100
0000
1000
0000
0001
0000
0010
0100
0000
0010
0001
0000
,  // measure 61
0100
0000
0010
0000
1000
0000
0001
0000
0010
0000
0100
1000
0000
0001
1000
0000
,  // measure 62
0100
0000
0010
0000
0001
0000
0100
0000
0010
0000
1000
0001
0000
1000
0010
0000
,  // measure 63
0100
0000
0001
0000
0010
0000
0100
0000
1000
0000
0001
0100
0000
0001
0100
0000
,  // measure 64
0010
1000
0001
0010
0100
1000
0001
0000
,  // measure 65
2002
0000
0000
0000
,  // measure 66
0000
0000
0000
0000
,  // measure 67
3003
0000
0000
0000
;

//---------------dance-single - ----------------
#NOTES:
     dance-single:
     :
     Challenge:
     1:
     0.761046,0.758083,0.292296,0.245151,0.485588,508.000000,31.000000,26.000000,0.000000,0.000000,0.000000,0.761046,0.758083,0.292296,0.245151,0.485588,508.000000,31.000000,26.000000,0.000000,0.000000,0.000000:
// measure 0
0110
0000
1001
0000
1100
0010
0001
0000
,  // measure 1
1100
0000
0100
0010
0100
1000
0001
0100
0010
0000
0000
0000
1010
0000
0000
0000
,  // measure 2
1100
0000
0011
0000
0101
0010
1000
0000
,  // measure 3
0101
0000
0010
0100
0010
1000
0001
0010
0100
0010
0001
1000
0010
0000
0000
0000
,  // measure 4
0110
0000
1001
0000
1100
0001
0101
0000
,  // measure 5
1010
0000
0001
0100
0001
0000
1000
0010
1000
0000
0001
0010
0001
0000
0000
0000
,  // measure 6
0110
0000
1001
0000
0101
1000
1100
0000
,  // measure 7
1100
0000
0001
0100
0001
0010
0100
0010
0100
1000
0010
1000
0001
0100
0010
0000
,  // measure 8
0220
0000
0000
0000
0000
0000
0000
0330
,  // measure 9
2000
0000
0000
0000
,  // measure 10
3200
0000
0000
0000
,  // measure 11
0302
0000
0000
0000
,  // measure 12
0023
0000
0000
0000
2030
0000
0000
3000
,  // measure 13
2200
0000
0000
0000
0000
0000
0000
3300
,  // measure 14
0022
0000
0000
0000
0000
0000
0000
0033
,  // measure 15
0202
0000
0000
0000
0000
0000
0000
0303
,  // measure 16
2020
0000
0000
0000
0000
0000
0000
3030
,  // measure 17
0001
0000
1000
0000
0001
0000
0100
0000
0010
0000
0000
0100
0000
0000
1000
0000
,  // measure 18
0100
0000
0001
0000
1000
0000
0100
0000
0010
0000
0000
0100
0000
0000
0100
0000
,  // measure 19
0001
0000
0100
0000
0010
0000
0001
0000
1000
0000
0000
0010
0000
0000
0100
0000
,  // measure 20
1000
0000
0100
0000
0010
0000
1000
0000
0001
0000
0000
0010
0000
0000
0100
0000
,  // measure 21
0001
0000
0100
0000
1000
0000
0001
0000
1000
0000
0000
1020
0000
0000
0031
0000
,  // measure 22
0010
0000
0100
0000
0001
0000
0010
0000
0100
0000
0000
1100
0000
0000
0001
0000
,  // measure 23
0100
1000
0100
0001
0010
0100
1000
0010
,  // measure 24
0100
0000
0010
0000
1000
0000
0100
0000
0010
0000
0000
0011
0000
0000
1000
0000
,  // measure 25
0001
0010
0100
1000
0010
0100
0010
1000
,  // measure 26
0001
0100
0010
1000
0001
0000
0010
0100
,  // measure 27
0010
0001
1000
0010
0100
0001
0010
0100
,  // measure 28
1000
0000
0010
0000
0001
0000
0010
0000
1000
0001
1000
0000
0100
0000
0010
0000
,  // measure 29
0001
0100
0010
0100
1000
0100
0001
0010
,  // measure 30
0100
1000
0001
0100
0010
0100
0001
1000
,  // measure 31
0100
1000
0100
1000
0001
1000
0001
1000
0001
0100
0001
0100
0010
0100
0010
0100
,  // measure 32
0010
1000
0010
1000
0001
0010
0001
0010
0100
1000
0100
1000
0001
0100
0001
0100
,  // measure 33
0010
1000
0010
0100
0001
0010
0100
0010
,  // measure 34
0001
0100
1000
0100
0010
1000
0001
0010
,  // measure 35
0100
0010
0001
0010
1000
0010
0100
1000
,  // measure 36
0001
0000
0100
0000
0010
0000
1000
0000
0001
0010
0100
0000
1000
0000
0010
0000
,  // measure 37
0100
0001
0100
0010
1000
0100
0001
0100
,  // measure 38
0010
0001
1000
0010
0100
0010
0010
0100
,  // measure 39
0001
1000
0100
0010
0100
1000
0001
0100
,  // measure 40
0010
0000
1000
0000
0001
0000
0010
0000
0100
1000
0001
0000
0100
0000
0010
0000
,  // measure 41
0100
1010
1010
0001
0010
0100
0010
0001
,  // measure 42
1000
0010
0100
0001
0010
0100
1000
0100
,  // measure 43
0010
0001
0100
0010
0100
1000
0100
0010
,  // measure 44
0001
0000
1000
0000
0100
0000
0001
0000
1000
0001
0010
0000
0100
0000
0010
0000
,  // measure 45
0001
0100
0010
0100
0001
0100
0010
0001
,  // measure 46
1000
0100
0010
1000
0001
0010
0100
0001
,  // measure 47
1000
0010
0001
0100
0010
1000
0001
0010
,  // measure 48
0100
0000
1000
0000
0100
0000
0010
0000
0001
1000
0010
0000
0100
0000
0010
0000
,  // measure 49
0200
0000
1000
0000
0010
0000
0301
0000
1000
0000
0010
0100
0000
0010
1000
0000
,  // measure 50
0002
0000
0010
0000
0103
0000
0010
0000
1000
0000
0001
0010
0000
0100
1000
0000
,  // measure 51
0020
0000
0100
0000
1030
0000
0100
0000
0010
0000
0100
0010
0000
0001
0010
0000
,  // measure 52
0200
0000
0010
0000
1300
0000
0001
0000
0100
0000
0010
1000
0000
0001
0010
0000
,  // measure 53
0200
0000
0001
0000
1300
0000
0001
0000
0100
0000
0010
1000
0000
1000
0100
1000
,  // measure 54
0002
0000
1000
0000
0103
0000
0010
0000
1000
0000
0100
0010
0000
0001
1000
0001
,  // measure 55
0200
0000
0010
0000
0301
0000
1000
0000
0100
0000
1000
0100
0000
0010
0001
1000
,  // measure 56
0020
0000
0100
0000
1030
0000
0100
0000
0010
0000
0001
0010
0000
0100
1000
0001
,  // measure 57
0100
0000
0101
0000
0101
0000
0010
0000
1000
0000
0010
0001
0000
0010
0100
0001
,  // measure 58
1000
0000
1000
0100
0000
0100
0010
0000
0001
0100
0000
0100
0010
0000
1000
0100
,  // measure 59
0010
0000
0001
0100
0000
0010
1000
0000
1000
0100
0000
0010
0001
0000
0100
0001
,  // measure 60
1000
0000
0100
0010
0000
0010
0001
0000
0001
0100
0000
0100
0010
0000
0010
1000
,  // measure 61
0001
0000
0010
0001
0000
1000
0100
0000
0100
1000
0000
0001
0100
0000
0010
1000
,  // measure 62
0100
0000
0100
0010
0000
0100
0010
0000
0010
0001
0000
0001
1000
0000
0100
0010
,  // measure 63
0001
0000
0100
1000
0000
0100
0001
0000
1000
0100
0000
0001
0100
0000
0010
0001
,  // measure 64
0100
0000
1000
0100
0000
0001
0100
0000
0010
1000
0000
0100
0001
0000
0100
0020
,  // measure 65
0002
0000
0000
0000
,  // measure 66
0000
0000
0000
0000
,  // measure 67
0033
0000
0000
0000
;
