#TITLE:Skybound;
#SUBTITLE:;
#ARTIST:Assertive;
#TITLETRANSLIT:;
#SUBTITLETRANSLIT:;
#ARTISTTRANSLIT:;
#GENRE:Hardcore;
#CREDIT:;
#BANNER:Skybound.png;
#BACKGROUND:Skybound-bg.png;
#LYRICSPATH:;
#CDTITLE:;
#MUSIC:Skybound.mp3;
#OFFSET:-9.631000;
#SAMPLESTART:32.500004;
#SAMPLELENGTH:15.000006;
#SELECTABLE:YES;
#BPMS:0.000000=175.000000
;
#STOPS:
;
#BGCHANGES:;
#KEYSOUNDS:;
#ATTACKS:;

//---------------dance-single - ----------------
#NOTES:
     dance-single:
     :
     Hard:
     13:
     0.635578,0.701580,0.048891,0.016297,0.089633,546.000000,540.000000,6.000000,2.000000,0.000000,0.000000,0.635578,0.701580,0.048891,0.016297,0.089633,546.000000,540.000000,6.000000,2.000000,0.000000,0.000000:
0000
0000
0000
0000
,
0010
1000
0100
1000
0010
1000
0001
1000
,
0010
0100
0001
0100
0010
1000
0001
0000
,
0001
0010
0100
1000
0001
1000
0010
0100
,
0001
0100
0010
1000
0001
0010
0100
0000
,
0100
1000
0010
0100
0001
0100
0010
1000
,
0001
1000
0100
0010
0001
1000
0010
0000
,
0010
1000
0100
0001
0100
1000
0010
0100
,
0001
0010
0100
1000
0001
0100
0010
0000
,
0010
1000
0100
0001
0100
1000
0010
0100
,
0001
0010
0100
1000
0001
0100
0010
0000
,
0010
0100
0001
1000
0100
0001
0100
0010
,
0001
1000
0010
0100
0001
0100
0010
0000
,
0010
1000
0100
1000
0010
0100
1000
0100
,
0001
0010
0100
1000
0001
0100
0010
0000
,
0010
1000
0100
1000
0001
0010
0100
1000
,
0001
0000
0100
0000
0010
0000
1000
0000
0001
0100
0001
0000
1000
0100
1000
0100
,
1000
0010
0001
1000
0100
0001
0010
1000
,
0001
0000
0100
0000
1000
0000
0010
0000
0100
0010
0100
0000
0001
0000
1000
0100
,
1000
0001
0100
0010
1000
0100
0010
0100
,
1000
0000
0010
0000
0100
0000
0001
0000
0010
0001
0100
0000
0010
0000
1000
0000
,
0010
0001
1000
0100
0001
0010
1000
0001
,
0100
1000
0001
0100
0010
0100
0001
0010
,
0100
1000
0010
0100
0001
0010
0100
0001
,
1000
0000
0000
0000
0010
0000
0100
0000
1000
0010
1000
0000
0001
0010
0000
0000
,
0001
0100
0010
0100
0001
1000
0100
0010
,
0100
0000
1100
1000
0000
1000
0001
0000
,
0001
0100
0010
0100
0001
0010
0100
1000
,
0001
0000
0101
0100
0000
0100
0010
0000
,
0010
1000
0100
0001
0100
0010
0001
1000
,
0010
0000
0110
0100
0000
0001
0100
0000
,
0010
1000
0100
0001
0100
1000
0010
0100
,
0001
0000
0010
0000
0100
0000
1000
0000
0100
0001
0100
0001
1000
0010
1000
0010
,
0001
0100
0000
0100
0000
0100
0000
0100
,
0000
0010
0000
0010
0000
0010
0000
0010
,
0000
1000
0000
1000
0000
1000
0000
1000
,
0000
0001
0000
0001
0000
0001
0000
0001
,
0010
0001
0000
0001
0000
0001
0000
0001
,
0100
0010
0000
0010
0000
0010
0000
0010
,
1000
0100
0000
0100
0000
0100
0000
0100
,
0010
1000
0000
1000
0000
1000
0000
1000
,
0010
0001
0000
0001
0000
0001
0000
0001
,
0100
0010
0000
0010
0000
0010
0000
0010
,
1000
0100
0000
0100
0000
0100
0000
0100
,
0001
1000
0000
1000
0000
1000
0000
1000
,
0010
0100
0000
0100
0000
0100
0000
0100
,
1000
0010
0000
0010
0000
0010
0000
0010
,
0100
0001
0000
0001
0000
0001
0000
0001
,
0010
0100
0000
0100
0000
0100
1001
0000
,
0010
1000
0100
0100
0000
1000
0001
0001
,
0000
0100
0010
0010
0000
1000
0100
1000
,
0001
0100
0010
0010
0000
0100
0001
0001
,
0000
1000
0100
0100
0000
1000
0010
0100
,
0001
1000
0100
0100
0000
0010
0001
0001
,
0000
1000
0010
0010
0000
0100
0001
1000
,
0100
0010
0100
0100
0000
1000
0010
0010
,
0000
0100
1000
1000
0000
0100
0001
0010
,
0100
1000
0010
0100
0000
0100
0010
1000
,
0000
1000
0010
0100
0000
0100
0010
1000
,
0100
0010
0001
0100
0000
0100
0001
0010
,
0000
0010
0001
0100
0000
0100
0001
0010
,
0100
1000
0001
0100
0000
0100
0001
1000
,
0000
1000
0001
0100
0000
0100
0001
1000
,
0100
1000
0010
1000
0000
1000
0001
1000
,
0000
1000
0010
1000
0000
0001
0001
0000
,
1000
0000
0010
0000
0100
0000
0001
1000
,
0000
0100
0010
0100
0000
1000
0100
0010
,
0001
0000
1000
0000
0010
0000
0100
0001
,
0000
0100
0010
0100
0000
0001
1000
0100
,
1000
0000
0010
0000
0100
0000
0001
1000
,
0000
0100
0010
0100
0000
1000
0001
0100
,
0010
0000
1000
0000
0100
0000
1000
0001
,
0000
0100
0010
0100
0000
0001
1000
0100
,
0010
0000
0000
0001
0100
0000
0010
0000
1000
0000
0000
0100
1000
0000
0001
0000
,
0100
0000
0000
0010
1000
0000
0100
0000
0010
0000
0000
0001
1000
0000
0010
0000
,
0100
0000
0000
0001
0010
0000
0100
0000
1000
0000
0000
0010
0100
0000
0001
0000
,
1000
0000
0000
0100
0010
0000
0001
0000
1000
0000
0000
0010
0100
0000
0001
0000
,
1000
0100
1000
0100
0010
0001
0010
0001
,
0100
0010
0100
0010
1000
0001
1000
0001
,
0010
0100
1000
0001
0100
0010
1000
0001
,
0010
0100
0010
0100
0010
0000
0001
0000
1000
0000
0010
0000
0110
0000
0000
0000
,
2002
0000
0000
0000
,
3003
0000
0000
0000
;

//---------------dance-single - ----------------
#NOTES:
     dance-single:
     :
     Easy:
     7:
     0.303820,0.367494,0.040742,0.081484,0.000000,261.000000,256.000000,5.000000,10.000000,0.000000,0.000000,0.303820,0.367494,0.040742,0.081484,0.000000,261.000000,256.000000,5.000000,10.000000,0.000000,0.000000:
0000
0000
0000
0000
,
0010
1000
0100
0100
,
1000
0001
0100
0000
,
0010
1000
0100
0100
,
1000
0001
0010
0000
,
0001
0100
0010
0100
,
0001
1000
0100
0000
,
1000
0010
0001
1000
,
0100
0010
1000
0001
,
0010
0100
1000
1000
,
0001
0100
0010
0000
,
0010
1000
0001
0001
,
0010
0100
1000
0000
,
0001
0100
0010
0100
,
0001
0010
0100
0000
,
1000
0010
0100
1000
,
0100
0001
1000
0000
,
1001
0000
0100
0000
,
0010
0001
1000
0010
,
0100
0000
1000
0000
,
0100
0001
0010
0100
,
1000
0000
0010
0000
,
0100
0001
0100
0010
,
1000
0000
0001
0000
,
0010
0100
1000
0001
,
0100
0010
0100
0100
,
0010
1000
0010
0010
,
1000
0001
1000
1000
,
0001
0010
0001
0001
,
0100
0010
0100
0100
,
0001
1000
0001
0001
,
0010
0100
1000
0001
,
0100
0000
0000
0010
0000
0000
0100
0000
,
0002
0000
0000
0000
,
0023
0000
0000
0000
,
0230
0000
0000
0000
,
2300
0000
0000
0000
,
3020
0000
0000
0000
,
0230
0000
0000
0000
,
2300
0000
0000
0000
,
3200
0000
0000
0000
,
0301
0001
0001
0001
,
0010
0010
0010
0010
,
0100
0100
0100
0100
,
1000
1000
1000
1000
,
0010
0010
0010
0010
,
0100
0100
0100
0100
,
0001
0001
0001
0001
,
1000
1000
1000
1001
,
1000
0001
0000
1000
,
0000
0001
0000
1000
,
0010
0100
0000
0010
,
0000
0100
0000
0010
,
0100
0001
0000
0100
,
0000
0001
0000
0100
,
0010
1000
0000
0010
,
0000
1000
0000
0010
,
1000
0001
1000
0001
,
1000
0001
1000
0000
,
0100
0010
0100
0010
,
0100
0010
0100
0000
,
1000
0010
0100
0001
,
0010
0100
1000
0000
,
0001
0010
0100
1000
,
0010
0100
0001
1001
,
0010
0000
0100
0000
0001
0000
0000
1000
,
0000
0000
0100
0000
0000
0010
0000
0000
,
0001
0000
0100
0000
0010
0000
0000
0100
,
0000
0000
0001
0000
0000
0010
0000
0000
,
0100
0000
1000
0000
0010
0000
0000
0100
,
0000
0000
1000
0000
0000
0100
0000
0000
,
0001
0000
0010
0000
0100
0000
0000
1000
,
0000
0000
0010
0000
0000
0100
0000
0000
,
0001
1000
0001
1000
,
0100
0010
0100
0000
,
0010
0001
0010
0001
,
1000
0100
1000
0000
,
0010
0010
1000
1000
,
0001
0001
0100
0100
,
0010
1000
0100
0010
,
0001
1000
0001
1001
,
0220
0000
0000
0000
,
0330
0000
0000
0000
;

//---------------dance-single - ----------------
#NOTES:
     dance-single:
     :
     Medium:
     10:
     0.419062,0.467720,0.008148,0.162969,0.000000,360.000000,359.000000,1.000000,20.000000,0.000000,0.000000,0.419062,0.467720,0.008148,0.162969,0.000000,360.000000,359.000000,1.000000,20.000000,0.000000,0.000000:
0000
0000
0000
0000
,
0010
1000
0100
1000
,
0001
0100
0000
0010
0000
1000
0000
0001
,
0010
0100
0000
1000
0000
0010
0000
0100
,
0001
0100
0010
1000
0000
0001
0000
0010
,
0100
0000
1000
0010
0000
1000
0010
0000
,
0100
0000
0001
0000
1000
0100
1000
0001
,
0100
0000
0010
0100
0000
0100
0001
0000
,
1000
0000
0100
0010
0000
0001
1000
0000
,
0010
0100
0001
0100
,
0010
1000
0000
0100
0000
1000
0000
0010
,
0100
0001
0000
1000
0000
0100
0000
0010
,
0001
1000
0010
0100
0000
0001
0000
0100
,
0010
0000
1000
0100
0000
1000
0100
0000
,
0010
0000
0001
0000
1000
0010
0100
0001
,
1000
0000
0100
1000
0000
0100
1000
0000
,
0001
0100
0010
0100
0001
1000
0100
0000
,
0010
0000
0001
0100
0000
0010
1000
0000
,
0001
0000
0010
0100
0000
1000
0001
0000
,
0100
0000
0010
1000
0000
0100
0010
0000
,
0001
0000
1000
0010
0000
0100
0001
0000
,
1000
0000
0100
0001
0000
0100
1000
0000
,
0010
0000
0001
0010
0000
1000
0010
0000
,
0100
0000
0001
0010
0000
0100
1000
0000
,
0001
0000
0100
0010
0000
1000
0001
0000
,
0100
0010
0100
0000
0001
0100
0001
0000
,
1000
0100
1000
0000
0001
0000
0010
0000
,
0100
1000
0100
0000
1000
0010
1000
0000
,
0010
0100
0010
0000
0100
0000
0001
0000
,
0010
0001
0010
0000
0100
1000
0100
0000
,
1000
0001
1000
0000
0001
0000
0100
0000
,
0010
1000
0100
0000
0010
0001
1000
0000
,
0010
0000
0100
0010
0200
0000
0302
0000
,
2003
0000
3200
0000
,
0320
0000
0032
0000
,
2003
0000
3020
0000
,
0230
0000
2300
0000
,
3002
0000
0023
0000
,
2030
0000
3200
0000
,
0320
0000
0032
0000
,
2003
0000
3020
0000
,
0030
0100
0000
0100
0000
0100
0000
0100
,
0000
0001
0000
0001
0000
0001
0000
0001
,
0000
0010
0000
0010
0000
0010
0000
0010
,
0000
0100
0000
0100
0000
0100
0000
0100
,
0000
1000
0000
1000
0000
1000
0000
1000
,
0000
0010
0000
0010
0000
0010
0000
0010
,
0000
0100
0000
0100
0000
0100
0000
0100
,
0000
0001
0000
0001
0000
0001
0000
0000
,
1000
0000
0100
1000
0000
0000
0100
1000
,
0000
0000
0001
0100
0000
0000
0001
0100
,
0001
0000
0100
0010
0000
0000
0100
0010
,
0000
0000
1000
0001
0000
0000
1000
0001
,
1000
0000
0100
1000
0000
0000
0100
1000
,
0000
0000
0001
0010
0000
0000
0001
0010
,
0001
0000
0100
0010
0000
0000
0100
0010
,
0000
0000
1000
0001
0000
1000
0001
0000
,
1000
0000
0100
1000
0000
0000
0100
1000
,
0000
0000
0001
0100
0000
0000
0001
0000
,
0100
0000
0010
0100
0000
0000
0010
0100
,
0000
0000
0001
1000
0000
0000
0001
0000
,
1000
0000
0100
1000
0000
0000
0100
1000
,
0000
0000
0010
0100
0000
0000
0010
0000
,
0100
0000
0001
0100
0000
0000
0001
0100
,
0000
0000
0001
1000
0000
1000
0001
0000
,
0010
0000
0100
0000
1000
0000
0010
0100
,
0000
0001
0000
1000
0000
0100
0000
0010
,
0001
0000
1000
0000
0010
0000
0100
1000
,
0000
0100
0000
0001
0000
0010
0000
0100
,
1000
0000
0001
0000
0100
0000
0010
1000
,
0000
0001
0000
0010
0000
0100
0000
1000
,
0010
0000
0100
0000
0001
0000
0010
0100
,
0000
1000
0000
0001
0000
0100
0000
0010
,
1000
0100
1000
0100
,
0010
0000
0001
0000
0010
0000
0001
0010
,
0001
1000
0001
1000
,
0010
0000
0100
0000
0010
0000
0100
0010
,
0100
0001
0010
0100
,
1000
0010
0100
0001
,
0010
0100
0010
0000
0100
1000
0100
0000
,
1000
0100
0001
0100
1000
0000
0001
0000
,
2002
0000
0000
0000
,
3003
0000
0000
0000
;

//---------------dance-single - ----------------
#NOTES:
     dance-single:
     :
     Beginner:
     3:
     0.115242,0.231008,0.081484,0.040742,0.000000,99.000000,89.000000,10.000000,5.000000,0.000000,0.000000,0.115242,0.231008,0.081484,0.040742,0.000000,99.000000,89.000000,10.000000,5.000000,0.000000,0.000000:
0000
0000
0000
0000
,
0001
0000
0000
0000
,
0010
0000
0000
0000
,
0100
0000
0100
0000
,
0100
0000
0000
0000
,
1000
0000
0000
0000
,
0010
0000
0000
0000
,
0100
0000
0100
0000
,
0100
0000
0000
0000
,
0001
0000
0000
0000
,
1000
0000
0000
0000
,
0010
0000
0010
0000
,
0010
0000
0000
0000
,
0100
0000
0000
0000
,
0001
0000
0000
0000
,
0010
0000
0010
0000
,
0010
0000
0000
0000
,
0110
0000
0000
0000
,
0100
0000
0000
0000
,
1000
0000
0000
0000
,
0001
0000
0000
0000
,
0100
0000
0000
0000
,
0010
0000
0000
0000
,
1000
0000
0000
0000
,
0001
0000
0000
0000
,
1001
0000
0000
0000
,
0100
0000
0000
0000
,
0010
0000
0000
0000
,
0001
0000
0000
0000
,
1000
0000
0000
0000
,
0010
0000
0000
0000
,
0100
0000
0000
0000
,
0001
0000
0000
0000
,
2002
0000
0000
0000
,
0000
0000
3003
0000
,
0200
0000
0000
0000
,
0000
0000
0300
0000
,
0020
0000
0000
0000
,
0000
0000
0030
0000
,
0002
0000
0000
0000
,
0000
0000
0003
0000
,
1000
0000
0000
0000
,
1000
0000
0000
0000
,
0010
0000
0000
0000
,
0010
0000
0000
0000
,
0100
0000
0000
0000
,
0100
0000
0000
0000
,
0001
0000
0000
0000
,
0001
0000
0000
0000
,
1001
0000
0000
0000
,
0000
0000
0000
0000
,
0010
0000
0000
0000
,
0000
0000
0000
0000
,
0100
0000
0000
0000
,
0000
0000
0000
0000
,
0001
0000
0000
0000
,
0000
0000
0000
0000
,
1000
0000
0000
1000
,
0000
1000
0000
0000
,
0010
0000
0000
0010
,
0000
0010
0000
0000
,
0100
0000
0000
0100
,
0000
0100
0000
0000
,
0001
0000
0000
0001
,
0000
0001
0000
0000
,
1001
0000
0001
0000
,
1000
0000
0001
0000
,
1000
0000
1000
0000
,
0001
0000
0000
0000
,
0100
0000
0010
0000
,
0100
0000
0100
0000
,
0010
0000
0100
0000
,
0010
0000
0000
0000
,
0110
0000
0000
0000
,
1000
0000
0000
0000
,
0001
0000
0000
0000
,
0010
0000
0000
0000
,
0110
0000
0000
0000
,
1001
0000
0000
0000
,
0110
0000
0000
0000
,
0100
0100
0100
0000
,
1001
0000
0000
0000
;

//---------------dance-single - ----------------
#NOTES:
     dance-single:
     :
     Challenge:
     16:
     0.824156,1.002257,0.374828,0.228156,0.415570,708.000000,662.000000,46.000000,28.000000,0.000000,0.000000,0.824156,1.002257,0.374828,0.228156,0.415570,708.000000,662.000000,46.000000,28.000000,0.000000,0.000000:
// measure 0
1000
0000
0100
0000
0100
0000
1000
0000
0001
0100
0010
0100
0010
1000
0100
0010
,  // measure 1
0001
0010
0001
1000
0001
0010
0100
1000
,  // measure 2
0001
0000
0100
0000
0010
0000
1000
0001
0000
0001
1000
0000
0010
0000
0100
0001
,  // measure 3
1000
0000
0010
0000
0100
0000
0010
1000
0000
1000
0001
0000
0010
0000
0100
1000
,  // measure 4
0010
0000
0100
0000
0001
0000
0010
0100
0000
0100
1000
0000
0002
0000
1000
0000
,  // measure 5
0203
0000
0000
0000
0010
0000
0320
0000
0000
0000
0100
0000
1030
0000
0010
1000
,  // measure 6
0100
0000
0010
0000
0010
0000
0001
0000
1000
0001
1000
0010
0100
0000
0020
0000
,  // measure 7
0100
1030
0101
0000
1000
0101
0000
0010
,  // measure 8
1000
0000
0100
0000
0011
0000
0010
0001
0000
0001
0010
0000
0100
1000
0001
0100
,  // measure 9
0010
0000
0100
0000
1000
0000
0100
0000
0010
0000
1000
0000
0100
0000
0010
0001
,  // measure 10
1000
0000
0010
0000
0100
0000
0010
1000
0000
0001
0010
0000
0100
0000
1000
0001
,  // measure 11
0100
0000
0010
0000
0100
0000
0001
0100
0000
1000
0100
0000
0010
0000
1000
0001
,  // measure 12
0010
0100
1000
0000
0001
0000
0010
0100
0000
0100
1000
0000
0001
0000
0010
0000
,  // measure 13
0200
0000
0010
0000
1300
0000
0002
0000
1000
0000
0103
0000
0010
1000
0001
0100
,  // measure 14
0010
0000
0100
0000
0001
0000
1000
0000
0100
0010
0001
0000
1000
0000
0020
0000
,  // measure 15
0001
0130
0110
0001
1000
1010
0000
0001
,  // measure 16
0010
0000
0100
0000
0100
0000
1000
0000
0001
1000
0001
1000
0010
0100
0010
0100
,  // measure 17
0010
0000
1000
0000
0001
0000
0010
0000
0100
0010
0001
0000
1000
0000
0010
0000
,  // measure 18
0100
0000
0000
0000
1010
0000
0000
0001
0100
0000
1010
0000
0000
0000
0001
0000
,  // measure 19
0100
0000
0010
0000
1000
0000
0100
0000
0001
0100
0010
0000
0001
0000
0010
0000
,  // measure 20
0100
0000
0000
0000
0011
0000
1000
0100
0000
0100
0010
0000
0001
0010
0000
0000
,  // measure 21
0001
0000
0100
0000
0010
0000
1000
0001
0010
0000
0100
0000
1000
0000
0001
0000
,  // measure 22
0100
0000
0000
0000
1010
0000
0000
0001
0100
0000
1010
0000
0000
0010
0100
0000
,  // measure 23
0001
0000
0010
0000
0100
0000
0010
0001
1000
0000
0010
0000
0100
0000
0010
0000
,  // measure 24
1000
0000
0000
0000
0101
0000
1000
0010
0000
0100
0010
0000
1000
0010
0000
0000
,  // measure 25
0100
0000
0001
0000
1000
0000
0100
0010
0001
0000
0010
0001
1000
0000
0010
0000
,  // measure 26
0100
0000
0000
0000
1010
0000
0000
0001
0100
0000
1010
0000
0000
0000
0100
0000
,  // measure 27
0001
0000
0010
0000
0100
0000
1000
0001
0010
0000
0001
1000
0010
0000
0010
0000
,  // measure 28
1000
0000
0000
0000
0101
0000
0010
1000
0000
0001
0100
0000
0101
0000
0001
0000
,  // measure 29
0010
0000
1000
0000
0001
0000
0100
0010
0001
0000
0010
0001
1000
0000
0010
0000
,  // measure 30
1000
0000
0000
0000
1100
0000
0000
0010
0001
0000
1100
0000
0000
0000
0010
0000
,  // measure 31
0001
0000
0100
0000
1000
0000
0100
0001
1000
0000
0100
0010
0001
0000
1000
0000
,  // measure 32
0010
0000
0100
0000
0100
0000
0001
0000
0010
0100
0010
0100
1000
0001
0100
0010
,  // measure 33
1000
0100
0000
0100
0000
0100
0000
0100
,  // measure 34
0000
0010
0000
0010
0000
0010
0001
0100
,  // measure 35
0010
1000
0000
1000
0000
1000
0000
1000
,  // measure 36
0000
0001
0000
0001
0000
0001
0010
0100
,  // measure 37
0010
0001
0000
0001
0000
0001
0000
0001
,  // measure 38
0000
0100
0000
0100
0000
0100
0010
0100
,  // measure 39
0010
1000
0000
0010
0100
0000
0100
0001
,  // measure 40
0000
1000
0000
1000
0000
0100
0010
0001
,  // measure 41
0100
0010
0100
0010
1000
0010
1000
0001
,  // measure 42
1000
0001
1000
0001
1000
0100
0001
0100
,  // measure 43
0010
0100
0010
0001
0010
0001
1000
0100
,  // measure 44
1000
0001
0010
0001
0010
0100
1000
0010
,  // measure 45
0100
0010
1000
0100
0010
0001
0010
0001
,  // measure 46
1000
0010
0100
0010
1000
0100
0010
0001
,  // measure 47
0010
0100
0010
0001
1000
0010
1000
0010
,  // measure 48
0001
0010
1000
0100
0010
0001
1100
0010
,  // measure 49
0012
0010
0103
0010
0000
0200
0010
0301
,  // measure 50
0000
0020
0001
1030
0000
0010
0001
0200
,  // measure 51
0010
0001
1300
0100
0000
0002
1000
0013
,  // measure 52
0000
0200
0001
1300
0000
0100
1000
0002
,  // measure 53
0100
0023
1000
0031
0000
0002
0100
0013
,  // measure 54
0000
0200
0010
1300
0000
0010
1000
0100
,  // measure 55
0010
0002
0100
0013
0000
0020
1000
0031
,  // measure 56
0000
0200
1000
0301
0000
0010
1100
0010
,  // measure 57
0011
0010
0100
1000
0000
0001
0100
0101
,  // measure 58
0000
1000
0100
1100
0000
0011
0001
0100
,  // measure 59
1010
0010
0100
0001
0000
0001
1000
1100
,  // measure 60
0000
0100
0010
0011
0000
1000
0110
0001
,  // measure 61
1100
0001
0100
0010
0000
0102
0100
1003
,  // measure 62
0000
2100
0100
3001
0000
0021
1000
0031
,  // measure 63
0201
0010
1000
0301
0000
2001
0100
3010
,  // measure 64
0000
0201
1000
0301
0000
0010
1100
0001
,  // measure 65
0101
0000
0010
0000
1000
0000
0100
0000
1000
0000
0010
0100
0001
0000
0010
0000
,  // measure 66
0100
0000
1000
0001
0100
0000
0010
0000
0100
0000
0001
1000
0100
0000
0010
0001
,  // measure 67
1000
0000
0010
0000
1000
0000
1100
0000
0000
0000
0010
0001
1000
0000
0010
0000
,  // measure 68
0100
0000
0001
1000
0100
0000
0010
0000
0001
0000
0100
0010
1000
0000
0100
0000
,  // measure 69
0010
0000
0001
0010
0100
0000
0010
0000
0001
0000
1000
0010
0100
0000
0001
0000
,  // measure 70
1000
0000
0100
0010
0001
0000
1000
0000
0010
0000
0100
0001
1000
0000
0100
0010
,  // measure 71
0001
0000
1000
0000
0010
0000
0001
0000
0010
0000
0100
0001
1000
0000
0100
0000
,  // measure 72
0010
0000
0001
1000
0010
0000
0100
0000
0010
0000
1000
0100
0010
0000
0001
0100
,  // measure 73
0010
0000
0000
1000
0100
0000
0010
0000
0011
0000
0000
0100
1000
0000
0001
0000
,  // measure 74
1001
0000
0000
0100
0010
0000
1000
0000
1010
0000
0000
0001
0010
0000
0100
0000
,  // measure 75
1100
0000
0000
0010
0001
0000
0100
0000
0101
0000
0000
0010
1000
0000
0001
0000
,  // measure 76
0011
0000
0000
0100
1000
0000
0001
0000
0101
0000
0000
1000
0100
0000
0010
0000
,  // measure 77
0100
0010
0100
0010
0001
0100
0001
0100
,  // measure 78
0010
1000
0010
1000
0001
0010
0001
0010
,  // measure 79
0100
1000
0001
0010
0100
0010
0001
1000
0010
0100
0010
1000
0001
1000
0010
0100
,  // measure 80
0010
1000
0001
0010
0100
0000
0100
1000
0001
0100
0010
1000
0100
0000
0000
0000
,  // measure 81
0202
0000
0000
0000
,  // measure 82
0303
0000
0000
0000
;
