#TITLE:Raise This Barn;
#SUBTITLE:;
#ARTIST:♪♪♪♪♪;
#TITLETRANSLIT:;
#SUBTITLETRANSLIT:;
#ARTISTTRANSLIT:;
#GENRE:My Little Pony;
#CREDIT:;
#BANNER:Raise This Barn.png;
#BACKGROUND:Raise This Barn-bg.png;
#LYRICSPATH:;
#CDTITLE:;
#MUSIC:Raise This Barn.mp3;
#OFFSET:1.451;
#SAMPLESTART:28.040;
#SAMPLELENGTH:15.000;
#LASTBEATHINT:0.837;
#SELECTABLE:YES;
#DISPLAYBPM:130.000;
#BPMS:0.000=130.000
,4.000=129.940
,8.000=130.000
,228.000=106.500
,229.000=95.000
,232.000=94.500
,244.000=92.500
,264.000=93.500
,266.000=60.000
,267.000=65.000
,268.000=130.001
;
#STOPS:
;
#BGCHANGES:3.500=Raise This Barn.avi=1.000=0=0=0=StretchNoLoop====,
99999=-nosongbg-=1.000=0=0=0 // don't automatically add -songbackground-
;
#KEYSOUNDS:;
#ATTACKS:;

//---------------dance-single - ----------------
#NOTES:
     dance-single:
     :
     Hard:
     9:
     0.411,0.409,0.126,0.171,0.000,348.000,17.000,23.000,0.000,0.000,0.000,0.411,0.409,0.126,0.171,0.000,348.000,17.000,23.000,0.000,0.000,0.000:
0000
0000
0000
0000
,
0000
0000
0000
0000
,
0010
0000
1000
0000
0100
1000
0001
0000
,
0100
0000
0010
0000
1000
0100
0010
0000
,
0010
0001
0100
0000
0010
1000
0001
0000
,
0010
0010
0100
0100
,
1000
0001
0100
0000
0010
1000
0001
0000
,
0010
0010
0100
0100
,
1000
0100
1000
0000
0001
0100
0001
0000
,
0010
0000
0100
0000
1000
0010
0100
0000
,
0001
0000
1000
0000
0100
0010
0100
0000
,
1000
0000
0001
0000
0100
0010
0100
0000
,
0001
1000
0100
0010
,
0100
1000
0001
0000
0100
0010
1000
0000
,
0100
0010
0100
1000
,
0010
0100
0001
1000
0100
0000
0010
0000
,
0001
0100
0010
0000
1000
0100
0010
0000
,
0100
1000
0010
0001
,
0100
0010
0001
0000
1000
0010
0100
0000
,
0001
0010
1000
0100
,
0001
0010
0001
0000
1000
0100
1000
0000
,
0010
0100
0010
0000
1000
0001
1000
0000
,
0001
0010
0100
0000
1000
0010
0100
0000
,
0101
0011
1100
1001
,
0010
0000
0100
0000
0001
1000
0100
0100
,
1000
0000
0010
0000
0100
0001
0010
0010
,
0001
0100
0020
0000
1030
0100
2000
0000
,
3010
0001
0100
1000
,
0010
0100
0002
0000
0013
0100
2000
0000
,
3020
0032
0203
2300
,
3010
0100
0001
0000
0100
0010
1000
0000
,
0001
0010
0100
1000
0100
0010
0001
0000
,
0010
0100
1000
0000
0001
0100
0010
0000
,
1010
1100
0011
0101
,
0010
0000
0100
0000
0001
1000
0100
0000
,
0010
0000
0100
0000
1000
0010
0100
0000
,
0001
2000
0000
3010
0100
0001
1000
0000
,
0100
0010
0001
0100
,
0010
1000
0100
0010
0001
0010
0200
0000
,
1300
0010
0100
0100
0010
1000
0001
0000
,
0100
1000
0010
0001
,
0100
0010
0100
0001
1000
0100
0010
0000
,
0001
0100
0010
1000
,
0100
0010
0100
1000
0010
0100
0001
0000
,
1000
0000
0100
0000
0010
0001
0100
0000
,
0010
1000
0001
0000
0001
1000
0010
0010
,
0100
0001
1000
0000
0100
0010
0001
0000
,
1000
0010
0100
0100
0010
1000
0001
0000
,
0010
0000
0100
0000
,
0110
0110
1001
1001
,
0010
0000
0100
0000
,
0110
1001
0110
1001
,
0001
1000
0010
0100
,
1000
0010
0100
0001
,
1000
0100
0010
0001
,
1000
0000
0010
0000
0100
0001
1000
0000
,
0100
0010
0001
0100
,
0010
1000
0100
0010
0002
0000
0000
0000
,
1003
0010
0100
0000
0010
1000
0001
0000
,
0020
0000
0230
0000
2300
0000
0000
0010
,
3010
0100
0001
1000
0100
0100
0010
0000
,
0002
2003
3020
0000
,
0130
0001
0100
0010
1000
0100
0020
0000
,
0130
1000
0001
0100
0010
1000
0001
0000
,
0010
0100
1000
0100
0010
0001
2000
0000
,
0000
0000
3000
0010
0200
0000
0301
1000
,
0100
0020
0000
0030
0002
0000
2003
0000
,
3010
0100
0001
1000
0100
0010
0001
0000
,
0100
0000
1000
0000
0010
0000
0001
1001
;

//---------------dance-single - ----------------
#NOTES:
     dance-single:
     :
     Beginner:
     1:
     0.089,0.128,0.000,0.000,0.000,84.000,0.000,0.000,0.000,0.000,0.000,0.089,0.128,0.000,0.000,0.000,84.000,0.000,0.000,0.000,0.000,0.000:
0000
0000
0000
0000
,
0000
0000
0000
0000
,
0000
0000
0000
0000
,
0000
0000
0000
0000
,
1000
0000
0000
0000
,
0010
0010
0010
0010
,
0000
0000
0000
0000
,
0100
0100
0100
0100
,
0000
0000
0000
0000
,
0001
0000
0000
0000
,
1000
0000
0000
0000
,
0100
0000
0000
0000
,
0010
0000
0000
0000
,
0001
0000
0000
0000
,
1000
0000
0000
0000
,
0010
0000
0000
0000
,
0100
0000
0000
0000
,
0001
0001
0001
0001
,
0000
0000
0000
0000
,
0010
0010
0010
0010
,
0000
0000
0000
0000
,
0100
0000
0000
0000
,
1000
0000
0000
0000
,
0001
0000
0000
0000
,
0100
0000
0000
0000
,
0010
0000
0000
0000
,
1000
0000
0000
0000
,
0100
0100
0100
0100
,
0000
0000
0000
0000
,
0010
0010
0010
0010
,
0000
0000
0000
0000
,
0001
0000
0000
0000
,
0100
0000
0000
0000
,
0010
0000
0000
0000
,
1000
0000
0000
0000
,
0100
0000
0000
0000
,
1000
0000
0000
0000
,
0001
0000
0000
0000
,
0100
0000
0000
0000
,
0010
0000
0000
0000
,
1000
0000
0000
0000
,
0100
0000
0000
0000
,
0010
0000
0000
0000
,
0001
0000
0000
0000
,
1000
0000
0000
0000
,
0010
0000
0000
0000
,
0100
0000
0000
0000
,
0001
0000
0000
0000
,
1000
0000
0000
0000
,
0100
0100
0100
0100
,
0000
0000
0000
0000
,
0010
0010
0010
0010
,
0000
0000
0000
0000
,
0001
0000
0000
0000
,
1000
0000
0000
0000
,
0010
0000
0000
0000
,
0100
0000
0000
0000
,
0001
0000
0000
0000
,
0010
0000
0000
0000
,
0100
0000
0000
0000
,
1000
0000
0000
0000
,
0010
0000
0000
0000
,
0100
0000
0000
0000
,
0001
0000
0000
0000
,
1000
0000
0000
0000
,
0100
0000
0000
0000
,
0010
0000
0001
0001
,
0001
0000
0000
0000
,
1000
0000
0000
0000
0000
0000
0000
0001
;

//---------------dance-single - ----------------
#NOTES:
     dance-single:
     :
     Easy:
     3:
     0.162,0.179,0.007,0.096,0.000,139.000,1.000,13.000,0.000,0.000,0.000,0.162,0.179,0.007,0.096,0.000,139.000,1.000,13.000,0.000,0.000,0.000:
0000
0000
0000
0000
,
0000
0000
0000
0000
,
0000
0000
0000
0000
,
0000
0000
0000
0000
,
1000
0000
1000
0000
,
0010
0010
0010
0010
,
0020
0000
0030
0000
,
0100
0100
0100
0100
,
0200
0000
0300
0000
,
0001
0000
0001
0000
,
1000
0000
1000
0000
,
0100
0000
0100
0000
,
0010
0000
0010
0000
,
0001
0000
0001
0000
,
1000
0000
1000
0000
,
0010
0000
0010
0000
,
0100
0000
0100
0000
,
0001
0001
0001
0001
,
0002
0000
0003
0000
,
0010
0010
0010
0010
,
0020
0000
0030
0000
,
0100
0000
0100
0000
,
1000
0000
1000
0000
,
0001
0000
0001
0000
,
0100
0000
0100
0000
,
0010
0000
0010
0000
,
1000
0000
1000
0000
,
0100
0100
0100
0100
,
0200
0000
0300
0000
,
0010
0010
0010
0010
,
0020
0000
0030
0000
,
0001
0000
0001
0000
,
0100
0000
0100
0000
,
0010
0000
0010
0000
,
1000
0000
1000
0000
,
0100
0000
0100
0000
,
1000
0000
1000
0000
,
0001
0000
0001
0000
,
0100
0000
0100
0000
,
0010
0000
0010
0000
,
1000
0000
1000
0000
,
0100
0000
0100
0000
,
0010
0000
0010
0000
,
0001
0000
0001
0000
,
1000
0000
1000
0000
,
0010
0000
0010
0000
,
0100
0000
0100
0000
,
0001
0000
0001
0000
,
1000
0000
1000
0000
,
0100
0100
0100
0100
,
0200
0000
0300
0000
,
0010
0010
0010
0010
,
0020
0000
0030
0000
,
0001
0000
0001
0000
,
1000
0000
1000
0000
,
0010
0000
0010
0000
,
0100
0000
0100
0000
,
0001
0000
0001
0000
,
0001
0000
0010
0000
,
0200
0000
0300
0000
,
1000
0000
0010
0000
,
0200
0000
0300
0000
,
0001
0000
1000
0000
,
0100
0000
0010
0000
,
0001
0000
0100
0200
,
0000
0300
0001
1000
,
0001
0000
0002
2003
,
3001
0000
0100
0000
,
0010
0000
0000
0000
1000
0000
0000
1001
;

//---------------dance-single - ----------------
#NOTES:
     dance-single:
     :
     Medium:
     6:
     0.302,0.281,0.007,0.059,0.000,276.000,1.000,8.000,0.000,0.000,0.000,0.302,0.281,0.007,0.059,0.000,276.000,1.000,8.000,0.000,0.000,0.000:
0000
0000
0000
0000
,
0000
0000
0000
0000
,
0010
1000
0100
0100
,
0010
0001
1000
0010
,
0100
0001
0100
0100
,
0010
0010
0010
0010
,
1000
0100
0010
0100
,
1000
1000
1000
1000
,
0010
0001
0010
1000
,
0001
0000
0010
0000
0100
1000
0100
0000
,
0010
0001
0100
0010
,
0100
0000
0001
0000
0010
0000
0100
0100
,
1000
0010
0100
0001
,
1000
0100
0001
0100
,
1000
0010
0100
0001
,
1000
0100
0010
0001
,
1000
1000
0010
0010
,
0100
0100
0100
0100
,
0001
0001
0010
0010
,
0100
0100
0100
0100
,
1000
0000
0010
0000
0100
0001
0100
0000
,
0010
0000
0010
0000
1000
0001
1000
0000
,
0100
0000
0100
0000
0010
0001
0010
0000
,
0100
0000
0100
0000
1000
0001
2000
0000
,
3010
0100
0001
1000
,
0100
0010
0001
0001
,
0100
0010
0100
0000
0001
1000
0001
0000
,
0010
0010
0010
0010
,
0100
1000
0100
0000
0010
0001
0010
0000
,
0001
0001
1000
1000
,
0010
0100
0010
0000
1000
0001
1000
0000
,
0100
0000
0010
0000
0001
1000
0001
0000
,
0100
0010
1000
0100
,
1000
0000
0010
0000
0100
0001
0200
0000
,
0310
1000
0100
0100
,
0001
0100
0010
0010
,
0001
0000
0100
0000
0010
1000
0010
0000
,
0100
0001
1000
0100
,
0010
0000
0001
0000
1000
0010
1000
0000
,
0010
0000
0100
0000
0001
1000
0001
0000
,
0100
1000
0010
0001
,
0100
0000
0010
0000
1000
0001
1000
0000
,
0010
0001
0100
1000
,
0010
0000
0100
0000
0001
1000
0100
0000
,
0010
0000
0001
0000
1000
0010
0100
0000
,
0010
0000
1000
0000
0100
0010
0100
0000
,
1000
0000
0010
0000
0100
0001
0100
0000
,
0010
1000
1001
0000
,
0010
0000
0100
0000
,
0001
0010
0100
1000
,
0010
0000
0100
0000
,
0010
1000
0100
0001
,
0100
0000
0010
0000
,
0001
0000
0100
0000
,
0010
0000
1000
0000
,
0001
0010
0100
1000
,
0001
0000
0100
0000
0010
1000
0010
0000
,
0100
0001
2000
0000
,
3010
0000
0100
0000
0001
1000
0001
0000
,
0200
0000
0300
0000
,
0010
0000
1000
0000
0001
0010
0001
0000
,
0200
0000
0300
0000
,
0010
0000
1000
0000
0100
1000
0001
0000
,
0100
0000
0010
0000
1000
0001
1000
0000
,
0010
0001
0100
2000
,
0000
3000
0001
0100
,
0010
0010
0000
0000
2000
0000
3002
0000
,
1003
0010
0100
0001
,
0100
0000
0010
0000
1000
0000
0001
0001
;

//---------------dance-solo - ----------------
#NOTES:
     dance-solo:
     :
     Edit:
     1:
     0.000,0.000,0.000,0.000,0.000,0.000,0.000,0.000,1.000,0.000,0.000,0.000,0.000,0.000,0.000,0.000,0.000,0.000,0.000,1.000,0.000,0.000:
000000
000000
000000
000000
,
000000
000000
000000
000000
,
000000
000000
000000
000000
,
000000
000000
000000
000000
,
000000
000000
000000
000000
,
000000
000000
000000
000000
,
000000
000000
000000
000000
,
000000
000000
000000
000000
,
000000
000000
000000
000000
,
000000
000000
000000
000000
,
000000
000000
000000
000000
,
000000
000000
000000
000000
,
000000
000000
000000
000000
,
000000
000000
000000
000000
,
000000
000000
000000
000000
,
000000
000000
000000
000000
,
000000
000000
000000
000000
,
000000
000000
000000
000000
,
000000
000000
000000
000000
,
000000
000000
000000
000000
,
000000
000000
000000
000000
,
000000
000000
000000
000000
,
000000
000000
000000
000000
,
000000
000000
000000
000000
,
000000
000000
000000
000000
,
000000
000000
000000
000000
,
000000
000000
000000
000000
,
000000
000000
000000
000000
,
000000
000000
000000
000000
,
000000
000000
000000
000000
,
000000
000000
000000
000000
,
000000
000000
000000
000000
,
000000
000000
000000
000000
,
000000
000000
000000
000000
,
000000
000000
000000
000000
,
000000
000000
000000
000000
,
000000
000000
000000
000000
,
000000
000000
000000
000000
,
000000
000000
000000
000000
,
000000
000000
000000
000000
,
000000
000000
000000
000000
,
000000
000000
000000
000000
,
000000
000000
000000
000000
,
000000
000000
000000
000000
,
000000
000000
000000
000000
,
000000
000000
000000
000000
,
000000
000000
000000
000000
,
000000
000000
000000
000000
,
000000
000000
000000
000000
,
000000
000000
000000
000000
,
000000
000000
000000
000000
,
000000
000000
000000
000000
,
000000
000000
000000
000000
,
000000
000000
000000
000000
,
000000
000000
000000
000000
,
000000
000000
000000
000000
,
000000
000000
000000
000000
,
000000
000000
000000
000000
,
000000
000000
000000
000000
,
000000
000000
000000
000000
,
000000
000000
000000
000000
,
000000
000000
000000
000000
,
000000
000000
000000
000000
,
000000
000000
000000
000000
,
000000
000000
000000
000000
,
000000
000000
000000
000000
,
000000
000000
000000
000000
,
000000
000000
000000
000000
,
000000
000000
000000
000000
,
000000
000000
000000
000M00
;

//---------------dance-single - ----------------
#NOTES:
     dance-single:
     :
     Challenge:
     13:
     0.613,0.588,0.401,0.260,0.241,489.000,54.000,35.000,0.000,0.000,0.000,0.613,0.588,0.401,0.260,0.241,489.000,54.000,35.000,0.000,0.000,0.000:
0000
0000
0000
0000
,
0000
0000
0000
0000
,
1000
0000
0010
0100
0010
0000
0000
1000
0100
0000
0010
0001
0010
0000
0000
0010
,
0001
0010
0001
0010
0100
1000
0100
1000
0001
1000
0001
0000
1001
0000
0000
0000
,
1000
0010
0110
0000
0001
1000
1100
0000
,
0110
0000
0011
0000
1100
0000
1010
0010
,
0100
0001
1000
0100
0010
0100
1100
0000
,
1010
0011
0101
1100
,
1000
0010
0110
0000
0100
0001
1001
0000
,
1000
0100
1000
0000
0020
0000
0000
0000
0130
0000
0001
0000
0200
0000
0000
0000
,
0310
1000
0010
0000
0100
0000
0001
0000
0100
0000
0010
0000
0110
0000
0000
0000
,
0010
1000
0010
0000
0100
0000
0100
0000
0001
0000
1000
0000
0100
0000
0110
0000
,
0000
0000
0010
0000
0001
0100
0001
0100
0001
0000
0100
0000
0010
1000
0010
0000
,
0100
0000
0001
0000
1000
0100
0010
0001
1000
0000
0010
0000
1001
0000
0100
0000
,
0010
0200
0000
0000
0000
0000
0301
0000
,
0010
0000
0200
0000
0000
0000
0310
0001
0010
0000
0100
0000
2000
0000
0000
0000
,
3001
0100
0110
0000
0010
1000
1100
0000
,
0101
0000
1100
0000
1001
0000
0101
0100
,
0010
1000
0100
0010
0100
1000
1001
0000
,
0001
1100
0100
0011
,
0001
0000
0001
0000
0200
0000
0300
0000
0010
1000
0010
0000
0200
0000
0301
0000
,
0010
0001
0100
1000
0100
0010
1000
0000
,
0100
0000
0010
0000
0001
0000
1000
0010
1000
0000
0010
0000
0110
0000
0000
0000
,
0100
0001
0100
0000
0010
0000
0010
0000
1000
0000
0010
0000
0100
0000
1001
0000
,
0000
0000
0001
0010
0001
0000
1000
0100
1000
0000
0010
0000
0100
0000
0002
0000
,
0000
0000
1003
0010
1000
0000
0001
0100
0001
0000
0100
0000
0010
0000
1000
0000
,
0010
1000
1001
0000
0001
0010
0110
0000
,
1100
0000
1010
0000
0011
0000
1010
1000
,
0100
0010
0001
0100
0010
0100
0101
0000
,
0011
1100
1010
1001
,
0001
0100
0010
0010
0100
0001
2000
0000
,
3100
0010
0001
0100
0010
0100
0002
0000
,
1003
0100
1000
0000
0010
0000
0100
0001
0100
0000
0010
0000
2000
0000
0000
0000
,
3100
0010
0100
0000
1000
0000
0010
0000
0100
0000
0001
0000
1000
0000
1001
0000
,
0000
0000
1000
0010
1000
0000
0001
0010
0001
0000
0100
0000
0100
0000
0001
1000
,
0001
0000
0001
0000
0000
0001
1000
0000
0010
0000
0100
0000
0001
0000
0000
0000
,
1000
0020
0000
0130
0001
1000
1100
0000
,
0100
0010
0001
0010
0100
1000
0001
0100
,
0100
0010
1000
0100
0001
0100
1000
0000
,
0010
0000
0100
0000
0001
1000
0001
0000
0010
0000
0100
0000
2000
0000
0000
0000
,
3010
0100
0010
0000
1000
0000
0001
0000
0010
0000
0100
0000
2000
0000
0000
0000
,
3001
0100
1000
0001
0010
1000
0200
0000
,
0310
0001
0100
1000
0010
0001
0200
0010
,
0310
0000
1000
0100
1000
0000
0010
0000
0100
0000
0001
0000
1000
0000
1001
0000
,
0000
0000
1000
0100
1000
0000
0001
0100
0001
0000
0100
0000
0010
1000
0010
0000
,
0100
0000
0001
0000
0000
0001
1000
0000
0010
0000
0100
0000
0002
0000
0000
0000
,
1003
0000
0000
1000
0010
0000
0100
0000
0001
0000
1000
0100
1000
0000
0001
0100
,
0001
0000
0010
0000
0001
0100
0001
1000
0001
0000
1000
0000
1001
0000
0000
0000
,
1000
1000
1001
0000
0001
0001
1001
0000
,
1001
0011
1100
1001
,
0001
0001
0100
0010
0100
0001
1000
0000
,
1100
0110
0011
1001
,
0001
0000
0100
0000
0010
0000
0010
0000
0100
0000
0001
2000
0000
0000
0000
0000
,
3100
0010
0001
0100
0010
1000
0001
0000
,
1000
0100
1000
0000
0010
0000
0100
0001
0100
0000
0010
0000
2000
0000
0000
0000
,
3001
0010
0001
0000
0100
0000
0010
0000
1000
0000
0001
0000
0020
0000
0000
0000
,
0230
0000
0000
0000
1300
0010
1000
0001
0100
0000
0010
0000
0100
0001
0010
0100
,
1000
0000
0000
0000
0000
0000
0000
0000
0000
0000
0000
0000
0000
0000
0000
0000
0000
0000
0000
0000
0000
0000
0000
0000
0000
0000
0000
0000
0000
0000
0000
0000
0001
0000
0000
0000
0000
0000
0000
0000
0000
0000
0000
0000
0000
0000
0000
0000
0000
0000
0000
0000
0000
0000
0100
0000
0000
0000
0000
0000
0000
0000
0000
0000
0000
0000
0000
0000
0000
0000
0000
0000
0000
0000
0000
0000
0000
0000
0010
0000
0000
0000
0000
0000
0000
0000
0000
0000
0000
0000
0000
0000
0000
0000
0000
0000
0000
0000
0000
0000
0000
0000
2000
0000
0000
0000
0000
0000
0000
0000
0000
0000
0000
0000
0000
0000
0000
0000
0000
0000
0000
0000
0000
0000
0000
0000
0000
0000
0000
0000
0000
0000
0000
0000
0000
0000
0000
0000
0000
0000
0000
0000
0000
0000
0000
0000
0000
0000
0000
0000
0000
0000
0000
0000
0000
0000
0000
0000
0000
0000
0000
0000
0000
0000
0000
0000
0000
0000
0001
0000
0000
0000
0000
0000
0000
0000
0000
0000
0000
0000
0000
0000
0000
0000
0000
0000
0000
0000
0000
0000
0000
0000
,
3001
0010
0100
1000
0001
0100
0010
0000
,
2000
0000
0000
3000
0200
0000
0000
0000
0320
0000
0000
0000
0000
0000
0001
0000
,
0031
0100
0010
0100
0001
1000
0100
0000
,
0020
0032
2003
0000
,
3010
0100
0001
1000
0100
0001
0200
0000
,
0310
0001
0100
0010
1000
0001
0020
0000
,
0130
1000
0001
0100
0010
1000
0200
0000
,
0000
0000
0300
1000
0020
0000
0130
0001
,
0100
0000
0010
0000
1000
0001
1000
0000
0020
0000
0000
0000
0230
0000
0000
0000
,
0302
0000
0000
0000
0013
0000
0100
0000
1000
0000
0001
0100
0001
0100
0001
0000
,
0010
0001
0010
0001
1000
0100
1000
0100
1000
0001
1000
0001
1000
0000
1001
0000
;
