#VERSION:0.81;
#TITLE:Raise This Barn (Hoedown Mix);
#SUBTITLE:;
#ARTIST:Eurobeat Brony & Wild Joe's Eurobeat Band;
#TITLETRANSLIT:;
#SUBTITLETRANSLIT:;
#ARTISTTRANSLIT:;
#GENRE:Country Eurobeat;
#ORIGIN:;
#CREDIT:;
#BANNER:Raise This Barn (Hoedown Mix).png;
#BACKGROUND:Raise This Barn (Hoedown Mix)-bg.png;
#PREVIEWVID:;
#JACKET:Raise This Barn (Hoedown Mix)-jacket.png;
#CDIMAGE:;
#DISCIMAGE:;
#LYRICSPATH:;
#CDTITLE:;
#MUSIC:Raise This Barn (Hoedown Mix).mp3;
#OFFSET:-0.090;
#SAMPLESTART:36.960;
#SAMPLELENGTH:15.000;
#SELECTABLE:YES;
#BPMS:0.000=156.000;
#STOPS:;
#DELAYS:;
#WARPS:;
#TIMESIGNATURES:0.000=4=4;
#TICKCOUNTS:0.000=4;
#COMBOS:0.000=1;
#SPEEDS:0.000=1.000=0.000=0;
#SCROLLS:0.000=1.000;
#FAKES:;
#LABELS:0.000=Song Start;
#BGCHANGES:;
#KEYSOUNDS:;
#ATTACKS:
;

//---------------dance-single - ----------------
#NOTEDATA:;
#CHARTNAME:;
#STEPSTYPE:dance-single;
#DESCRIPTION:;
#CHARTSTYLE:;
#DIFFICULTY:Hard;
#METER:14;
#RADARVALUES:0.822,0.713,0.312,0.329,0.552,574.000,35.000,37.000,0.000,0.000,0.000,0.000,0.000,0.822,0.713,0.312,0.329,0.552,574.000,35.000,37.000,0.000,0.000,0.000,0.000,0.000;
#CREDIT:;
#NOTES:
0000
0000
0000
0000
,
0000
0000
0000
0000
,
0000
0000
0000
0000
,
0000
0000
0000
0000
,
1000
0000
0010
0000
0100
0000
0001
0000
0010
0100
0010
0000
0100
0000
1000
0000
,
0001
0000
1000
0000
0100
0000
0010
0000
0100
0000
1000
0001
0000
0001
1000
0000
,
0001
0000
1000
0000
0010
0000
0100
0000
0001
1000
0001
0000
0010
0000
0100
0000
,
1000
0000
0001
0100
0010
0000
1000
0000
0000
0000
0001
0000
1001
0000
1000
0010
,
1000
0000
0010
0100
0010
0000
0100
0001
0200
0000
0001
0000
0301
0000
1000
0100
,
1000
0000
0100
0010
0100
0000
0010
0001
0020
0000
0000
0000
0031
0000
0000
0000
,
1000
0000
0001
0100
0001
0000
1000
0100
2000
0000
0000
0000
3001
1000
0001
0000
,
0010
0000
0100
1000
0001
0000
0100
0000
2010
0000
0000
0000
3100
0000
0000
0000
,
0001
0000
0100
0010
0100
0000
0010
1000
0020
0000
1000
0000
1030
0000
0001
0010
,
0001
0000
0010
0100
0010
0000
0100
1000
0200
0000
0000
0000
1300
0000
0000
0000
,
0001
0000
1000
0010
1000
0000
0001
0010
0002
0000
0000
0000
1003
0001
1000
0000
,
0100
0000
0010
0001
1000
0000
0010
0000
0102
0000
0000
0000
0013
0000
0000
0000
,
0002
0100
0103
0000
2000
0100
3100
0000
,
0101
0000
0000
0000
1010
0000
0000
0000
0011
0000
0000
0000
1100
0000
0000
0100
,
0001
0100
1000
0010
0200
0001
0301
0000
,
1010
0101
0011
1100
,
0010
0010
0010
0000
1000
0010
0001
0000
,
0010
0100
0010
0000
0010
0000
0000
0000
1000
0000
0100
0000
0001
0000
0000
0000
,
0100
1000
0100
0000
0100
0000
1000
0010
1000
0000
1000
0000
0010
0000
0000
0000
,
0100
0001
1000
0000
0100
0000
0100
0000
0010
0000
0001
0000
2002
0000
3003
0000
,
2000
0010
3010
0000
0002
0010
0013
0000
,
1010
0000
0000
0000
0101
0000
0000
0000
1100
0000
0000
0000
0011
0000
0000
0010
,
1000
0010
0001
0100
0020
1000
1030
0000
,
0101
1010
1100
0011
,
0001
0100
0001
0000
0001
0000
0000
1000
0100
0000
0010
0000
0010
0000
0000
0000
,
0001
0100
1000
0100
0010
1000
1000
0000
,
0100
1000
0100
0000
0100
0000
1000
0010
1000
0000
1000
0000
0010
0000
0000
0000
,
0100
0000
0010
0000
1000
0000
0100
0000
0001
0000
0100
0000
1001
0000
0001
0100
,
0001
0000
0100
0010
0100
0000
0010
1000
0020
0000
1000
0000
1030
0000
0001
0010
,
0001
0000
0010
0100
0010
0000
0100
1000
0200
0000
0000
0000
1300
0000
0000
0000
,
0001
0000
1000
0010
1000
0000
0001
0010
0002
0000
0000
0000
1003
0001
1000
0000
,
0100
0000
0010
0001
1000
0000
0010
0000
0102
0000
0000
0000
0013
0000
0000
0000
,
1000
0000
0010
0100
0010
0000
0100
0001
0200
0000
0001
0000
0301
0000
1000
0100
,
1000
0000
0100
0010
0100
0000
0010
0001
0020
0000
0000
0000
0031
0000
0000
0000
,
1000
0000
0001
0100
0001
0000
1000
0100
2000
0000
0000
0000
3001
1000
0001
0000
,
0010
0000
0100
1000
0001
0000
0100
0000
2010
0000
0000
0000
3100
0000
0000
0000
,
1000
0010
0001
0010
0100
0100
0100
0000
,
0001
1000
0001
0000
0010
0000
1000
0000
0010
0000
0010
0000
0010
0000
0001
0000
,
1000
0100
0001
0100
0010
0010
0010
0000
,
0001
0000
0100
0000
1000
0100
1000
0000
0100
0000
0010
0000
0010
0000
0000
0000
,
1000
0000
0001
0010
0001
0000
0001
0010
0001
0000
1000
0000
1001
0000
0000
0000
,
0001
0000
1000
0010
1000
0000
1000
0010
1000
0000
0001
0000
1001
0000
0000
0000
,
1000
0000
0001
0100
0001
0000
0001
0100
0001
0000
1000
0000
1001
0000
0000
0000
,
0220
0000
0330
0000
0000
1100
0101
0000
,
1000
0000
0000
1000
0000
1000
0010
0000
0100
0001
0100
0000
0010
0000
1000
0000
,
0001
0000
0010
0100
0000
0100
0010
0000
0001
1000
0001
0000
0100
0010
0000
0000
,
1000
0100
0001
0100
0010
0001
1000
0010
,
0100
0000
0001
0000
1000
0100
0000
0000
0010
0000
0000
0010
0000
0000
0100
0000
,
1000
0001
1000
0000
1000
0001
0000
0001
1000
0000
0010
0000
0100
0001
0100
0000
,
0010
0000
0000
0010
0000
0000
1000
0000
0000
1000
0000
0000
0001
0010
0001
0000
,
0000
0000
1000
0100
1000
0100
0000
0000
1000
0010
1000
0010
0000
1000
0001
0000
,
1000
0010
1000
0000
0001
0100
0001
0000
1000
0001
1000
0000
0110
0000
0000
0000
,
1000
0000
0100
0000
0010
0001
0010
0000
0100
0000
1000
0001
1000
0010
0000
0000
,
1000
0000
0010
0100
0010
0000
1000
0000
0001
0000
0010
0100
0010
0000
0001
0000
,
1000
0000
0001
0010
0000
0010
0001
0000
1000
0100
1000
0001
0000
0000
1000
0000
,
0001
0000
0100
0000
0010
1000
0010
0000
1000
0000
0100
0000
0010
0001
0010
0000
,
0001
0000
0100
0000
1000
0000
0100
0000
0001
1000
0001
1000
0002
0000
1003
0000
,
0001
0000
0010
0000
1000
0000
0010
0000
0001
1000
0001
1000
0002
0000
1003
0000
,
0001
0010
0001
0000
1000
0010
1000
0000
0001
0100
0001
0000
1000
0100
1000
0000
,
0001
0000
1000
0010
0100
0000
0001
0000
0000
0000
1000
0000
1001
0000
1000
0010
,
1000
0000
0010
0100
0010
0000
0100
0001
0200
0000
0001
0000
0301
0000
1000
0100
,
1000
0000
0100
0010
0100
0000
0010
0001
0020
0000
0000
0000
0031
0000
0000
0000
,
1000
0000
0001
0100
0001
0000
1000
0100
2000
0000
0000
0000
3001
1000
0001
0000
,
0010
0000
0100
1000
0001
0000
0100
0000
2010
0000
0000
0000
3100
0000
0000
0000
,
0001
0000
0100
0010
0100
0000
0010
1000
0020
0000
1000
0000
1030
0000
0001
0010
,
0001
0000
0010
0100
0010
0000
0100
1000
0200
0000
0000
0000
1300
0000
0000
0000
,
0001
0000
1000
0010
1000
0000
0001
0010
0002
0000
0000
0000
1003
0001
1000
0000
,
0100
0000
0010
0001
1000
0000
0010
0000
0101
0000
0000
0000
1100
0000
0000
0000
,
2002
0000
0000
3003
;

//---------------dance-single - ----------------
#NOTEDATA:;
#CHARTNAME:;
#STEPSTYPE:dance-single;
#DESCRIPTION:;
#CHARTSTYLE:;
#DIFFICULTY:Easy;
#METER:7;
#RADARVALUES:0.349,0.289,0.036,0.000,0.000,270.000,4.000,0.000,0.000,0.000,0.000,0.000,0.000,0.349,0.289,0.036,0.000,0.000,270.000,4.000,0.000,0.000,0.000,0.000,0.000,0.000;
#CREDIT:;
#NOTES:
0000
0000
0000
0000
,
0000
0000
0000
0000
,
0000
0000
0000
0000
,
0000
0000
0000
0000
,
1000
0100
0010
0001
,
0010
0100
1000
1000
,
0001
0100
0010
1000
,
0010
0000
0000
0000
0000
0100
0100
0000
,
0001
0100
1000
0100
,
0001
0100
1000
1000
,
0100
0001
0010
0001
,
0100
0001
0010
0010
,
1000
0010
0001
0010
,
1000
0010
0001
0001
,
0010
1000
0100
1000
,
0100
1000
0010
0010
,
0001
0001
0100
0100
,
0010
1000
0001
0100
,
0001
0001
0010
0010
,
0100
1000
0001
0010
,
0001
0001
0100
0100
,
0010
0010
1000
1000
,
0001
0010
0100
1000
,
0001
0100
0010
1000
,
0001
0001
0100
0100
,
0010
1000
0001
0100
,
0001
0001
0010
0010
,
0100
1000
0001
0010
,
0001
0001
0100
0100
,
0010
0010
1000
1000
,
0001
0010
0100
1000
,
0001
0100
0010
1000
,
0001
0100
1000
0100
,
0001
0100
1000
1000
,
0100
0001
0010
0001
,
0100
0001
0010
0010
,
1000
0010
0001
0010
,
1000
0010
0001
0001
,
0010
1000
0100
1000
,
0100
1000
0010
0010
,
0001
0100
0010
0100
,
0001
0010
0100
0010
,
0001
0100
1000
0100
,
0010
1000
0001
1000
,
0001
0001
0010
0010
,
0100
0100
1000
1000
,
0001
0100
1000
0100
,
1001
0000
0000
0110
,
1000
0010
0100
0010
,
1000
0100
0010
0100
,
1000
0001
0010
0001
,
1000
0010
0100
0010
,
1000
1000
0010
0010
,
0100
0100
0001
0001
,
1000
1000
0100
0100
,
0010
0001
1000
1001
,
0001
0001
0010
0010
,
0100
0100
1000
1000
,
0001
0001
0100
0100
,
0010
0010
1000
1000
,
0001
0010
1000
0010
,
0001
0100
1000
0100
,
0001
0010
0100
1000
,
0001
0000
1000
0000
0000
0100
0100
0000
,
0001
0100
1000
0100
,
0001
0100
1000
1000
,
0100
0001
0010
0001
,
0100
0001
0010
0010
,
1000
0010
0001
0010
,
1000
0010
0001
0001
,
0010
1000
0100
1000
,
0100
1000
0010
0010
,
1001
0000
0000
0000
;

//---------------dance-single - ----------------
#NOTEDATA:;
#CHARTNAME:;
#STEPSTYPE:dance-single;
#DESCRIPTION:;
#CHARTSTYLE:;
#DIFFICULTY:Medium;
#METER:9;
#RADARVALUES:0.604,0.513,0.632,0.107,0.009,392.000,71.000,12.000,0.000,0.000,0.000,0.000,0.000,0.604,0.513,0.632,0.107,0.009,392.000,71.000,12.000,0.000,0.000,0.000,0.000,0.000;
#CREDIT:;
#NOTES:
0000
0000
0000
0000
,
0000
0000
0000
0000
,
0000
0000
0000
0000
,
0000
0000
0000
0000
,
1000
0000
0100
0000
0010
0001
0010
0000
,
0001
0000
0100
0000
0010
1000
0010
0000
,
0100
0000
0001
0000
1000
0001
1000
0000
,
0110
0000
0000
0000
0000
1000
1000
0000
,
0101
0000
1100
0000
0001
1000
0001
0000
,
1010
0011
2010
3001
,
0011
0000
0101
0000
0011
0000
0001
1000
,
0001
0100
0010
1000
0002
0000
1003
0000
,
1010
0000
0011
0000
1000
0001
1000
0000
,
0101
1100
0102
1003
,
1100
0000
1010
0000
1100
0000
1000
0001
,
1000
0010
0100
0001
2000
0000
3001
0000
,
1000
0100
1000
0000
1000
0100
1000
0000
,
1100
1100
1001
0101
,
0001
0100
0001
0000
0001
0100
0001
0000
,
0101
0101
1001
1010
,
0010
0010
0010
0000
0100
0100
0100
0000
,
0001
1000
0001
0000
1000
1000
1000
0000
,
0001
0010
0001
0010
0100
0100
0100
0000
,
1000
0010
1000
0010
0100
0100
0100
0000
,
0001
0010
0001
0000
0001
0010
0001
0000
,
0011
0011
0110
1100
,
1000
0010
1000
0000
1000
0010
1000
0000
,
1010
1010
0110
0101
,
0001
0100
1000
0000
1000
0100
0001
0000
,
0001
0010
1000
0000
1000
0010
0001
0000
,
1000
0001
1000
0001
0100
0100
0100
0000
,
0001
1000
0001
1000
0100
0100
0100
0000
,
1010
0000
0011
0000
1000
0001
1000
0000
,
0101
1100
0102
1003
,
1100
0000
1010
0000
1100
0000
1000
0001
,
1000
0010
0100
0001
2000
0000
3001
0000
,
0101
0000
1100
0000
0001
1000
0001
0000
,
1010
0011
2010
3001
,
0011
0000
0101
0000
0011
0000
0001
1000
,
0001
0100
0010
1000
0002
0000
1003
0000
,
0001
0010
0100
1000
0100
0010
0001
0000
,
1000
0010
0100
0001
0100
0010
1000
0000
,
0001
0010
1000
0010
0001
1000
0001
0000
,
1000
0100
0001
0100
1000
0001
1000
0000
,
0001
0001
0001
0001
0010
0010
0010
0000
,
0100
0100
0100
0100
1000
1000
1000
0000
,
0001
0001
0001
0001
1000
1000
1000
1000
,
0110
0000
0000
0000
0000
1000
0001
0000
,
1100
0000
0101
0000
0001
1000
0001
0000
,
1000
0010
1000
0010
0100
0100
0100
0000
,
0001
0010
0001
0010
0100
0010
0100
1000
,
0100
1000
0001
0000
1000
0000
1001
0000
,
1000
0010
0010
0000
0001
0010
0010
0000
,
0100
0000
0000
0100
0000
0000
0001
0000
0000
0001
0000
0000
1000
0000
0100
0000
,
0000
0010
0010
0000
0001
0001
0000
1000
,
0001
0100
1000
0100
0010
0010
0010
0000
,
1000
0100
1000
0100
1000
0100
1000
0100
,
0001
0100
0001
0100
0001
0100
0001
0100
,
1000
0010
1000
0010
1000
0010
1000
0010
,
0001
0010
0001
0010
0001
0010
0001
0010
,
1000
0001
1000
0001
0100
0100
0100
0100
,
0001
1000
0001
1000
0100
0100
0100
0100
,
1000
1000
0010
0010
0100
0100
0001
0001
,
1001
0000
0000
0000
0000
0100
0100
0000
,
0101
0000
1100
0000
0001
1000
0001
0000
,
1010
0011
2010
3001
,
0011
0000
0101
0000
0011
0000
0001
1000
,
0001
0100
0010
1000
0002
0000
1003
0000
,
1010
0000
0011
0000
1000
0001
1000
0000
,
0101
1100
0102
1003
,
1100
0000
1010
0000
1100
0000
1000
0001
,
1000
0010
0100
0001
2000
0000
3001
0000
,
1001
0000
0000
0000
;

//---------------dance-single - ----------------
#NOTEDATA:;
#CHARTNAME:;
#STEPSTYPE:dance-single;
#DESCRIPTION:;
#CHARTSTYLE:;
#DIFFICULTY:Beginner;
#METER:5;
#RADARVALUES:0.221,0.224,0.036,0.000,0.000,170.000,4.000,0.000,0.000,0.000,0.000,0.000,0.000,0.221,0.224,0.036,0.000,0.000,170.000,4.000,0.000,0.000,0.000,0.000,0.000,0.000;
#CREDIT:;
#NOTES:
0000
0000
0000
0000
,
0000
0000
0000
0000
,
0000
0000
0000
0000
,
0000
0000
0000
0000
,
1000
0000
1000
0000
,
0010
0000
0010
0000
,
1000
0000
0001
0000
,
0010
0000
0000
0100
,
0100
0000
0000
1000
,
1000
0000
0010
0010
,
0010
0000
0000
0100
,
0100
0000
0001
0001
,
0001
0000
0000
0010
,
0010
0000
0100
0100
,
0100
0000
0000
0010
,
0010
0000
0001
0001
,
0001
0000
0001
0000
,
1000
0000
1000
0000
,
0010
0000
0010
0000
,
0100
0000
0100
0000
,
0001
0000
0100
0000
,
0001
0000
0100
0000
,
0010
0000
1000
0000
,
0010
0000
1000
1000
,
1000
0000
0001
0000
,
0010
0010
0010
0010
,
0100
0000
0100
0000
,
1000
1000
1000
1000
,
0001
0000
0001
0000
,
0100
0000
0100
0000
,
0010
0010
0010
0000
,
1000
0000
0001
0001
,
0001
0000
0001
0000
,
0010
0000
0010
0010
,
0100
0000
0100
0000
,
1000
0000
1000
1000
,
0010
0000
0001
0000
,
0010
0000
1000
1000
,
0100
0000
0001
0000
,
0100
0000
1000
1000
,
0001
0000
0001
0000
,
1000
0000
1000
0000
,
0010
0000
0010
0000
,
0100
0100
0100
0100
,
0010
0000
0010
0000
,
1000
0000
1000
0000
,
0001
0000
0001
0000
,
0010
0000
0000
0010
,
0100
0000
0100
0000
,
1000
1000
1000
0000
,
0001
0000
0001
0000
,
0100
0100
0100
0000
,
0010
0000
0010
0000
,
0110
0000
0110
0000
,
0000
0010
0000
0000
1000
0000
0000
0000
,
0001
0001
0001
0001
,
1000
0000
0001
0000
,
1000
0000
0010
0000
,
0100
0000
0001
0000
,
0100
0000
0010
0000
,
1000
0000
0100
0000
,
0010
0000
0001
0000
,
0100
0000
1000
0000
,
1001
0000
0000
0100
,
0010
0010
0010
0000
,
1000
1000
1000
1000
,
0001
0001
0001
0000
,
0010
0010
0010
0010
,
0100
0100
0100
0000
,
0010
0010
0010
0010
,
0001
0001
0001
0000
,
1000
1000
1000
1000
,
1001
0000
0000
0000
;

//---------------dance-single - ----------------
#NOTEDATA:;
#CHARTNAME:;
#STEPSTYPE:dance-single;
#DESCRIPTION:;
#CHARTSTYLE:;
#DIFFICULTY:Challenge;
#METER:17;
#RADARVALUES:1.000,0.972,0.793,0.107,1.000,725.000,89.000,12.000,0.000,0.000,0.000,0.000,0.000,1.000,0.972,0.793,0.107,1.000,725.000,89.000,12.000,0.000,0.000,0.000,0.000,0.000;
#CREDIT:;
#NOTES:
// measure 0
0000
0000
0000
0000
,  // measure 1
0000
0000
0000
0000
,  // measure 2
0000
0000
0000
0000
,  // measure 3
0000
0000
0000
0000
,  // measure 4
1000
0001
1000
0001
0010
0001
0010
0001
0010
0100
0010
0100
0010
0000
0100
0000
,  // measure 5
0010
0001
0010
0001
0100
0010
0100
0010
1000
0001
1000
0010
0100
0010
0100
0000
,  // measure 6
0010
0100
0001
0100
0001
0010
0100
0010
0100
1000
0001
1000
0010
0100
0001
0010
,  // measure 7
0100
0000
0000
0000
0000
0000
1000
0000
0100
0000
0010
0000
0001
0000
0000
0000
0000
0000
1000
0000
0000
0000
0000
0000
0000
0000
0000
0000
0000
0000
0110
0000
0000
0000
0000
0000
0110
0000
0000
0000
0000
0000
0010
0000
0000
1000
0000
0000
,  // measure 8
0001
0010
0100
1000
0010
0100
0001
0010
0100
0000
0110
0000
0110
0000
0100
1000
,  // measure 9
0010
0001
1000
0100
0010
0100
0001
0010
0100
0000
0000
0000
1001
0000
0000
0000
,  // measure 10
1000
0100
0001
0100
1000
0010
0001
0010
0100
0000
0110
0000
0100
0010
1000
0001
,  // measure 11
0010
0000
0100
0010
0100
0000
1000
0000
2100
0000
0000
3000
0012
0000
0000
0003
,  // measure 12
0010
0001
0100
0010
0100
0001
0010
0100
1000
0000
1001
0000
1001
0000
1000
0010
,  // measure 13
0001
0010
0100
1000
0001
0010
1000
0100
0010
0000
0000
0000
0110
0000
0000
0000
,  // measure 14
0100
1000
0010
0100
0001
0010
0100
1000
0001
0000
1001
0000
1000
0010
1000
0010
,  // measure 15
0100
0000
0010
0100
0001
0000
1000
0000
1001
0000
0000
0000
0110
0000
0000
0000
,  // measure 16
0010
1000
0101
0000
0010
0001
1100
0000
,  // measure 17
1001
0000
0000
0000
0110
0000
0000
0000
1010
0000
0000
0000
0101
0000
0000
0001
,  // measure 18
0010
0100
0010
0100
1000
0100
0011
0000
,  // measure 19
0110
1001
1010
0101
,  // measure 20
0010
0010
0010
0000
0100
1000
1001
0000
,  // measure 21
1000
0010
0100
0000
0010
0000
0100
0000
0001
0000
1000
0000
1001
0000
0000
0000
,  // measure 22
1000
0100
0001
0000
1000
0000
0010
0001
0100
0000
0010
0000
0110
0000
0000
0000
,  // measure 23
0010
1000
0010
0000
1000
0000
0001
1000
0001
0000
0010
0000
0110
0000
0000
0000
,  // measure 24
0100
0000
1000
0100
1000
0100
1000
0000
0100
0000
0110
0000
0110
0000
0000
0000
,  // measure 25
0010
0000
0001
0100
0001
0000
0100
0001
0010
0000
0110
0000
0110
0000
0000
0000
,  // measure 26
0100
0000
1000
0100
0001
0100
1000
0000
0010
0000
0110
0000
0110
0000
0000
0000
,  // measure 27
0100
0000
0001
0100
0010
0000
1000
0001
0010
0000
0100
0000
0110
0000
0000
0000
,  // measure 28
0100
1000
0100
1000
0100
0000
0010
0000
1000
0010
1000
0000
1010
0000
0001
0000
,  // measure 29
0100
0001
0100
0001
0100
0000
0010
0000
1000
0010
1000
0000
0101
0000
0000
0000
,  // measure 30
0001
0100
1000
0001
0010
0000
1000
0010
0100
0000
0001
0000
0101
0000
0000
0000
,  // measure 31
0001
0000
1000
0000
0100
0000
0010
0000
0100
0000
0110
0000
1001
0000
1000
0010
,  // measure 32
0100
0001
0010
0100
0010
0001
0100
0010
1000
0000
1001
0000
1001
0000
1000
0010
,  // measure 33
0001
0010
0100
1000
0001
0010
1000
0001
0010
0000
0000
0000
0110
0000
0000
0000
,  // measure 34
1000
0100
0010
1000
0010
0001
0100
1000
0100
0000
0110
0000
0100
0001
0010
0100
,  // measure 35
1000
0000
0001
1000
0010
0000
0100
0000
0102
0000
0000
0003
2010
0000
0000
3000
,  // measure 36
0001
1000
0010
1000
0001
0010
0001
0100
0010
0000
0110
0000
0110
0000
0100
0001
,  // measure 37
0010
0100
0010
0001
1000
0010
0100
0001
1000
0000
0000
0000
1001
0000
0000
0000
,  // measure 38
1000
0010
1000
0001
0010
0100
0010
0001
0100
0000
0110
0000
0010
1000
0001
0010
,  // measure 39
0001
0000
0010
0100
0010
0000
0100
0000
2100
0000
0000
3000
0012
0000
0000
0003
,  // measure 40
0010
0010
0010
0100
1000
1000
0001
0000
,  // measure 41
1000
0010
0100
0001
0010
0100
1000
0001
0100
0000
0010
0000
0110
0000
0010
0000
,  // measure 42
1000
1000
1000
0001
0010
0010
0010
0000
,  // measure 43
0100
0010
0100
0010
0001
1000
0010
0100
0001
0000
1000
0000
1001
0000
0000
0000
,  // measure 44
1000
0000
0010
1000
0100
0000
0010
0000
0100
0000
0010
0100
1000
0000
0000
0000
,  // measure 45
0001
0000
1000
0010
1000
0000
0001
0010
0001
0000
0100
0000
0110
0000
0000
0000
,  // measure 46
0010
0000
0100
0010
1000
0000
0100
0010
0001
0000
0100
0010
0100
0000
0010
0100
,  // measure 47
0001
0000
0010
0100
1000
0000
0001
0000
0010
0000
0110
0000
1001
0000
0000
0000
,  // measure 48
1000
0100
1000
0100
0000
0010
0100
1000
0001
0100
0001
0100
0010
0100
0000
0000
,  // measure 49
0001
0010
0100
0010
0000
0001
0100
0000
0010
0100
0010
1000
0001
0010
0000
0000
,  // measure 50
0100
0010
0001
1000
0010
1000
0001
0100
0010
1000
0001
0010
0100
0010
0001
0100
,  // measure 51
0010
1000
0010
1000
0001
0010
0001
0000
0011
0000
0000
0110
0000
0000
1100
0000
,  // measure 52
1000
0001
1000
0000
0001
0100
0000
0100
0010
1000
0100
0010
0000
0000
0100
0000
,  // measure 53
0110
0000
0000
0000
0000
0000
0000
0000
0000
1100
0000
0000
0000
0000
0000
0000
0000
0000
1001
0000
0000
0000
0000
0000
0000
0000
0000
0101
0000
0000
0000
0000
0000
0000
0000
0000
0001
0000
0100
0000
0010
0000
1000
0000
0000
0000
0000
0000
,  // measure 54
0001
0000
0010
0100
0010
0100
0000
0000
1000
0100
1000
0100
0000
1000
0100
0010
,  // measure 55
0001
0000
0010
0000
0001
0000
0010
0000
0001
0000
0010
0000
0100
0000
1000
0000
0100
0000
1000
0000
0100
0000
1000
0000
0100
0000
0000
1000
0000
0000
0001
0000
0000
0000
0000
0000
1001
0000
0000
0000
0000
0000
0000
0000
0000
0000
0000
0000
,  // measure 56
1000
0010
0100
0001
0010
0100
0000
0000
1000
0000
0100
0010
0100
0010
0000
0000
,  // measure 57
0100
1000
0100
1000
0001
0000
0100
0000
0010
0100
0010
0100
0001
0000
0010
0000
,  // measure 58
0100
0010
0001
0100
0010
0100
0001
0000
0010
0100
0010
0100
0000
0000
1001
0000
,  // measure 59
1000
0010
0100
0010
1000
0100
0010
0000
0100
1000
0010
1000
0100
0010
0001
0000
,  // measure 60
0010
0100
0010
0100
1000
0100
1000
0100
0010
0100
1000
0001
0100
0000
0110
0000
,  // measure 61
0110
0000
0010
1000
0001
0010
0100
0010
0001
0010
0100
1000
0010
0000
0110
0000
,  // measure 62
0100
0001
0010
0100
1000
0001
0100
0000
0010
0100
0001
1000
0100
0001
0100
0000
,  // measure 63
1100
0000
0000
0000
0000
0000
1000
0000
0100
0000
0010
0000
0001
0000
0000
0000
0000
0000
1001
0000
0000
0000
0000
0000
0000
0000
0000
0000
0000
0000
0110
0000
0000
0000
0000
0000
0110
0000
0000
0000
0000
0000
0010
0000
0000
1000
0000
0000
,  // measure 64
0100
0001
1000
0010
0001
0010
0100
1000
0001
0000
1001
0000
1001
0000
1000
0010
,  // measure 65
0100
0001
0010
0001
0100
0010
1000
0100
0010
0000
0000
0000
0110
0000
0000
0000
,  // measure 66
0100
1000
0010
0001
1000
0100
0001
0010
0100
0000
0110
0000
0100
1000
0010
0100
,  // measure 67
0001
0000
1000
0001
1000
0000
0010
0000
2010
0000
0000
3000
0102
0000
0000
0003
,  // measure 68
1000
0001
0010
0100
0010
0001
0100
0010
1000
0000
1001
0000
1001
0000
1000
0100
,  // measure 69
0001
0100
0010
1000
0001
0010
0100
1000
0001
0000
0000
0000
1001
0000
0000
0000
,  // measure 70
1000
0010
0100
0001
0010
0100
0010
0001
0100
0000
0110
0000
0010
0100
0001
1000
,  // measure 71
0100
0000
0010
0100
0010
0000
0100
0000
2100
0000
0000
3000
0012
0000
0000
0003
,  // measure 72
1001
1001
2002
3003
;
