#VERSION:0.83;
#TITLE:Rainbow Dash And Fluttershy Go For A Leisurely Glide;
#SUBTITLE:;
#ARTIST:Foozogz;
#TITLETRANSLIT:;
#SUBTITLETRANSLIT:;
#ARTISTTRANSLIT:;
#GENRE:Chiptrance;
#ORIGIN:;
#CREDIT:;
#BANNER:Rainbow Dash And Fluttershy Go For A Leisurely Glide.png;
#BACKGROUND:Rainbow Dash And Fluttershy Go For A Leisurely Glide-bg.png;
#PREVIEWVID:;
#JACKET:Rainbow Dash And Fluttershy Go For A Leisurely Glide-jacket.png;
#CDIMAGE:jacketnotext.png;
#DISCIMAGE:;
#LYRICSPATH:;
#CDTITLE:;
#MUSIC:Rainbow Dash And Fluttershy Go For A Leisurely Glide.mp3;
#OFFSET:-0.668000;
#SAMPLESTART:19.248001;
#SAMPLELENGTH:15.000000;
#SELECTABLE:YES;
#BPMS:0.000=200.000;
#STOPS:;
#DELAYS:;
#WARPS:;
#TIMESIGNATURES:0.000=4=4;
#TICKCOUNTS:0.000=4;
#COMBOS:0.000=1;
#SPEEDS:0.000=1.000=0.000=0;
#SCROLLS:0.000=1.000;
#FAKES:;
#LABELS:0.000=Song Start;
#BGCHANGES:;
#KEYSOUNDS:;
#ATTACKS:
;

//---------------dance-single - ----------------
#NOTEDATA:;
#CHARTNAME:;
#STEPSTYPE:dance-single;
#DESCRIPTION:;
#CHARTSTYLE:;
#DIFFICULTY:Hard;
#METER:11;
#RADARVALUES:0.546729,0.645292,0.329556,0.042523,0.000000,360.000000,329.000000,31.000000,4.000000,0.000000,0.000000,0.000000,0.000000,0.000000,0.546729,0.645292,0.329556,0.042523,0.000000,360.000000,329.000000,31.000000,4.000000,0.000000,0.000000,0.000000,0.000000,0.000000;
#CREDIT:;
#NOTES:
0000
0000
0000
0000
,
0000
0000
0000
0000
,
0000
0000
0000
0000
,
0000
0000
0000
0000
,
0000
0000
0000
0000
,
0000
0000
0000
0000
,
0000
0000
0000
0000
,
0000
0000
0001
0100
,
0110
0000
0000
0000
0010
0000
1000
0100
,
1000
0000
0000
0000
0001
0000
0100
0010
,
0200
0001
1000
0001
,
0010
1000
0010
0001
,
0301
0000
0010
0001
0000
0000
1000
0000
,
0100
0000
1000
0010
0000
0000
0100
0000
,
0101
0000
0011
0000
0110
0000
0100
1000
,
0001
0100
0001
0100
0020
0000
2030
0000
,
3001
0000
0011
0000
0010
0000
0001
0100
,
0010
0000
1010
0000
1000
0000
0100
1000
,
0001
0000
0100
0000
0010
1000
0001
1000
,
0100
0000
0010
0000
0001
0100
1000
0001
,
0010
0000
0100
0001
0100
0000
0010
0000
,
0010
0000
1000
0100
1000
0000
0001
0000
,
0100
0000
1000
0000
0010
0000
0001
0100
,
0001
1000
1100
1001
,
0101
0000
0100
0000
0010
0000
0100
0001
,
0100
0000
0010
0000
1000
0000
0001
0010
,
0001
0000
0100
0000
0010
1000
0010
0100
,
0001
0000
0100
0000
0010
1000
0001
0010
,
0100
0000
1000
0001
0000
0001
0100
0000
,
0010
0000
1000
0100
0000
0100
0010
0000
,
0001
0000
0100
0000
0010
0000
1000
0100
,
0000
0100
1000
0000
0010
0000
0100
0000
,
1001
0000
0100
0000
0010
0001
0000
0100
,
0000
0010
1000
0000
0100
1000
0000
0001
,
0000
0100
0010
0000
0100
0001
0000
0010
,
0000
0100
1000
0000
0001
0100
0001
0100
,
0010
0000
1000
0000
0010
0100
0000
0010
,
1000
0000
0001
0000
0010
0100
0000
0010
,
0001
0000
1000
0000
0010
0100
0000
0010
,
1000
0000
0001
0000
0010
0100
1000
0001
,
0100
0010
1000
0100
,
0010
0000
0001
0000
0100
0000
0010
1000
,
0001
0000
0010
0000
0100
0000
1000
0001
,
0100
0000
0010
0000
0100
0000
0001
0010
,
0100
1000
0010
0100
,
0001
0000
0010
0000
0001
0000
1000
0010
,
0100
0000
0010
0000
1000
0000
0001
0010
,
0100
0000
1000
0000
0001
0100
0010
0100
,
0001
0000
0100
0000
0110
0000
0000
0010
,
0000
1000
0100
0000
1100
0000
1000
0000
,
0010
0000
0100
0000
0101
0000
0000
0001
,
0000
1000
0100
0000
0110
0000
0010
0001
,
1000
0000
0010
0000
0110
0000
0000
0100
,
0000
0001
1000
0000
1100
0000
0100
0000
,
0010
0000
0001
0000
1001
0000
0000
1000
,
0020
0000
0100
0130
,
0110
0000
0010
0000
1000
0000
0100
1000
,
0001
0000
0100
0000
0010
0000
1000
0001
,
0010
0000
0100
0000
1000
0001
1000
0100
,
1000
0000
0010
0000
0100
0001
0100
0010
,
0100
0000
0001
0010
0000
0001
0010
0000
,
0100
0000
1000
0001
0000
1000
0001
0000
,
0101
0000
0110
0000
1010
0000
1000
0001
,
0010
0100
1100
1001
,
0101
0000
0100
0000
0010
0000
1000
0001
,
1000
0000
0100
0000
0010
0000
0001
0100
,
0001
0000
1000
0000
0100
1000
0001
1000
,
0100
0000
0010
0000
0001
0100
0010
0100
,
0001
0000
0010
0100
0000
1000
0001
0000
,
0101
0000
0100
0010
0000
1000
0001
0000
,
0011
0000
0110
0000
1100
0000
1000
0001
,
0100
0010
1010
0101
,
1001
0000
0100
0000
0010
0000
0000
0001
,
0000
0000
0100
0000
0010
0000
0000
1000
,
0000
0000
0001
0000
0010
0000
0000
0100
,
0000
0000
1000
0000
0001
0100
0010
1000
;

//---------------dance-single - ----------------
#NOTEDATA:;
#CHARTNAME:;
#STEPSTYPE:dance-single;
#DESCRIPTION:;
#CHARTSTYLE:;
#DIFFICULTY:Medium;
#METER:6;
#RADARVALUES:0.343224,0.402643,0.127570,0.201986,0.000000,226.000000,214.000000,12.000000,19.000000,0.000000,0.000000,0.000000,0.000000,0.000000,0.343224,0.402643,0.127570,0.201986,0.000000,226.000000,214.000000,12.000000,19.000000,0.000000,0.000000,0.000000,0.000000,0.000000;
#CREDIT:;
#NOTES:
0000
0000
0000
0000
,
0000
0000
0000
0000
,
0000
0000
0000
0000
,
0000
0000
0000
0000
,
0000
0000
0000
0000
,
0000
0000
0000
0000
,
0000
0000
0000
0000
,
0000
0000
0010
0100
,
0010
0000
1000
0100
,
0000
0000
0100
0010
,
0002
0000
1000
0000
,
1000
0000
1003
0000
,
0010
0100
0010
0000
,
1000
0001
1000
0000
,
0100
0010
0001
1000
,
0020
0000
0100
0130
,
0010
1000
0100
1000
,
0001
0100
0010
0100
,
0001
0010
0100
1000
,
0001
0100
0010
1000
,
0001
0010
0100
0010
,
0001
0100
1000
0100
,
0010
1000
0001
0010
,
0110
0000
0100
1000
,
0001
0100
0010
0100
,
0001
0010
0100
0010
,
0001
1000
0010
0100
,
0001
1000
0100
0010
,
0001
0100
0010
0100
,
1000
0100
0001
0010
,
0100
1000
0010
0100
,
1001
0000
0001
0010
,
0200
0000
2300
0000
,
3020
0000
0230
0000
,
0302
0000
0023
0000
,
0230
0000
2300
0000
,
3002
0000
0203
0000
,
0320
0000
2030
0000
,
3020
0000
0230
0000
,
0302
0000
2003
0000
,
3100
1000
0100
1000
,
0001
0100
0001
0100
,
0010
1000
0010
1000
,
0001
0010
0001
0010
,
0100
1000
0100
1000
,
0001
0100
0001
0100
,
0010
1000
0010
1000
,
0001
0010
0100
1000
,
0010
0000
0110
0000
,
0001
0000
0011
0000
,
0100
0000
1100
0000
,
0010
0000
0110
0000
,
0001
0000
1001
0000
,
0100
0000
0011
0000
,
0100
0000
1010
0000
,
0002
0000
1000
1003
,
0010
0000
0100
0001
,
1000
0000
0100
0010
,
0001
0100
0010
0100
,
0001
0100
0010
0100
,
0001
1000
0100
0000
,
0010
0001
1000
0000
,
0010
0010
0100
0100
,
1001
0000
0100
0010
,
0100
0000
1000
0010
,
1000
0000
0001
0010
,
0001
0100
1000
0100
,
0001
0100
1000
0100
,
0001
0010
0100
0000
,
0100
1000
0010
0000
,
0100
0001
0010
0100
,
0110
0000
0010
0001
,
1001
0000
0010
0000
,
0100
0000
0001
0000
,
0010
0000
0100
0000
,
1000
0000
0010
0010
;

//---------------dance-single - ----------------
#NOTEDATA:;
#CHARTNAME:;
#STEPSTYPE:dance-single;
#DESCRIPTION:;
#CHARTSTYLE:;
#DIFFICULTY:Easy;
#METER:4;
#RADARVALUES:0.170093,0.279059,0.031893,0.031893,0.000000,112.000000,109.000000,3.000000,3.000000,0.000000,0.000000,0.000000,0.000000,0.000000,0.170093,0.279059,0.031893,0.031893,0.000000,112.000000,109.000000,3.000000,3.000000,0.000000,0.000000,0.000000,0.000000,0.000000;
#CREDIT:;
#NOTES:
0000
0000
0000
0000
,
0000
0000
0000
0000
,
0000
0000
0000
0000
,
0000
0000
0000
0000
,
0000
0000
0000
0000
,
0000
0000
0000
0000
,
0000
0000
0000
0000
,
0000
0000
0010
0000
,
0010
0000
1000
0000
,
1000
0000
0001
0000
,
0002
0000
0000
0000
,
0003
0000
0000
0000
,
0010
0000
0010
0000
,
0100
0000
0100
0000
,
1000
0000
0001
0000
,
0002
0000
0003
0000
,
0100
0000
0010
0000
,
0100
0000
0010
0000
,
1000
0000
0001
0000
,
1000
0000
0000
0000
,
0100
0000
1000
0000
,
0100
0000
1000
0000
,
0001
0000
0100
0000
,
0001
0000
0000
0000
,
0010
0000
0001
0000
,
0010
0000
0001
0000
,
1000
0000
0010
0000
,
1000
0000
0000
0000
,
0001
0000
1000
0000
,
0001
0000
1000
0000
,
0100
0000
0100
0000
,
0010
0000
0010
0000
,
0001
0000
0000
0000
,
1000
0000
0000
0000
,
0010
0000
0000
0000
,
0100
0000
0000
0000
,
0001
0000
0000
0000
,
0010
0000
0000
0000
,
0100
0000
0000
0000
,
1000
0000
0000
0000
,
0010
0000
0010
0000
,
0100
0000
0000
0000
,
0001
0000
0001
0000
,
1000
0000
0000
0000
,
0100
0000
1000
0000
,
1000
0000
0000
0000
,
0001
0000
0010
0000
,
0010
0000
0000
0000
,
0100
0000
0110
0000
,
0010
0000
0100
0000
,
1000
0000
1001
0000
,
0001
0000
1000
0000
,
0001
0000
0010
0000
,
0100
0000
1000
0000
,
0010
0000
0100
0000
,
0002
0000
0003
0000
,
0010
0000
0001
0000
,
1000
0000
0010
0000
,
0100
0000
0100
0000
,
0100
0000
0000
0000
,
0001
0000
0010
0000
,
0100
0000
1000
0000
,
0010
0000
0001
0000
,
0001
0000
0000
0000
,
1000
0000
0100
0000
,
0001
0000
0010
0000
,
0100
0000
1000
0000
,
1000
0000
0000
0000
,
0010
0000
0100
0000
,
0001
0000
0010
0000
,
0100
0000
1000
0000
,
0001
0000
0000
0000
,
1001
0000
0000
0000
,
0010
0000
0000
0000
,
0100
0000
0000
0000
,
0001
0000
0000
0000
;

//---------------dance-single - ----------------
#NOTEDATA:;
#CHARTNAME:;
#STEPSTYPE:dance-single;
#DESCRIPTION:;
#CHARTSTYLE:;
#DIFFICULTY:Beginner;
#METER:2;
#RADARVALUES:0.085047,0.159462,0.031893,0.000000,0.000000,56.000000,53.000000,3.000000,0.000000,0.000000,0.000000,0.000000,0.000000,0.000000,0.085047,0.159462,0.031893,0.000000,0.000000,56.000000,53.000000,3.000000,0.000000,0.000000,0.000000,0.000000,0.000000,0.000000;
#CREDIT:;
#NOTES:
0000
0000
0000
0000
,
0000
0000
0000
0000
,
0000
0000
0000
0000
,
0000
0000
0000
0000
,
0000
0000
0000
0000
,
0000
0000
0000
0000
,
0000
0000
0000
0000
,
0000
0000
0000
0000
,
0010
0000
0000
0000
,
0100
0000
0000
0000
,
0010
0000
0000
0000
,
0000
0000
0000
0000
,
1000
0000
0000
0000
,
0001
0000
0000
0000
,
1000
0000
0000
0000
,
0000
0000
0000
0000
,
0010
0000
0000
0000
,
0010
0000
0000
0000
,
0010
0000
0000
0000
,
0000
0000
0000
0000
,
0100
0000
0000
0000
,
0100
0000
0000
0000
,
0100
0000
0000
0000
,
0000
0000
0000
0000
,
0001
0000
0000
0000
,
0001
0000
0000
0000
,
0001
0000
0000
0000
,
0000
0000
0000
0000
,
1000
0000
0000
0000
,
1000
0000
0000
0000
,
1000
0000
0000
0000
,
0000
0000
0000
0000
,
1001
0000
0000
0000
,
0000
0000
0000
0000
,
0100
0000
0000
0000
,
0000
0000
0000
0000
,
0010
0000
0000
0000
,
0000
0000
0000
0000
,
0001
0000
0000
0000
,
0000
0000
0000
0000
,
1000
0000
0000
0000
,
1000
0000
0000
0000
,
1000
0000
0000
0000
,
1000
0000
0000
0000
,
0001
0000
0000
0000
,
0001
0000
0000
0000
,
0001
0000
0000
0000
,
0001
0000
0000
0000
,
0100
0000
0000
0000
,
0010
0000
0000
0000
,
0100
0000
0000
0000
,
0000
0000
0000
0000
,
0001
0000
0000
0000
,
1000
0000
0000
0000
,
0001
0000
0000
0000
,
1001
0000
0000
0000
,
0100
0000
0000
0000
,
0100
0000
0000
0000
,
0100
0000
0000
0000
,
0000
0000
0000
0000
,
0010
0000
0000
0000
,
0010
0000
0000
0000
,
0010
0000
0000
0000
,
0000
0000
0000
0000
,
0001
0000
0000
0000
,
0001
0000
0000
0000
,
0001
0000
0000
0000
,
0000
0000
0000
0000
,
1000
0000
0000
0000
,
1000
0000
0000
0000
,
1000
0000
0000
0000
,
0000
0000
0000
0000
,
1001
0000
0000
0000
,
0010
0000
0000
0000
,
0100
0000
0000
0000
,
0001
0000
0000
0000
;

//---------------dance-single - challenging----------------
#NOTEDATA:;
#CHARTNAME:challenge...;
#STEPSTYPE:dance-single;
#DESCRIPTION:challenging;
#CHARTSTYLE:;
#DIFFICULTY:Challenge;
#METER:13;
#RADARVALUES:0.718341,0.685622,0.180724,0.042523,0.000000,473.000000,456.000000,17.000000,4.000000,0.000000,0.000000,0.000000,0.000000,0.000000,0.718341,0.685622,0.180724,0.042523,0.000000,473.000000,456.000000,17.000000,4.000000,0.000000,0.000000,0.000000,0.000000,0.000000;
#CREDIT:Domino;
#NOTES:
// measure 0
0000
0000
0000
0000
,  // measure 1
0000
0000
0000
0000
,  // measure 2
0000
0000
0000
0000
,  // measure 3
0000
0000
0000
0000
,  // measure 4
0000
0000
0000
0000
,  // measure 5
0000
0000
0000
0000
,  // measure 6
0000
0000
0000
0000
,  // measure 7
0000
0000
1100
1000
,  // measure 8
1001
0000
0000
0000
0101
0000
1000
0100
,  // measure 9
0000
0000
0000
0000
1100
0000
0001
0100
,  // measure 10
0000
0010
0000
0010
0000
1000
0000
0100
,  // measure 11
0000
0100
0000
0100
0000
0010
0000
0010
,  // measure 12
0001
0000
0100
0010
0000
0000
0100
0000
,  // measure 13
0010
0000
1000
0001
0000
0000
0010
0000
,  // measure 14
0001
0000
0100
0000
0010
0000
1000
0100
,  // measure 15
0010
0001
0010
0001
1000
0100
0010
0001
,  // measure 16
1000
0000
1000
0100
0010
0100
0001
0100
,  // measure 17
1000
0000
0001
0100
0010
0100
1000
0100
,  // measure 18
0001
0000
1000
0100
0001
0100
0010
0001
,  // measure 19
1000
0010
0100
0001
0010
1000
0010
0100
,  // measure 20
1000
0001
0100
0020
0000
0000
0130
0000
,  // measure 21
0001
0010
0100
2000
0000
0000
3010
0000
,  // measure 22
0001
0010
0100
1000
0100
0001
0010
0100
,  // measure 23
1000
0000
0001
0000
0100
1000
0100
0010
,  // measure 24
0001
0000
1000
0100
0001
0100
0010
1000
,  // measure 25
0000
0000
0001
0010
0100
0001
1000
0010
,  // measure 26
0001
0000
0010
0100
1000
0001
0100
0010
,  // measure 27
0100
1000
0100
0010
1000
0100
0010
1000
,  // measure 28
0010
0001
0100
0010
0000
0000
0100
1000
,  // measure 29
0100
0010
1000
0001
0000
0000
0100
1000
,  // measure 30
0100
0001
1000
0100
0010
1000
0010
0001
,  // measure 31
0000
0000
0010
0001
0100
0010
0001
0010
,  // measure 32
1000
0000
0101
0000
0010
1000
0100
0010
,  // measure 33
0000
0100
1000
0000
0010
0100
0001
0010
,  // measure 34
0000
0001
0100
0000
0001
1000
0100
1000
,  // measure 35
0000
0100
0010
0100
0001
0100
0010
0001
,  // measure 36
0000
0001
0010
0100
0010
0001
0100
0010
,  // measure 37
0000
0100
0010
1000
0100
0010
0100
1000
,  // measure 38
0000
0001
0100
0010
0100
1000
0100
0001
,  // measure 39
0000
0010
0100
0010
0001
0100
0010
1000
,  // measure 40
0100
0010
0001
0100
1000
0100
0010
1000
,  // measure 41
0100
0010
0100
1000
0010
0001
0010
1000
,  // measure 42
0001
0010
0100
0010
0001
0100
0010
0100
,  // measure 43
1000
0100
0010
1000
0100
1000
0001
0100
,  // measure 44
0010
0100
1000
0100
0010
0100
0001
1000
,  // measure 45
0100
0010
0001
1000
0010
0100
0001
1000
,  // measure 46
0100
1000
0010
0100
0010
1000
0001
0010
,  // measure 47
0100
0001
0100
0010
0001
0100
0010
1000
,  // measure 48
0100
0010
0100
0000
1100
0000
0010
0001
,  // measure 49
0100
0010
1000
0000
0101
0000
0000
1000
,  // measure 50
0100
0000
0010
0000
0011
0000
0000
1000
,  // measure 51
0001
0100
0010
0000
1010
0000
0101
0000
,  // measure 52
1001
0000
1100
0000
0011
0000
0000
0100
,  // measure 53
1000
0100
0010
0000
1100
0000
1000
0001
,  // measure 54
0100
0010
1000
0000
0101
0000
0010
1000
,  // measure 55
1010
0000
1002
0000
0013
0100
0001
0100
,  // measure 56
0010
0001
0100
1000
0100
0010
1000
0100
,  // measure 57
0010
0100
0010
0001
0100
0010
1000
0100
,  // measure 58
0010
0001
0010
0001
0100
0001
0100
0010
,  // measure 59
1000
0010
1000
0100
1000
0100
1000
0001
,  // measure 60
0100
0010
1000
0100
0010
0100
0001
0100
,  // measure 61
0010
0001
0100
0010
0100
1000
0100
0010
,  // measure 62
1000
0100
0010
0001
0100
1000
0100
0010
,  // measure 63
1000
0100
0010
0100
1000
0010
0100
0010
,  // measure 64
0001
0010
0100
0001
0010
0100
1000
0010
,  // measure 65
0001
0010
0100
0001
0010
0100
1000
0001
,  // measure 66
0100
0010
1000
0010
1000
0100
1000
0001
,  // measure 67
0100
0010
0100
0001
1000
0100
0010
0100
,  // measure 68
1000
0001
0100
0010
0100
0001
1000
0100
,  // measure 69
0010
0100
1000
0001
0100
0010
1000
0100
,  // measure 70
0010
0100
0001
0100
0010
0001
0100
0010
,  // measure 71
1000
0100
1000
0100
0010
0001
1000
0010
,  // measure 72
0200
0000
0310
0000
0100
0010
0100
0001
,  // measure 73
0000
1000
0100
0000
0010
0001
0010
0100
,  // measure 74
0000
0100
0010
0000
0001
0100
1000
0100
,  // measure 75
0000
0010
1000
0000
1000
0001
0010
0100
;
