#TITLE:Pinkie's Lie;
#SUBTITLE:;
#ARTIST:WoodenToaster;
#TITLETRANSLIT:;
#SUBTITLETRANSLIT:;
#ARTISTTRANSLIT:;
#GENRE:Electro-House;
#CREDIT:;
#BANNER:Pinkie's Lie.png;
#BACKGROUND:Pinkie's Lie-bg.png;
#LYRICSPATH:;
#CDTITLE:;
#MUSIC:Pinkie's Lie.mp3;
#OFFSET:-0.078;
#SAMPLESTART:34.580;
#SAMPLELENGTH:15.000;
#SELECTABLE:YES;
#BPMS:0.000=139.000
;
#STOPS:
;
#BGCHANGES:-0.500=Pinkie's Lie.avi=1.000=0=0=0=StretchNoLoop====,
99999=-nosongbg-=1.000=0=0=0 // don't automatically add -songbackground-
;
#KEYSOUNDS:;
#ATTACKS:;

//---------------dance-single - ----------------
#NOTES:
     dance-single:
     :
     Easy:
     5:
     0.388,0.341,0.474,0.063,0.000,276.000,60.000,8.000,0.000,0.000,0.000,0.388,0.341,0.474,0.063,0.000,276.000,60.000,8.000,0.000,0.000,0.000: // measure 0
0110
0110
0010
0001
,  // measure 1
0100
0100
0010
0010
,  // measure 2
0110
0110
0010
1000
,  // measure 3
0100
0100
0010
0010
,  // measure 4
0011
0011
0001
1000
,  // measure 5
0010
0010
0100
0100
,  // measure 6
1010
1010
1000
0001
,  // measure 7
0010
0100
0010
1001
,  // measure 8
0110
0110
0010
1000
,  // measure 9
0100
0010
0011
0000
,  // measure 10
0110
0110
0010
0001
,  // measure 11
0100
0010
1010
0000
,  // measure 12
1001
1001
1000
0010
,  // measure 13
0100
0100
0110
0000
,  // measure 14
1001
1001
0001
0010
,  // measure 15
0100
0100
0110
0000
,  // measure 16
1100
1001
0001
0100
,  // measure 17
0010
0010
0110
0000
,  // measure 18
0101
1001
1000
0100
,  // measure 19
0010
0010
0110
0000
,  // measure 20
0011
1001
1000
0010
,  // measure 21
0100
0100
0110
0000
,  // measure 22
1010
1001
0001
0010
,  // measure 23
0100
0100
0110
0000
,  // measure 24
0100
1000
0100
1000
,  // measure 25
0010
1000
0002
0000
,  // measure 26
1003
1000
0001
0001
,  // measure 27
0010
0010
0100
0100
,  // measure 28
1000
0100
1000
0100
,  // measure 29
0010
0001
2000
0000
,  // measure 30
3001
0001
1000
1000
,  // measure 31
0010
0010
0100
0100
,  // measure 32
0110
1010
1000
0001
,  // measure 33
1000
0001
0010
0001
,  // measure 34
0011
1001
1000
0010
,  // measure 35
1000
0100
0010
0100
,  // measure 36
0110
1001
1000
0010
,  // measure 37
1000
0100
0001
0100
,  // measure 38
0101
1100
1000
0010
,  // measure 39
1000
0001
0010
0001
,  // measure 40
0010
0010
0200
0310
,  // measure 41
0100
1000
0001
0100
,  // measure 42
0010
0010
0200
0310
,  // measure 43
0100
0001
1000
0100
,  // measure 44
0010
0010
0002
1003
,  // measure 45
0001
0010
0100
1000
,  // measure 46
0010
0010
2000
3001
,  // measure 47
1000
0100
0010
0001
,  // measure 48
0100
1000
0100
0001
,  // measure 49
0100
1000
0001
0010
,  // measure 50
1000
0010
0001
0010
,  // measure 51
1000
0100
0001
0100
,  // measure 52
0010
0100
1000
0100
,  // measure 53
0010
0001
0010
0001
,  // measure 54
0100
0010
0100
1000
,  // measure 55
0100
0001
0010
2000
,  // measure 56
3010
0110
0010
1000
,  // measure 57
0001
0010
0100
1000
,  // measure 58
1001
1001
1000
0010
,  // measure 59
1000
0001
0010
0100
,  // measure 60
0110
0110
0010
0001
,  // measure 61
0100
1000
0001
0010
,  // measure 62
0110
0110
0010
1000
,  // measure 63
0001
0010
0100
1000
,  // measure 64
1001
1001
1000
0100
,  // measure 65
1000
0010
0110
0000
,  // measure 66
1001
1001
0001
0100
,  // measure 67
0001
0010
0110
0000
,  // measure 68
1100
0011
0001
0100
,  // measure 69
0010
1000
1010
0000
,  // measure 70
0101
1010
1000
0010
,  // measure 71
0100
0001
0011
0020
,  // measure 72
0130
0000
0000
0000
;

//---------------dance-single - ----------------
#NOTES:
     dance-single:
     :
     Hard:
     14:
     0.781,0.654,0.561,0.071,1.000,612.000,71.000,9.000,0.000,0.000,0.000,0.781,0.654,0.561,0.071,1.000,612.000,71.000,9.000,0.000,0.000,0.000:
1001
0000
0000
1001
0000
0000
1000
0100
1000
0001
0000
0100
,
0001
0000
0100
0010
1000
0001
0010
0000
0000
0110
0000
0000
,
1001
0000
0000
1001
0000
0000
0001
0100
0001
1000
0000
0100
,
1000
0000
0100
0010
0001
1000
0010
0000
0000
0110
0000
0000
,
0101
0000
0000
1010
0000
0000
1000
0100
0001
0100
0000
1000
,
0010
0000
0100
0001
0010
0100
1000
0000
0000
1001
0000
0000
,
0011
0000
0000
1100
0000
0000
1000
0100
0001
0100
0000
1000
,
0100
0010
0100
0100
0010
0100
0100
0010
0100
0110
0000
0000
,
0011
0000
0000
1001
0000
0000
1000
0010
1000
0001
0000
0010
,
0100
1000
0001
0100
0000
0001
1000
0000
0000
1000
0000
0100
,
0110
0000
0000
1001
0000
0000
1000
0010
1000
0001
0000
0010
,
0100
0000
1000
0000
0001
0000
0010
0000
0000
0000
0001
0010
0100
0000
0000
0000
0000
0000
0110
0000
0000
0000
0010
0000
,
0011
0000
0000
1001
0000
0000
1000
0010
1000
0001
0000
0100
,
0001
0100
1000
0001
0000
0010
0100
0000
0000
0110
0000
0010
,
1010
0000
0000
1001
0000
0000
0001
0010
0001
1000
0000
0100
,
0010
0000
0100
0000
1000
0000
0010
0000
0000
0000
0100
0010
0100
0000
0000
0000
0000
0000
0110
0000
0000
0000
0000
0000
,
1001
0000
0000
1001
0000
0000
1000
0010
0100
0001
0000
0100
,
0010
0001
1000
0100
0000
0010
0100
0000
0000
0110
0000
0010
,
1010
0000
0000
1100
0000
0000
0100
0010
0001
0010
0000
0001
,
0100
0000
0010
0000
0100
0000
0010
0000
0000
0000
1000
0010
0100
0000
0000
0000
0000
0000
0101
0000
0000
0000
0001
0000
,
1001
0000
0000
1100
0000
0000
0100
0010
0100
1000
0000
0010
,
0100
0010
0001
0010
0000
1000
0010
0000
0000
1010
0000
1000
,
1001
0000
0000
0011
0000
0000
0010
0100
1000
0010
0000
0100
,
0001
0000
0010
0000
0100
0000
0010
0000
0000
0000
0100
1000
0001
0000
0000
0000
0000
0000
0101
0000
0000
0100
0000
0000
,
0010
0000
1000
0001
1000
0000
0100
0000
0010
0001
0000
0100
0000
0000
0010
0000
,
1000
0000
0001
0010
0000
0100
0000
0000
0210
0000
0000
0000
1300
0100
1000
0000
,
0100
0010
0001
1000
0000
0000
0010
0100
0001
1000
0000
0000
,
0100
0000
0010
0000
0100
0000
1000
0000
0000
0000
0000
0000
0010
0000
0100
0000
0010
0000
0001
0000
0000
0010
0000
0000
,
1000
0000
0100
0010
0100
0000
1000
0000
0100
0010
0000
0000
0010
0000
0001
0000
,
0100
0000
0010
1000
0000
0001
0000
0000
0021
0000
0000
0000
0130
0010
0100
0000
,
1000
0010
0100
1000
0000
0000
0001
0010
0100
0001
0000
0000
,
0010
0100
1000
0001
0000
0000
0100
0010
1000
1001
0000
0000
,
1100
0000
0000
1100
0000
0100
0010
0001
0010
0001
0010
0100
,
1000
0000
0000
0000
1010
0000
1000
0001
0000
0100
0000
0002
0000
0000
1003
0000
,
0101
0000
0000
0000
0000
0000
0000
0000
0000
0000
0000
0000
0101
0000
0000
0000
0000
0000
0000
0000
0100
0000
0000
0000
0010
0000
0000
0000
1000
0000
0000
0000
0010
0000
0000
0000
1000
0000
0000
0010
0000
0000
0100
0000
0000
0000
0000
0000
,
0001
0000
1000
0100
0000
0010
0000
0000
0100
1000
0000
0000
0002
0000
0000
0003
,
1100
0000
0000
1100
0000
0100
0010
0001
0010
0001
0010
0100
,
1000
0000
0000
0000
0001
0000
1000
0010
0000
0001
0000
0020
0000
0000
0130
0000
,
0101
0000
0000
0000
0000
0000
0000
0000
0000
0000
0000
0000
0101
0000
0000
0000
0000
0000
0000
0000
0100
0000
0000
0000
0010
0000
0000
0000
1000
0000
0000
0000
0010
0000
0000
0000
1000
0000
0000
0010
0000
0000
0100
0000
0000
0000
0000
0000
,
0001
0000
0100
0010
0000
1000
0000
0000
0001
0010
0000
0000
0110
0000
0000
0000
,
1100
0000
0000
1100
0000
0000
0100
1000
0001
0010
0001
0000
,
0100
0000
0010
1000
0001
0010
0100
1000
0001
0100
0000
0000
,
1010
0000
0000
1010
0000
0000
1000
0100
0001
0100
0010
0000
,
0001
0000
0010
0100
1000
0010
0100
0001
0010
0100
0000
0000
,
0011
0000
0000
0011
0000
0000
0001
0100
1000
0100
0010
0000
,
1000
0000
0010
1000
0001
0010
0100
1000
0001
0100
0000
0000
,
0101
0000
0000
0101
0000
0000
0100
0001
0010
0100
0010
0000
,
0001
0000
1000
0010
0100
1000
0001
0010
1000
0020
0000
0000
,
1030
0010
1000
0010
1000
0010
1000
0001
1000
0001
1000
0001
,
0010
0100
1000
0010
0100
0001
0010
0100
1000
0010
0000
0000
,
0100
0001
0100
0001
0100
0001
1000
0001
1000
0001
1000
0001
,
1000
0100
0010
0001
0100
0010
1000
0100
0010
0001
0000
0000
,
1000
0010
1000
0001
0010
0001
1000
0100
1000
0001
0100
0001
,
1000
0010
0001
1000
0100
0001
1000
0010
0001
1000
0000
0000
,
0100
0001
0100
0010
0001
0010
1000
0010
1000
0100
1000
0100
,
0010
0000
0001
0000
0100
0000
0010
0000
1000
0000
0100
0000
0010
0000
0001
0000
0100
0000
0020
0000
0000
0030
0000
0000
,
1100
0000
0000
1100
0000
1000
0100
0001
0100
1000
0010
0001
,
0010
0100
0001
0010
0100
1000
0010
0100
0001
0010
0000
0100
,
1000
0001
0010
0100
1000
0010
0100
0001
0010
0100
1000
0001
,
0100
0010
0100
0001
0010
0001
1000
0010
1000
0100
0000
0010
,
0011
0000
0000
0011
0000
0001
0100
0010
1000
0001
0010
0100
,
1000
0010
0100
0001
0010
0100
1000
0001
0100
0010
0000
1000
,
0010
0100
0001
0100
0010
1000
0100
0001
0100
1000
0100
1000
,
0010
0000
0100
0000
0010
0000
0100
0000
0001
0000
0100
0000
0001
0000
1000
0000
0001
0000
2000
0000
0000
3000
0000
0000
,
1001
0000
0000
0101
0000
0000
0100
0010
1000
0100
0000
0010
,
0001
0100
0010
1000
0000
0001
1000
0000
0000
0100
0000
0010
,
0110
0000
0000
1100
0000
0000
1000
0100
1000
0100
0000
0010
,
0100
0000
1000
0000
0001
0000
0100
0000
0000
0000
0010
0100
0010
0000
0000
0000
0000
0000
0110
0000
0000
0000
0100
0000
,
0101
0000
0000
0011
0000
0000
0001
0010
0001
0010
0000
0100
,
1000
0001
0100
0001
0000
0100
0010
0000
0000
0110
0000
0010
,
1010
0000
0000
1001
0000
0000
0001
0010
0001
1000
0000
0010
,
1000
0000
0010
0000
0100
0000
0010
0000
0000
0000
0100
0010
0100
0000
0000
0000
0000
0000
0210
0000
0000
0000
0000
0000
,
0301
0000
0000
0000
;

//---------------dance-single - ----------------
#NOTES:
     dance-single:
     :
     Medium:
     11:
     0.512,0.427,0.308,0.032,0.593,410.000,39.000,4.000,0.000,0.000,0.000,0.512,0.427,0.308,0.032,0.593,410.000,39.000,4.000,0.000,0.000,0.000: // measure 0
1100
0000
0000
1100
0000
0000
1000
0000
0010
0100
0000
0000
,  // measure 1
0001
0000
0010
0100
0000
0010
0100
0000
0000
0000
0000
0000
,  // measure 2
0011
0000
0000
0011
0000
0000
0001
0000
0100
0010
0000
0000
,  // measure 3
1000
0000
0100
0010
0000
0100
0010
0000
0000
0000
0000
0000
,  // measure 4
1010
0000
0000
1010
0000
0000
0010
0000
0100
0001
0000
0000
,  // measure 5
0010
0000
0100
1000
0000
0100
1000
0000
0000
0000
0000
0000
,  // measure 6
0101
0000
0000
0101
0000
0000
0100
0000
0010
1000
0000
0000
,  // measure 7
0100
0000
0010
0001
0000
0010
1000
0000
0000
0000
0000
0000
,  // measure 8
0110
0000
0000
1001
0000
0000
1000
0010
1000
0010
0000
0000
,  // measure 9
1000
0000
0001
0000
0000
0000
1001
0000
0000
0000
0000
0000
,  // measure 10
0110
0000
0000
1001
0000
0000
0001
0010
0001
0010
0000
0000
,  // measure 11
0001
0000
1000
0000
0000
0000
0100
0000
0000
0100
0000
1000
,  // measure 12
0010
0000
0000
0010
0000
0000
0100
0010
1000
0001
0000
0000
,  // measure 13
0010
0000
0100
0000
0000
0000
0110
0000
0000
0000
0000
1000
,  // measure 14
0100
0000
0000
0100
0000
0000
0010
0100
1000
0001
0000
0100
,  // measure 15
0010
0000
0100
0000
0000
0000
0001
0000
0000
0001
0000
0000
,  // measure 16
1001
0000
0000
0110
0000
0000
0010
1000
0010
1000
0000
0000
,  // measure 17
0100
0000
0010
0000
0000
0000
0110
0000
0000
0000
0000
0000
,  // measure 18
0110
0000
0000
1001
0000
0000
0001
0010
0001
0010
0000
0100
,  // measure 19
1000
0000
0001
0000
0000
0000
0100
0000
0000
0100
0000
0010
,  // measure 20
1000
0000
0000
1000
0000
0000
0100
0010
0001
0100
0000
0010
,  // measure 21
0100
0000
0001
0000
0000
0000
1001
0000
0000
0000
0000
1000
,  // measure 22
0001
0000
0000
0001
0000
0000
0010
0100
1000
0010
0000
0100
,  // measure 23
0010
0000
0000
0000
1000
0000
0000
0000
0000
0000
0000
0000
0001
0000
0000
0000
0000
0000
0001
0000
0000
1000
0000
0000
,  // measure 24
0010
0010
0010
0010
,  // measure 25
1000
0000
0000
0001
0000
0001
0000
0000
0020
0000
0000
0000
0000
0000
0130
0000
,  // measure 26
0010
0000
0100
0010
0000
0000
0100
0000
1000
0100
0000
0000
,  // measure 27
1000
0000
0001
1000
0000
0000
0001
0000
0100
0001
0000
0000
,  // measure 28
0010
0010
0010
0010
,  // measure 29
0001
0000
0000
1000
0000
1000
0000
0000
0020
0000
0000
0000
0000
0000
0130
0000
,  // measure 30
0010
0000
0100
0010
0000
0000
0100
0000
0001
0100
0000
0000
,  // measure 31
0001
0000
1000
0001
0000
0000
1000
0000
0100
1000
0000
0000
,  // measure 32
1100
0000
0000
0110
0000
0000
0100
0000
1000
0001
0000
0000
,  // measure 33
0100
0000
0000
0000
0001
0000
0000
0100
0000
0100
0000
0100
0000
0000
0010
0000
,  // measure 34
0100
0000
0000
0010
0000
1000
0010
0000
0000
0001
0000
0000
,  // measure 35
0010
0000
0000
1000
0000
0000
0001
0000
1000
0001
0000
0000
2000
0000
0000
0000
,  // measure 36
3100
0000
0000
0110
0000
0000
0010
0001
0010
0001
0000
0000
,  // measure 37
0100
0000
0000
0000
0001
0000
0000
0100
0000
0100
0000
0100
0000
0000
0010
0000
,  // measure 38
0110
0000
0000
0110
0000
0010
1000
0010
1000
0010
0000
0000
,  // measure 39
1000
0000
0000
0001
0000
0000
0001
0000
1000
0001
0000
0000
1000
0000
0000
0000
,  // measure 40
0100
0000
0000
0100
0000
0000
0000
1000
0100
1000
0100
0000
,  // measure 41
0010
0000
0000
0010
0000
0000
0001
0100
0001
0100
0000
0000
,  // measure 42
0010
0000
0000
0010
0000
0000
0000
1000
0001
1000
0001
0000
,  // measure 43
0010
0000
0000
0010
0000
0000
0001
1000
0001
1000
0000
0000
,  // measure 44
0100
0000
0000
0100
0000
0000
0000
0010
0001
0010
0001
0000
,  // measure 45
0100
0000
0000
0100
0000
0000
0010
1000
0010
1000
0000
0000
,  // measure 46
0001
0000
0000
0001
0000
0000
0000
0010
0100
0010
0100
0000
,  // measure 47
1000
0000
0000
1000
0000
0000
0010
0100
0010
0100
0000
0000
,  // measure 48
0010
0000
1000
0010
0000
0010
0001
0000
0010
1000
0000
0100
,  // measure 49
0001
0000
0100
1000
0000
1000
0010
0000
0010
0100
0000
0000
,  // measure 50
0001
0000
0001
0010
0000
0010
0100
0000
0100
1000
0000
1000
,  // measure 51
0001
0000
0001
0100
0000
0100
0010
0000
0010
1000
0000
0000
,  // measure 52
0001
0000
0001
1000
0000
1000
0010
0000
0010
0100
0000
0100
,  // measure 53
0001
0000
0001
0010
0000
0010
0100
0000
0100
1000
0000
0000
,  // measure 54
0010
0000
1000
0001
0000
1000
0001
0000
0100
0010
0000
1000
,  // measure 55
0010
0000
0100
0001
0000
0010
0001
0000
1000
0100
0000
0000
,  // measure 56
0110
0000
0000
0110
0000
0000
1000
0000
0100
1000
0000
0000
,  // measure 57
0001
0000
0100
0001
0000
0000
1000
0000
0010
1000
0000
0000
,  // measure 58
0110
0000
0000
0110
0000
0000
0100
0000
0001
0100
0000
0000
,  // measure 59
0010
0000
1000
0010
0000
0000
0100
0000
1000
0100
0000
0000
,  // measure 60
0110
0000
0000
0110
0000
0000
0010
0000
0001
1000
0000
0000
,  // measure 61
0010
0000
1000
0001
0000
0000
0100
0000
0001
1000
0000
0000
,  // measure 62
0110
0000
0000
0110
0000
0000
0100
0000
0001
0010
0000
0000
,  // measure 63
0100
0000
1000
0010
0000
0000
0100
0000
0001
0010
0000
0000
,  // measure 64
0110
0000
0000
0110
0000
0000
0100
1000
0100
1000
0000
0000
,  // measure 65
0010
0000
0010
0000
0000
0000
0110
0000
0000
0000
0000
0000
,  // measure 66
0101
0000
0000
0101
0000
0000
0001
1000
0001
1000
0000
1000
,  // measure 67
0100
0000
0010
0000
0000
0000
0100
0000
0000
0100
0000
1000
,  // measure 68
0001
0000
0000
0001
0000
0000
0100
0001
0100
0001
0000
0100
,  // measure 69
0010
0000
1000
0000
0000
0000
1001
0000
0000
0000
0000
0001
,  // measure 70
1000
0000
0000
1000
0000
0000
0100
0010
0100
0010
0000
0100
,  // measure 71
1000
0000
0010
0000
0000
0000
0100
0000
0000
0200
0000
0000
,  // measure 72
0310
0000
0000
0000
;

//---------------dance-single - ----------------
#NOTES:
     dance-single:
     :
     Beginner:
     2:
     0.075,0.057,0.134,0.016,0.000,47.000,17.000,2.000,0.000,0.000,0.000,0.075,0.057,0.134,0.016,0.000,47.000,17.000,2.000,0.000,0.000,0.000: // measure 0
0000
0000
0000
0000
,  // measure 1
0000
0000
0000
0000
,  // measure 2
0000
0000
0000
0000
,  // measure 3
0000
0000
0000
0000
,  // measure 4
1000
0000
0000
0000
,  // measure 5
1000
0000
0000
0000
,  // measure 6
0001
0000
0000
0000
,  // measure 7
0001
0000
0000
0000
,  // measure 8
0011
0000
0000
0000
,  // measure 9
0000
0000
0000
0000
,  // measure 10
1010
0000
0000
0000
,  // measure 11
0000
0000
0000
0000
,  // measure 12
1100
0000
0000
0000
,  // measure 13
0000
0000
0000
0000
,  // measure 14
0101
0000
0000
0000
,  // measure 15
0000
0000
0000
0000
,  // measure 16
1100
0000
0000
0000
,  // measure 17
0000
0000
0000
0000
,  // measure 18
1010
0000
0000
0000
,  // measure 19
0000
0000
0000
0000
,  // measure 20
0011
0000
0000
0000
,  // measure 21
0000
0000
0000
0000
,  // measure 22
0101
0000
0000
0000
,  // measure 23
0000
0000
0000
0000
,  // measure 24
1000
0000
0000
0000
,  // measure 25
1000
0000
0000
0000
,  // measure 26
2000
0000
0000
0000
,  // measure 27
0000
0000
0000
0000
,  // measure 28
3001
0000
0000
0000
,  // measure 29
0001
0000
0000
0000
,  // measure 30
0002
0000
0000
0000
,  // measure 31
0000
0000
0000
0000
,  // measure 32
0013
0000
0000
0000
,  // measure 33
0000
0000
0000
0000
,  // measure 34
0110
0000
0000
0000
,  // measure 35
0000
0000
0000
0000
,  // measure 36
1100
0000
0000
0000
,  // measure 37
0000
0000
0000
0000
,  // measure 38
1001
0000
0000
0000
,  // measure 39
0000
0000
0000
0000
,  // measure 40
0010
0000
0000
0000
,  // measure 41
0000
0000
0000
0000
,  // measure 42
0110
0000
0000
0000
,  // measure 43
0000
0000
0000
0000
,  // measure 44
0100
0000
0000
0000
,  // measure 45
0000
0000
0000
0000
,  // measure 46
0110
0000
0000
0000
,  // measure 47
0000
0000
0000
0000
,  // measure 48
0010
0000
0000
0000
,  // measure 49
0010
0000
0000
0000
,  // measure 50
0010
0000
0000
0000
,  // measure 51
0010
0000
0000
0000
,  // measure 52
1000
0000
0000
0000
,  // measure 53
1000
0000
0000
0000
,  // measure 54
1000
0000
0000
0000
,  // measure 55
1000
0000
0000
0000
,  // measure 56
0001
0000
0000
0000
,  // measure 57
0001
0000
0000
0000
,  // measure 58
0001
0000
0000
0000
,  // measure 59
0001
0000
0000
0000
,  // measure 60
0100
0000
0000
0000
,  // measure 61
0100
0000
0000
0000
,  // measure 62
0100
0000
0000
0000
,  // measure 63
0100
0000
0000
0000
,  // measure 64
1010
0000
0000
0000
,  // measure 65
0000
0000
0000
0000
,  // measure 66
1100
0000
0000
0000
,  // measure 67
0000
0000
0000
0000
,  // measure 68
0101
0000
0000
0000
,  // measure 69
0000
0000
0000
0000
,  // measure 70
0011
0000
0000
0000
,  // measure 71
0000
0000
0000
0000
,  // measure 72
0010
0000
0000
0000
;
