#TITLE:Party With Pinkie [VIP];
#SUBTITLE:;
#ARTIST:Alex S.;
#TITLETRANSLIT:;
#SUBTITLETRANSLIT:;
#ARTISTTRANSLIT:;
#GENRE:Modern Dubstep;
#CREDIT:C. Grab;
#BANNER:Party With Pinkie [VIP].png;
#BACKGROUND:Party With Pinkie [VIP]-bg.png;
#LYRICSPATH:;
#CDTITLE:;
#MUSIC:Party With Pinkie [VIP].mp3;
#OFFSET:-0.019;
#SAMPLESTART:30.744;
#SAMPLELENGTH:15.000;
#SELECTABLE:YES;
#DISPLAYBPM:125.000;
#BPMS:0.000=125.000
,50.000=187.500
,52.000=125.000
,54.000=187.500
,56.000=125.000
,58.000=187.500
,60.000=125.000
,66.000=187.500
,68.000=125.000
,70.000=250.000
,72.000=125.000
,74.000=187.500
,76.000=125.000
,82.000=156.250
,84.000=125.000
,86.000=156.250
,88.000=125.000
,90.000=187.500
,92.000=125.000
,98.000=187.500
,100.000=125.000
,102.000=187.500
,104.000=125.000
,106.000=250.000
,112.000=187.500
,114.000=156.250
,116.000=125.000
,143.000=375.000
,144.000=125.000
,154.000=187.500
,156.000=125.000
,158.000=250.000
,160.000=125.000
,170.000=187.500
,172.000=125.000
,174.000=187.500
,176.000=125.000
,186.000=250.000
,188.000=125.000
,190.000=250.000
,192.000=125.000
,198.000=375.000
,200.000=125.000
,202.000=250.000
,204.000=125.000
,271.000=375.000
,272.000=125.000
,337.500=187.500
,337.875=62.500
,338.000=125.000
,345.500=187.500
,345.875=62.500
,346.000=125.000
,353.500=187.500
,353.875=62.500
,354.000=125.000
,361.500=187.500
,361.875=62.500
,362.000=125.000
,366.000=187.500
,368.000=125.000
,369.500=187.500
,369.875=62.500
,370.000=125.000
,385.500=187.500
,385.875=62.500
,386.000=125.000
,393.500=187.500
,393.875=62.500
,394.000=125.000
,398.000=187.500
,400.000=125.000
,401.500=187.500
,401.875=62.500
,402.000=125.000
,409.500=187.500
,409.875=62.500
,410.000=125.000
,417.500=187.500
,417.875=62.500
,418.000=125.000
,425.500=187.500
,425.875=62.500
,426.000=125.000
,430.000=187.500
,432.000=125.000
,433.500=187.500
,433.875=62.500
,434.000=125.000
,449.500=187.500
,449.875=62.500
,450.000=125.000
,465.500=187.500
,465.875=62.500
,466.000=125.000
,481.500=187.500
,481.875=62.500
,482.000=125.000
,489.500=187.500
,489.875=62.500
,490.000=125.000
,497.500=187.500
,497.875=62.500
,498.000=125.000
,513.500=187.500
,513.875=62.500
,514.000=125.000
,521.500=187.500
,521.875=62.500
,522.000=125.000
;
#STOPS:50.000=0.040,
50.250=0.040,
50.500=0.040,
50.750=0.040,
51.000=0.040,
51.250=0.040,
51.500=0.040,
51.750=0.040,
54.000=0.040,
54.250=0.040,
54.500=0.040,
54.750=0.040,
55.000=0.040,
55.250=0.040,
55.500=0.040,
55.750=0.040,
58.000=0.040,
58.250=0.040,
58.500=0.040,
58.750=0.040,
59.000=0.040,
59.250=0.040,
59.500=0.040,
59.750=0.040,
66.000=0.040,
66.250=0.040,
66.500=0.040,
66.750=0.040,
67.000=0.040,
67.250=0.040,
67.500=0.040,
67.750=0.040,
70.000=0.060,
70.250=0.060,
70.500=0.060,
70.750=0.060,
71.000=0.060,
71.250=0.060,
71.500=0.060,
71.750=0.060,
74.000=0.040,
74.250=0.040,
74.500=0.040,
74.750=0.040,
75.000=0.040,
75.250=0.040,
75.500=0.040,
75.750=0.040,
82.000=0.024,
82.250=0.024,
82.500=0.024,
82.750=0.024,
83.000=0.024,
83.250=0.024,
83.500=0.024,
83.750=0.024,
86.000=0.024,
86.250=0.024,
86.500=0.024,
86.750=0.024,
87.000=0.024,
87.250=0.024,
87.500=0.024,
87.750=0.024,
90.000=0.040,
90.250=0.040,
90.500=0.040,
90.750=0.040,
91.000=0.040,
91.250=0.040,
91.500=0.040,
91.750=0.040,
98.000=0.040,
98.250=0.040,
98.500=0.040,
98.750=0.040,
99.000=0.040,
99.250=0.040,
99.500=0.040,
99.750=0.040,
102.000=0.040,
102.250=0.040,
102.500=0.040,
102.750=0.040,
103.000=0.040,
103.250=0.040,
103.500=0.040,
103.750=0.040,
106.000=0.060,
106.250=0.060,
106.500=0.060,
106.750=0.060,
107.000=0.060,
107.250=0.060,
107.500=0.060,
107.750=0.060,
108.000=0.060,
108.250=0.060,
108.500=0.060,
108.750=0.060,
109.000=0.060,
109.250=0.060,
109.500=0.060,
109.750=0.060,
110.000=0.060,
110.250=0.060,
110.500=0.060,
110.750=0.060,
111.000=0.060,
111.250=0.060,
111.500=0.060,
111.750=0.060,
112.000=0.040,
112.250=0.040,
112.500=0.040,
112.750=0.040,
113.000=0.040,
113.250=0.040,
113.500=0.040,
113.750=0.040,
114.000=0.024,
114.250=0.024,
114.500=0.024,
114.750=0.024,
115.000=0.024,
115.250=0.024,
115.500=0.024,
115.750=0.024,
143.000=0.160,
143.500=0.160,
154.000=0.040,
154.250=0.040,
154.500=0.040,
154.750=0.040,
155.000=0.040,
155.250=0.040,
155.500=0.040,
155.750=0.040,
158.000=0.060,
158.250=0.060,
158.500=0.060,
158.750=0.060,
159.000=0.060,
159.250=0.060,
159.500=0.060,
159.750=0.060,
170.000=0.040,
170.250=0.040,
170.500=0.040,
170.750=0.040,
171.000=0.040,
171.250=0.040,
171.500=0.040,
171.750=0.040,
174.000=0.040,
174.250=0.040,
174.500=0.040,
174.750=0.040,
175.000=0.040,
175.250=0.040,
175.500=0.040,
175.750=0.040,
186.000=0.060,
186.250=0.060,
186.500=0.060,
186.750=0.060,
187.000=0.060,
187.250=0.060,
187.500=0.060,
187.750=0.060,
190.000=0.060,
190.250=0.060,
190.500=0.060,
190.750=0.060,
191.000=0.060,
191.250=0.060,
191.500=0.060,
191.750=0.060,
198.000=0.080,
198.250=0.080,
198.500=0.080,
198.750=0.080,
199.000=0.080,
199.250=0.080,
199.500=0.040,
199.625=0.040,
199.750=0.080,
202.000=0.060,
202.250=0.060,
202.500=0.060,
202.750=0.060,
203.000=0.060,
203.250=0.060,
203.500=0.060,
203.750=0.060,
271.000=0.160,
271.500=0.160,
366.000=0.080,
366.500=0.080,
367.000=0.080,
367.500=0.080,
398.000=0.080,
398.500=0.080,
399.000=0.060,
399.375=0.020,
399.500=0.060,
399.875=0.020,
430.000=0.080,
430.500=0.080,
431.000=0.080,
431.500=0.080
;
#BGCHANGES:-3.500=Party With Pinkie [VIP].avi=1.000=0=0=0=StretchNoLoop====,
-2.123=Party With Pinkie [VIP]-bg.png=1.000=0=0=1=Centered====,
99999=-nosongbg-=1.000=0=0=0 // don't automatically add -songbackground-
;
#KEYSOUNDS:;
#ATTACKS:;

//---------------dance-single - Blank----------------
#NOTES:
     dance-single:
     Blank:
     Challenge:
     16:
     0.759,0.809,0.209,0.346,0.788,592.000,26.000,43.000,0.000,0.000,0.000,0.759,0.809,0.209,0.346,0.788,592.000,26.000,43.000,0.000,0.000,0.000:
0000
0000
0000
0000
,
0000
0000
0000
0000
,
0000
0000
0000
0000
,
0000
0000
0000
0000
0000
0000
0000
0000
0000
0000
0000
0000
0000
0000
0000
0000
1000
0001
2000
0000
0000
3020
0000
0000
,
0130
0001
0101
0100
0010
1000
1100
0100
,
1000
0000
0010
0000
0110
0000
0100
0000
0010
0000
1000
0000
1100
0000
0100
0010
,
0001
1000
1010
0010
0100
0001
0011
0010
,
0001
0000
1000
0000
1010
0000
0010
0000
1000
0000
0100
0000
1100
0000
1000
0010
,
0100
0001
0011
0010
0100
1000
1010
0010
,
0100
0001
1001
1000
0001
0100
0010
0100
,
0001
1000
0100
0010
0100
1000
0001
0100
,
0020
0000
0000
0000
0030
0000
0000
1000
,
1001
0000
0001
0000
1000
0100
0010
0000
0001
0100
0010
0100
0001
0100
0001
1000
,
0100
0000
1000
0000
0001
0100
0010
0000
1000
0100
0010
0100
1000
0100
1000
0001
,
0100
0000
0010
0000
0100
0100
0001
0000
0010
0001
0010
0001
1000
0010
1000
0010
,
0100
0000
0001
0000
1000
0100
0010
0000
0100
1000
0000
1000
0000
1000
0001
0000
,
0100
0000
0001
0000
1000
0010
0100
0000
0001
0010
0100
0010
0001
0010
0001
1000
,
0100
0000
0010
0000
0001
0010
0100
0000
1000
0010
1000
0010
0100
0001
1000
0100
,
0010
0000
0100
0000
0010
0010
0001
0000
0100
0001
0100
0010
0100
0010
1000
0001
,
0010
0000
0100
0000
0010
0001
1000
0000
0020
0000
1030
0000
0101
0000
1100
0000
,
0001
0000
0100
0000
0010
1000
0001
0000
1000
0100
0010
0100
1000
0100
1000
0001
,
0100
0000
0010
0000
1000
0001
0100
0000
0010
1000
0001
0010
0001
1000
0100
0010
,
0001
0000
0100
0000
0010
0010
1000
0000
0001
0010
0100
0010
0001
0010
0001
1000
,
0010
0000
0100
0000
0001
0010
0100
0000
2000
0000
3020
0000
0000
0000
0130
0000
,
0001
0000
0010
0000
0001
0100
0010
0000
1000
0100
1000
0100
0010
0100
1000
0001
,
0100
0000
0001
0000
1000
0100
0010
0000
0001
1000
0010
0100
0001
0100
0001
1000
,
0100
0000
0010
0000
0100
0100
0010
0000
0001
1000
0010
0100
0001
0100
0001
1000
,
0100
0010
0001
0010
0100
1000
0010
1000
0100
1000
0010
0100
0001
0010
0001
0100
,
0010
1000
0100
0010
0001
1000
0001
0010
0001
0100
0010
0100
0001
1000
0100
0010
,
0001
0000
1000
0000
0010
0100
0001
0000
1000
0100
0010
0100
1000
0001
0100
0010
,
1000
0000
0001
0000
0010
0010
0100
0000
1000
0001
0100
0010
1000
0100
1000
0100
,
0010
0000
0001
0000
1000
0010
0100
0000
0001
0010
0000
0010
0000
0010
0001
0000
,
1010
0000
1010
0000
0001
0010
0100
0000
1100
0000
1100
0000
0001
0100
0010
0000
,
1010
0000
1010
0000
0001
0010
0100
0000
1100
0000
1100
0000
0001
0100
0010
0000
,
1000
0100
0010
0100
1000
0001
0100
0001
1000
0100
0010
0001
1000
0010
0100
0010
,
1000
0010
0100
0001
0100
0010
1000
0001
0010
0001
0010
0100
2000
0000
0000
0000
0000
0000
3001
0000
0000
0101
0000
0000
,
2000
0000
0000
0000
0000
3010
0000
1000
0002
0000
0000
0000
0000
0013
0000
0100
,
2000
0000
0000
0000
0000
3001
0000
0010
0200
0000
0000
0000
0000
0000
0310
0010
,
0001
0000
1000
0000
0010
0100
0001
0000
1000
0100
1000
0001
0010
0200
2300
3002
,
0103
0000
0010
0000
1000
0100
0010
0000
0001
1000
0010
0100
0001
0020
0230
2300
,
3020
0000
0000
0000
0000
0130
0000
0001
2000
0000
0000
0000
3100
0010
0000
0010
,
0002
0000
0000
0000
0000
0013
0000
0100
1000
1000
0000
1000
0000
1000
0000
1000
,
0001
0000
0100
0000
0001
1000
0100
0000
0010
0001
0010
0100
1000
0002
0203
0320
,
0130
0000
0001
0000
1000
0100
0010
0000
0100
1000
0100
0010
0001
2000
3020
0230
,
0302
0000
0000
0000
0000
0013
0000
0100
2000
0000
0000
0000
0000
3010
0000
1000
,
0002
0000
0000
0000
0000
0013
0000
0100
1000
0001
0100
0010
0000
1000
0100
0000
,
0010
0000
0100
0000
1000
0010
0100
0000
0001
0010
0001
1000
0100
0020
0032
0203
,
0310
0000
0100
0000
0001
0010
0100
0000
1000
0010
0100
0001
1000
0200
2300
3002
,
0023
0000
0000
0000
0000
0130
0000
1000
0020
0000
0000
0000
0130
0001
0000
0001
,
0020
0000
0000
0000
0000
0000
0000
0000
0000
0000
0130
0000
0000
0000
1000
0000
0001
0000
0100
0000
0010
0000
1000
0000
0100
0000
0010
0000
0100
0010
0100
0000
,
1000
0000
0010
0000
1000
0100
0010
0000
0001
1000
0010
0100
0001
0020
0230
2300
,
3000
0000
1000
0000
0000
0000
1000
0000
0000
0000
1000
0000
0001
0100
0010
1000
,
1001
0001
0100
0001
0010
0100
0010
0001
,
1000
0010
0100
0001
1000
0100
1000
0001
,
0100
0010
0100
0001
0010
0100
0010
0001
,
1000
0010
0100
0001
0010
0100
0010
0001
,
1001
1000
0010
1000
0100
0010
0100
1000
,
0001
1000
0010
0100
0001
1000
0100
0010
,
0001
1000
0010
1000
0100
0010
0001
0010
,
0100
0000
0000
1000
0000
0000
0001
0000
0000
0100
0000
0000
0001
0000
0000
0010
0000
0000
0110
0000
0000
0100
0010
0002
,
2000
0000
0000
0000
,
3003
0000
0000
0000
;

//---------------dance-single - Blank----------------
#NOTES:
     dance-single:
     :
     Hard:
     12:
     0.499,0.555,0.088,0.249,0.286,392.000,11.000,31.000,0.000,0.000,0.000,0.499,0.555,0.088,0.249,0.286,392.000,11.000,31.000,0.000,0.000,0.000:
0000
0000
2000
3001
0000
0000
0000
0000
,
0000
0010
2000
3001
0000
0000
0000
0000
,
0000
0000
0002
1003
0000
0000
0000
0000
,
0000
0000
0000
0010
0000
0000
0002
0000
0000
1003
0000
0000
0000
0000
0000
0000
1000
0001
1000
0000
0000
0100
0000
0000
,
0000
0000
2000
3001
0000
0000
0001
0000
,
0000
0100
2000
3001
0000
0000
0001
0000
,
0000
0000
0002
1003
0000
0000
1000
0000
,
0000
0100
0002
1003
0000
0000
1000
0000
,
0000
0000
2000
3001
0000
0000
0001
0000
,
0000
0010
0002
1003
0000
0000
1000
0000
,
1000
0100
0010
0001
1000
0010
0100
0001
,
1000
0010
0100
0010
0100
0000
0000
0110
,
0010
0000
1000
0000
0010
1000
0010
1000
,
0100
0000
0010
0000
0100
0010
0100
0010
,
0001
0000
0100
0000
0001
0100
0001
0100
,
0010
0000
0000
0000
1000
0000
0000
0000
0010
1000
0000
0001
0000
1000
0001
0000
,
1000
0000
0100
0000
0010
0100
0010
0100
,
1000
0000
0010
0000
0100
0010
0100
0010
,
1000
0000
0001
0000
1000
0001
1000
0001
,
0010
0000
0000
0000
0100
0000
0000
0000
1000
0000
0010
1000
0010
0000
0100
0000
,
0001
0000
1000
0000
0001
1000
0001
1000
,
0100
0000
0010
0000
0100
0010
0100
0010
,
0001
0000
0100
0000
0001
0100
0001
0100
,
0010
0000
0000
0000
1000
0000
0000
0000
0010
1000
0200
0000
0000
0000
0310
0000
,
0100
0000
1000
0000
0100
1000
0100
0010
,
0100
0000
1000
0000
0010
0100
0010
1000
,
0010
0000
0100
0000
0001
1000
0100
0010
,
0001
1000
0010
0100
0001
1000
0100
0010
,
0011
1100
0101
1010
,
0010
0100
0002
1003
0001
0100
0001
0100
,
0001
0010
0002
1003
1000
0100
1000
0100
,
0010
0000
0001
0000
0200
0000
0310
0000
0100
0001
0000
0100
0000
0001
1000
0000
,
1000
0001
2000
3001
0010
0100
0020
0130
,
0001
1000
0002
1003
0100
0010
0200
0310
,
0100
0001
0100
0001
0100
0000
0001
0000
0010
0001
0010
0001
0010
0000
0100
0000
,
1000
0100
1000
0100
1000
0100
1000
0000
0000
0001
0000
0000
0001
0000
0000
0000
0000
0000
0000
0000
0000
1001
0000
0000
,
0120
0000
0000
0000
0000
1000
0030
0010
0200
0000
0000
0000
0000
0001
0300
0100
,
0020
0000
0000
0000
0000
1000
0030
0010
2000
0000
0000
0000
0000
0000
0001
0000
,
3001
0000
1000
0000
0010
0000
1000
0000
0100
0000
0000
0000
0100
0010
0001
0010
,
0100
0000
1000
0000
0100
0000
1000
0000
0001
0000
0000
0000
0001
1000
0010
0100
,
0002
0000
0000
0000
0000
1000
0003
0001
0200
0000
0000
0000
0301
0100
0000
0100
,
0020
0000
0000
0000
0000
1000
0030
0010
0100
0010
0000
0010
0000
0010
0000
0010
,
1000
0000
0001
0000
1000
0000
0001
0000
1000
0000
0000
0000
0100
0010
0100
1000
,
0010
0000
1000
0000
0010
0000
1000
0000
0001
0000
0000
0000
0001
1000
0010
0100
,
0002
0000
0000
0000
0000
1000
0003
0001
2000
0000
0000
0000
0000
0100
3000
1000
,
0020
0000
0000
0000
0000
0100
0030
0010
0100
0001
0100
0001
0000
0100
0010
0000
,
1000
0000
0010
0000
1000
0000
0010
0000
0100
0000
0000
0000
0100
0010
1000
0001
,
0010
0000
0001
0000
0010
0000
0001
0000
0100
0000
0000
0000
0010
1000
0001
0010
,
0200
0000
0000
0000
0000
1000
0300
0100
2000
0000
0000
0000
3001
1000
0000
1000
,
0200
0000
0000
0000
0000
0010
0300
0100
0010
0001
0010
0001
0000
0100
0001
0100
,
0010
0000
1000
0000
0010
0000
1000
0000
0001
0000
0000
0000
1000
0001
0010
0100
,
0000
0110
0000
1001
0000
0110
0000
1001
,
1000
0000
0100
0000
0010
0001
0010
0000
,
0001
0000
0100
0000
0010
1000
0010
0000
,
1000
0000
0001
0000
1000
0001
1000
0000
,
0010
0000
0100
0000
0010
0100
0010
0000
,
1000
0010
1000
0000
0000
0000
0001
0000
1000
0010
1000
0000
0000
0000
0001
0000
,
1000
0100
1000
0100
0010
0001
0010
0001
,
0100
0000
0010
0000
0100
0010
1000
0100
,
0010
0000
0000
0000
0000
0000
0010
0000
0000
0000
0000
0000
0100
0000
0000
0100
0000
0000
0100
0000
0000
0010
0100
0010
,
0100
0000
0000
0000
;

//---------------dance-single - Blank----------------
#NOTES:
     dance-single:
     :
     Beginner:
     4:
     0.107,0.193,0.040,0.000,0.000,88.000,5.000,0.000,0.000,0.000,0.000,0.107,0.193,0.040,0.000,0.000,88.000,5.000,0.000,0.000,0.000,0.000: // measure 0
0000
0000
0000
0000
,  // measure 1
0000
0000
0000
0000
,  // measure 2
0000
0000
0000
0000
,  // measure 3
0000
0000
0000
0000
,  // measure 4
0010
0000
0000
0000
,  // measure 5
0010
0000
0000
0000
,  // measure 6
0010
0000
0000
0000
,  // measure 7
0010
0000
0000
0000
,  // measure 8
0100
0000
0000
0000
,  // measure 9
0100
0000
0000
0000
,  // measure 10
0100
0000
0000
0000
,  // measure 11
0100
0000
0000
0000
,  // measure 12
0001
0000
0000
0000
,  // measure 13
1000
0000
0000
0000
,  // measure 14
0001
0000
0000
0000
,  // measure 15
1000
0000
0000
0000
,  // measure 16
0100
0000
0000
0000
,  // measure 17
0010
0000
0000
0000
,  // measure 18
0100
0000
0000
0000
,  // measure 19
0010
0000
0110
0000
,  // measure 20
1001
0000
0000
0000
,  // measure 21
1000
0000
0000
0000
,  // measure 22
0001
0000
0000
0000
,  // measure 23
1000
0000
0000
0000
,  // measure 24
0010
0000
0000
0000
,  // measure 25
0100
0000
0000
0000
,  // measure 26
0010
0000
0000
0000
,  // measure 27
0000
0000
0000
0000
,  // measure 28
0100
0100
0100
0100
,  // measure 29
0100
0100
0100
0100
,  // measure 30
0010
0010
0010
0010
,  // measure 31
0010
0010
0010
0010
,  // measure 32
1000
1000
0001
0001
,  // measure 33
1000
1000
0001
0001
,  // measure 34
1000
0001
1000
0001
,  // measure 35
1001
0000
0000
0000
,  // measure 36
0000
0000
0010
0000
,  // measure 37
0010
0000
0010
0000
,  // measure 38
0100
0000
0000
0000
,  // measure 39
0100
0000
0000
0000
,  // measure 40
0000
0000
0010
0000
,  // measure 41
0010
0000
0010
0000
,  // measure 42
0001
0000
0000
0000
,  // measure 43
0001
0000
0000
0000
,  // measure 44
0000
0000
0010
0000
,  // measure 45
0010
0000
0010
0000
,  // measure 46
1000
0000
0000
0000
,  // measure 47
1000
0000
0000
0000
,  // measure 48
0000
0000
0100
0000
,  // measure 49
0100
0000
0100
0000
,  // measure 50
0010
0000
0010
0000
,  // measure 51
0010
0000
0010
0000
,  // measure 52
0110
0000
0000
0000
,  // measure 53
0100
0000
0100
0000
,  // measure 54
0100
0000
0000
0000
,  // measure 55
0010
0000
0010
0000
,  // measure 56
0010
0000
0000
0000
,  // measure 57
0001
0000
0001
0000
,  // measure 58
0001
0000
0000
0000
,  // measure 59
1000
0000
1000
0000
,  // measure 60
1001
0000
0000
0000
;

//---------------dance-single - Blank----------------
#NOTES:
     dance-single:
     :
     Easy:
     7:
     0.300,0.386,0.241,0.008,0.000,230.000,30.000,1.000,0.000,0.000,0.000,0.300,0.386,0.241,0.008,0.000,230.000,30.000,1.000,0.000,0.000,0.000:
0000
0000
0000
0001
0000
0000
0000
0000
,
0000
0000
1000
0001
0000
0000
0000
0000
,
0000
0000
0000
1000
0000
0000
0000
0000
,
0000
0000
0001
1000
0000
0000
0100
0000
,
0000
0000
0000
0001
0000
0000
0001
0000
,
0000
0000
0001
1000
0000
0000
1000
0000
,
0000
0000
0000
0001
0000
0000
0001
0000
,
0000
0000
0001
1000
0000
0000
1000
0000
,
0000
0000
0000
0001
0000
0000
0000
0000
,
0001
0010
0100
1000
,
0010
0100
0010
0100
,
0001
1000
0001
1001
,
1000
0100
0010
0010
,
0100
1000
0001
0001
,
0100
0010
1000
1000
,
0001
0010
0100
0100
,
1000
0010
0001
0001
,
0010
0100
0001
0001
,
1000
0001
0100
0100
,
0010
1000
0100
0110
,
0001
0010
0100
0100
,
1000
0010
0001
0001
,
0010
0100
0001
0001
,
1000
0100
0020
0130
,
0010
0001
0100
0100
,
0010
1000
0001
0001
,
1000
0100
0010
0010
,
0100
0100
0010
0010
,
0110
1001
0110
1001
,
0110
1010
0101
1010
,
0110
0011
1100
0011
,
0110
1001
0110
1001
,
0010
0010
0100
0100
,
0001
0001
1000
1000
,
0001
1000
0001
1000
0001
1000
0001
1000
,
0001
1000
0001
1000
0001
0000
0000
0000
,
1001
1000
0100
0010
,
0001
0100
0010
1000
,
0001
0001
1000
1000
,
0100
0100
0010
0010
,
0011
0001
0100
0010
,
1010
1000
0100
0010
,
0001
0001
1000
1000
,
0010
0010
0100
0100
,
0101
0001
1000
0001
,
1001
0001
0010
0100
,
0110
0010
0100
0100
,
1100
1000
0001
0001
,
0100
0010
0100
0010
,
1000
0000
0001
0000
1000
0001
1000
0001
,
1000
0100
0010
0010
,
0000
0110
0000
0110
0000
0110
0000
0110
,
0010
0001
0100
0001
,
0010
0100
1000
0100
,
1000
0010
0100
0001
,
0010
0100
0010
0001
,
1000
0001
1000
0010
,
0100
0010
0100
0010
,
1000
0001
1000
0100
,
0010
0100
0010
0100
,
0110
0000
0000
0000
;

//---------------dance-single - Blank----------------
#NOTES:
     dance-single:
     :
     Medium:
     10:
     0.392,0.410,0.048,0.008,0.060,334.000,6.000,1.000,0.000,0.000,0.000,0.392,0.410,0.048,0.008,0.060,334.000,6.000,1.000,0.000,0.000,0.000:
0000
0000
0000
0001
0000
0000
0000
0000
,
0000
0001
1000
0001
0000
0000
0000
0000
,
0000
0000
0000
1000
0000
0000
0000
0000
,
0000
1000
0001
1000
0000
0000
1100
0000
,
0100
0000
0010
0100
0000
0000
0010
0000
,
0001
0100
0010
0100
0000
0000
0010
0000
,
1000
0000
0001
1000
0000
0000
1100
0000
,
0100
0010
0100
0010
0000
0000
0001
0000
,
1000
0000
0001
1000
0000
0000
1010
0000
,
0010
0100
0001
0100
0000
0000
0010
0000
,
1000
0010
0100
0001
,
1000
0000
0001
0000
1001
0000
1000
0100
,
1000
0000
0010
0000
1000
0100
1000
0100
,
0010
0000
0001
0000
0100
0001
0100
0001
,
0100
0000
0010
0000
1000
0001
1000
0001
,
1000
0000
0100
0000
0010
0001
0010
0100
,
1000
0000
0010
0000
1000
0010
1000
0010
,
0100
0000
0001
0000
0100
0001
1000
0001
,
0010
0000
0100
0000
0010
0100
0010
0100
,
1000
0000
0000
0000
0010
0000
0000
0000
0100
0000
0001
0100
0001
0000
0100
0000
,
0010
0000
1000
0000
0001
1000
0001
1000
,
0010
0000
0100
0000
0010
1000
0010
1000
,
0100
0000
0010
0000
0100
0010
0100
0010
,
0001
0000
1000
0000
0001
2000
0000
3001
,
1000
0000
0100
0000
1000
0010
0100
0010
,
0100
0000
0001
0000
1000
0100
0010
0100
,
0010
0000
0001
0000
0100
0001
0010
0100
,
1000
0010
0100
0001
0010
0100
1000
0010
,
0100
0010
0100
0010
0100
0010
0100
0010
,
1000
0001
1000
0001
1000
0001
1000
0001
,
0100
0010
0100
0010
0100
0010
0100
0010
,
1000
0100
0010
0001
1000
0100
0010
0001
,
1000
1000
0001
0001
1000
1000
0001
0001
,
0100
0100
0010
0010
0100
0100
0010
0010
,
1000
0010
0100
0001
1000
0100
0010
0001
,
1000
0001
1000
0001
1000
0000
0001
0000
1001
0000
0000
0000
0000
0000
1000
0000
,
0001
0000
0000
0000
0000
0010
0000
0000
0010
0000
0000
0000
0000
0100
0000
0000
,
0100
0000
0000
0000
0000
1000
0000
0000
1000
0000
0000
0000
0001
0000
0000
0000
,
1000
0000
0100
0000
1000
0100
1000
0001
,
0100
0000
0001
0000
0100
0001
0100
0010
,
1000
0000
0000
0000
0000
0100
0000
0000
0100
0000
0000
0000
0010
0100
0000
0000
,
0010
0000
0000
0000
0000
0001
0000
0000
0001
0000
0000
0000
1000
0000
0000
0000
,
0001
0000
0100
0000
0010
1000
0010
0100
,
0001
0000
1000
0000
0001
0100
0001
1000
,
0100
0000
0000
0000
0000
0010
0000
0000
0010
0000
0000
0000
0000
0100
0000
0000
,
0100
0000
1000
0000
0001
0000
0100
0001
,
0100
0000
0010
0000
1000
0001
0010
0100
,
0010
0000
0100
0000
1000
0001
0100
0010
,
0100
0000
0000
0000
0000
0010
0000
0000
0010
0000
0000
0000
0100
0001
0000
0000
,
0100
0000
0000
0000
0010
0000
0000
0000
1000
0001
1000
0001
0000
0000
0000
0000
,
1000
0000
0100
0000
0010
0001
0010
0001
,
0100
0010
0000
0010
0000
0010
1000
0010
,
0100
0000
0001
0000
0100
0001
0100
0000
,
0001
0000
0010
0000
0001
0010
0001
0000
,
0010
0000
0100
0000
0010
0100
0010
0000
,
0100
0000
1000
0000
0100
1000
0100
0000
,
1000
0001
0000
0100
0001
1000
0000
0100
,
0010
0010
0100
0100
,
1000
0000
0001
0000
1000
0001
1000
0000
,
0010
0000
0100
0000
0010
0100
0010
0100
,
0110
0000
0000
0000
;
