#VERSION:0.81;
#TITLE:Party 4U (For Pinkie Pie Remix);
#SUBTITLE:;
#ARTIST:Cranky remixed by YURIMEAS;
#TITLETRANSLIT:;
#SUBTITLETRANSLIT:;
#ARTISTTRANSLIT:;
#GENRE:Rave;
#ORIGIN:;
#CREDIT:;
#BANNER:Party 4U (For Pinkie Pie Remix).png;
#BACKGROUND:Party 4U (For Pinkie Pie Remix)-bg.png;
#PREVIEWVID:;
#JACKET:Party 4U (For Pinkie Pie Remix)-jacket.png;
#CDIMAGE:;
#DISCIMAGE:;
#LYRICSPATH:;
#CDTITLE:;
#MUSIC:Party 4U (For Pinkie Pie Remix).mp3;
#OFFSET:-0.019;
#SAMPLESTART:84.530;
#SAMPLELENGTH:15.000;
#SELECTABLE:YES;
#BPMS:0.000=159.000;
#STOPS:;
#DELAYS:;
#WARPS:;
#TIMESIGNATURES:0.000=4=4;
#TICKCOUNTS:0.000=4;
#COMBOS:0.000=1;
#SPEEDS:0.000=1.000=0.000=0;
#SCROLLS:0.000=1.000;
#FAKES:;
#LABELS:0.000=Song Start;
#BGCHANGES:;
#KEYSOUNDS:;
#ATTACKS:
;

//---------------dance-single - ----------------
#NOTEDATA:;
#CHARTNAME:;
#STEPSTYPE:dance-single;
#DESCRIPTION:;
#CHARTSTYLE:;
#DIFFICULTY:Easy;
#METER:6;
#RADARVALUES:0.396,0.371,0.197,0.197,0.000,265.000,22.000,22.000,0.000,0.000,0.000,0.000,0.000,0.396,0.371,0.197,0.197,0.000,265.000,22.000,22.000,0.000,0.000,0.000,0.000,0.000;
#CREDIT:;
#NOTES:
0010
1000
0010
1000
,
0001
0010
0001
0010
,
0001
1000
0001
1000
,
0010
0100
0010
0100
,
0010
0010
1000
0010
,
0001
0001
0010
0001
,
0010
0010
0100
0010
,
1000
1000
0001
1000
,
0002
0000
0000
0003
,
1001
0110
0011
1100
,
0100
0100
0010
0100
,
1000
0100
0010
0001
,
0100
0100
0010
0100
,
0001
0010
0100
1000
,
0010
0010
0100
0010
,
1000
0100
0010
0001
,
0010
0010
0100
0010
,
0001
0100
0010
1000
,
0100
0001
0100
1000
,
0010
1000
0001
0100
,
1000
0100
0001
0100
,
0010
1000
0001
0100
,
0010
1000
0010
0001
,
0010
1000
0001
0100
,
0001
0010
1000
0010
,
0100
1000
0001
0010
,
0100
0100
0100
1000
,
0010
0010
0010
0100
,
0001
0001
0001
0010
,
0100
0100
0100
1000
,
0020
1000
1000
0130
,
0020
1000
1000
0031
,
0020
0100
0100
1030
,
0020
0100
0100
0031
,
0011
0000
0000
0000
,
1010
1100
0101
0110
,
0010
0010
0100
0100
,
0010
0010
0100
1000
,
0001
0001
0100
0001
,
0010
0010
0100
0010
,
0100
1000
0100
1000
,
0001
0010
0001
0010
,
0100
1000
0010
0001
,
0010
1000
0100
0001
,
0100
0100
0010
0010
,
0100
0100
0010
0001
,
1000
1000
0010
1000
,
0001
0001
0010
0001
,
0100
0001
0100
0001
,
1000
0010
1000
0010
,
0100
0001
0010
1000
,
0010
0001
0100
1000
,
1200
0010
0001
0301
,
0201
0010
1000
1300
,
0120
1000
0001
0031
,
0120
0001
1000
1030
,
2100
0001
0100
3001
,
0102
1000
0100
1003
,
2001
0010
0001
3010
,
1002
0010
1000
0013
,
0210
1000
0001
0310
,
0220
0300
1000
0130
,
0120
0001
1000
0130
,
0220
0030
0001
0310
,
0010
0001
0100
1000
,
0002
0013
1000
0100
,
0010
0010
0100
0100
,
1000
0100
0010
0001
,
2002
0000
0000
0000
,
3003
0000
0000
0000
;

//---------------dance-single - ----------------
#NOTEDATA:;
#CHARTNAME:;
#STEPSTYPE:dance-single;
#DESCRIPTION:;
#CHARTSTYLE:;
#DIFFICULTY:Medium;
#METER:10;
#RADARVALUES:0.498,0.526,0.170,0.045,0.256,365.000,19.000,5.000,0.000,0.000,0.000,0.000,0.000,0.498,0.526,0.170,0.045,0.256,365.000,19.000,5.000,0.000,0.000,0.000,0.000,0.000;
#CREDIT:;
#NOTES:
0000
0000
0000
0000
,
0000
0000
0000
0000
,
0000
0000
0000
0000
,
0000
0000
0000
0000
,
1000
1000
0001
0001
,
0010
0010
0100
0100
,
1000
1000
0100
0100
,
0010
0010
0001
0001
0100
0100
0010
0010
,
2000
0000
0000
0000
,
3001
0000
0000
1000
0001
0000
0010
0000
0100
0000
0000
0000
1000
0000
0000
0000
,
0100
1000
0100
0000
1000
0100
1000
0000
,
0010
0010
0110
0110
,
0100
0001
0100
0000
0001
0100
0001
0000
,
0010
0010
0110
0110
,
0100
1000
0010
0000
0100
0001
0010
0000
,
0100
0100
0110
0110
,
0010
0001
0100
0000
0010
1000
0100
0000
,
0100
0000
0100
0000
0010
0100
0010
0100
,
0010
0001
1000
0000
0010
1000
0001
0000
,
0010
0010
0110
0110
,
0010
0001
1000
0000
0010
1000
0001
0000
,
0010
0010
0110
0110
,
0100
1000
0001
0000
0100
0001
1000
0000
,
0100
0100
0110
0110
,
0100
1000
0001
0000
0100
0001
1000
0000
,
0100
0000
0100
0000
0010
0100
0010
0100
,
0010
0000
0000
0010
0000
0000
0010
0000
0000
0010
0000
0000
0010
0000
0000
0000
,
0100
0000
0000
0100
0000
0000
0100
0000
0000
0100
0000
0000
0100
0000
0000
0000
,
1000
0000
0000
1000
0000
0000
1000
0000
0000
1000
0000
0000
1000
0000
0000
0000
,
0001
0000
0000
0001
0000
0000
0001
0000
0000
0001
0000
0000
0001
0000
0000
0000
,
0100
0000
0000
0010
0000
0000
1000
0000
0000
0001
0000
0000
0010
0000
0000
0000
,
0100
0000
0000
1000
0000
0000
0001
0000
0000
0010
0000
0000
0100
0000
0000
0000
,
1000
0000
0000
0100
0000
0000
0010
0000
0000
0001
0000
0000
0100
0000
0000
0000
,
0001
0000
0000
0100
0000
0000
0010
0000
0000
1000
0000
0000
0100
0000
0000
0000
,
0110
0000
0000
0000
,
0011
1100
0101
1010
,
0010
0000
0001
0000
0000
0001
0000
0000
0001
0000
0000
0001
0000
0000
0001
0000
,
1000
0000
0010
0000
0000
0010
0000
0000
0010
0000
0000
0010
0000
0000
0010
0000
,
0100
0000
0001
0000
0000
0001
0000
0000
0001
0000
0000
0001
0000
0000
0001
0000
,
1000
0000
0100
0000
0000
0100
0000
0000
0010
0000
0000
0100
0000
0000
1000
0000
,
0001
0000
0100
0000
0000
0100
0000
0000
0100
0000
0000
0100
0000
0000
0100
0000
,
0010
0000
1000
0000
0000
1000
0000
0000
1000
0000
0000
1000
0000
0000
1000
0000
,
0001
0000
0010
0000
0000
0010
0000
0000
0010
0000
0000
0010
0000
0000
0010
0000
,
0100
0000
1000
0000
0000
1000
0000
0000
0001
0000
0000
0010
0000
0000
0100
0000
,
1000
0000
0001
0000
1000
0100
0001
0000
,
0100
0010
0100
0010
0001
0100
1000
0000
,
0100
0000
0010
0000
1000
0010
0001
0000
,
0010
1000
0100
0001
1000
0010
0001
0000
,
0100
0010
0100
0010
1000
0001
1000
0001
,
0010
0100
0010
0100
1000
0001
1000
0001
,
0100
0001
0010
0100
1000
0100
0010
0001
,
0100
1000
0001
0010
1000
0100
0001
0100
,
0010
0000
0000
0010
0000
0000
0010
0000
0000
0010
0000
0000
0010
0000
0100
0000
,
0010
0000
0000
0100
0000
0000
1000
0000
0000
0001
0000
0000
0100
0000
0010
0000
,
1000
0000
0000
1000
0000
0000
1000
0000
0000
1000
0000
0000
1000
0000
0001
0000
,
0010
0000
0000
0100
0000
0000
1000
0000
0000
0010
0000
0000
0100
0000
0001
0000
,
0100
0000
0000
0100
0000
0000
0100
0000
0000
0100
0000
0000
0100
0000
0010
0000
,
1000
0000
0000
0001
0000
0000
0010
0000
0000
0100
0000
0000
1000
0000
0010
0000
,
0001
0000
0000
0001
0000
0000
0001
0000
0000
0001
0000
0000
0001
0000
0010
0000
,
0100
0000
0000
0001
0000
0000
1000
0000
0000
0010
0000
0000
0100
0000
0010
0000
,
1000
0000
0000
0100
0000
0000
0010
0000
0000
0001
0000
0000
1000
0000
0001
0000
,
2001
0000
0000
3010
0000
0000
1000
0000
0000
0010
0000
0000
0100
0000
0001
0000
,
0010
0000
0000
0100
0000
0000
1000
0000
0000
0001
0000
0000
0100
0000
0010
0000
,
2010
0000
0000
3100
0000
0000
1000
0000
0000
0100
0000
0000
0010
0000
0001
0000
,
0100
0010
0100
0010
1000
0001
1000
0001
,
0020
0130
0010
0001
0100
0010
0100
1000
,
0100
0010
0100
0010
1000
0010
0100
0001
,
0010
1000
0010
0001
0100
1000
0100
0001
,
0020
0000
0000
0000
,
0030
0000
0000
0000
;

//---------------dance-single - ----------------
#NOTEDATA:;
#CHARTNAME:;
#STEPSTYPE:dance-single;
#DESCRIPTION:;
#CHARTSTYLE:;
#DIFFICULTY:Hard;
#METER:17;
#RADARVALUES:0.863,0.835,0.870,0.099,0.870,566.000,97.000,11.000,0.000,0.000,0.000,0.000,0.000,0.863,0.835,0.870,0.099,0.870,566.000,97.000,11.000,0.000,0.000,0.000,0.000,0.000;
#CREDIT:;
#NOTES:
0010
0000
1000
0010
0000
0000
1000
0010
0000
0000
1000
0010
0000
0000
1000
0001
,
0000
0000
0001
0010
0000
0000
0001
0010
0000
0000
0001
0010
0000
0000
0001
1000
,
0000
0000
0100
0010
0000
0000
0100
0010
0000
0000
0100
0010
0000
0000
0100
0010
,
0000
0000
0001
1000
0000
0000
0001
1000
0000
0000
0001
1000
0000
0000
0001
1000
,
0001
0000
0010
0001
0010
0000
0001
0010
0001
0000
0010
0001
0010
0000
0001
0010
,
0100
0000
0010
0100
0010
0000
0100
0010
0100
0000
0010
0100
0010
0000
0100
0010
,
0001
0000
1000
0001
1000
0000
0001
1000
0001
0000
1000
0001
1000
0000
0001
1000
,
0010
1000
0001
0010
0100
1000
0001
0100
,
0220
0000
0000
0000
0000
0000
0000
0330
,
1001
0000
0000
1000
0010
0000
0100
0000
0110
0000
0000
0000
1001
0000
0000
0000
,
0001
0000
0010
0001
0010
0000
0001
0100
0000
0000
1000
0100
0000
0000
0001
0100
,
0010
0100
0000
0000
0010
0000
0100
0000
0011
0000
0000
0000
0011
0000
0000
0000
,
0010
0000
1000
0010
1000
0000
0100
0010
0000
0000
0100
0010
0000
0000
0100
0010
,
0001
1000
0000
0000
0001
0000
1000
0000
0101
0000
0000
0000
0101
0000
0000
0000
,
0100
0000
0010
1000
0100
0000
0010
0001
0000
0000
0010
0001
0000
0000
0001
0100
,
0010
1000
0000
0000
0010
0000
0100
0000
1010
0000
0000
0000
1010
0000
0000
0000
,
1000
0000
0001
0010
0100
0000
0010
0001
0000
0000
0010
0001
0000
0000
0010
0001
,
1000
0100
0000
0000
0010
0000
0100
0000
1100
0000
0010
0000
0001
0000
0100
0000
,
0010
0000
1000
0010
0100
0000
0001
0100
0000
0000
0001
1000
0000
0000
1000
0100
,
0010
0001
0000
0000
0100
0000
0010
0000
0110
0000
0000
0000
1001
0000
0000
0000
,
1000
0000
0010
1000
0001
0000
0010
0100
0000
0000
1000
0100
0000
0000
0001
0100
,
0010
0001
0000
0000
1000
0000
0001
0000
1001
0000
0000
0000
0110
0000
0000
0000
,
0010
0000
1000
0010
0001
0000
1000
0100
0000
0000
0100
0010
0000
0000
1000
0100
,
0001
0010
0000
0000
0100
0000
1000
0000
1001
0000
0000
0000
0110
0000
0000
0000
,
0010
0000
1000
0100
0001
0000
1000
0010
0000
0001
0010
0000
0000
0000
1000
0010
,
0001
0100
0000
0000
0010
0000
1000
0000
1010
0000
0100
0000
0001
0000
0010
0000
,
0110
0000
0000
1100
0000
0000
1001
0000
0000
0101
0000
0000
0110
0000
1010
0000
,
1001
0000
0000
0011
0000
0000
0110
0000
0000
0011
0000
0000
1001
0000
1010
0000
,
0110
0000
0000
1010
0000
0000
1100
0000
0000
0110
0000
0000
0011
0000
0101
0000
,
1100
0000
0000
0011
0000
0000
1010
0000
0000
0101
0000
0000
1001
0000
1100
0000
,
0210
0000
0000
0001
0000
0000
1000
0000
0000
0010
0000
0000
1000
0000
0310
0000
,
0101
0000
0000
0101
0000
0000
1100
0000
0000
1100
0000
0000
1010
0000
1010
0000
,
0210
0000
0000
0001
0000
0000
1000
0000
0000
0001
0000
0000
0010
0000
1300
0000
,
1100
0000
0000
1100
0000
0000
0101
0000
0000
0101
0000
0000
0011
0000
0011
0000
,
0010
0000
0100
0010
0100
0000
0000
0010
0100
0000
0000
0010
0100
0000
0000
0000
,
0110
1001
1100
0011
,
0001
0000
1000
0000
0001
1000
0000
0001
0100
0000
0001
1000
0000
0001
0100
0000
,
0010
0000
1000
0000
0001
1000
0000
0001
0100
0000
0001
1000
0000
0001
0010
0000
,
0100
0000
0100
0000
1000
0001
0000
1000
0100
0000
1000
0001
0000
1000
0100
0000
,
0010
0000
0001
0000
1000
0001
0000
1000
0010
0000
0100
0001
0000
0010
0100
0000
,
1000
0000
1000
0000
0100
0010
0000
0100
0001
0000
0100
1000
0000
0100
0010
0000
,
0100
0000
0100
0000
0010
0001
0000
0010
1000
0000
0010
0100
0000
0010
0100
0000
,
0010
0000
0001
0000
1000
0010
0000
1000
0100
0000
1000
0001
0000
1000
0001
0000
,
0010
0000
0010
0000
0001
0010
0000
0001
0100
0000
0001
1000
0000
0001
1000
0000
,
0100
0000
0010
0100
0010
0001
0000
0001
1000
0000
1000
0010
0000
0010
0100
0000
,
0010
0000
1000
0010
1000
0001
0000
0001
0010
0000
0010
0100
0000
0100
1000
0000
,
0001
0000
1000
0001
1000
0010
0000
0010
0001
0000
1000
0100
0000
0100
0001
0000
,
0010
0000
0100
0010
0100
1000
0000
1000
0100
0000
0100
0010
0000
0010
0001
0000
,
1000
0000
0001
1000
0100
1000
0000
1000
0010
0000
0010
0001
0000
0010
0100
0000
,
0010
0000
1000
0010
1000
0001
0000
0001
0010
0000
0010
1000
0000
0001
1000
0000
,
0010
0000
0100
0010
0100
1000
0000
0100
0010
0000
0001
0010
0000
0100
1000
0000
,
0010
1000
0001
0010
0100
1000
0001
0100
0010
1000
0001
0010
0100
1000
0001
0100
,
0020
0000
0000
1000
0000
0000
0100
0000
0000
0001
0000
0000
0100
0000
1030
0000
,
1010
0000
0000
0101
0000
0000
0011
0000
0000
1100
0000
0000
0101
0000
1100
0000
,
2010
0000
0000
0100
0000
0000
0010
0000
0000
0001
0000
0000
0100
0000
3010
0000
,
1010
0000
0000
0101
0000
0000
0011
0000
0000
1100
0000
0000
1001
0000
0101
0000
,
0210
0000
0000
1000
0000
0000
0010
0000
0000
0001
0000
0000
0010
0000
1000
0300
,
1100
0000
0000
1100
0000
0000
0101
0000
0000
0101
0000
0000
0011
0000
0110
0000
,
0012
0000
0000
1000
0000
0000
0100
0000
0000
0010
0000
0000
1003
0000
0101
0000
,
0011
0000
0010
0100
0010
0000
0100
0000
1000
0000
1000
0000
0100
0000
0100
0000
,
1100
0000
0000
1001
0000
0000
0101
0000
0000
0110
0000
0000
1010
0000
1001
0000
,
0021
0000
0000
0100
0000
0000
1000
0000
0000
0100
0000
0000
0001
0000
0031
0000
,
0011
0000
0000
1100
0000
0000
1010
0000
0000
0011
0000
0000
1100
0000
0101
0000
,
1200
0000
0000
0010
0000
0000
0001
0000
0000
0010
0000
0000
0301
0000
0001
0000
,
0100
0010
0100
0010
1000
0001
1000
0001
,
0010
0100
1000
0010
0100
0001
0010
0100
,
1000
0100
0010
0100
0010
0001
0010
0001
,
1000
0010
1000
0010
0100
0001
0100
0001
0010
0001
0010
0001
1000
0100
1000
0100
,
0020
0000
0000
0000
,
0130
0000
0000
0000
;

//---------------dance-single - ----------------
#NOTEDATA:;
#CHARTNAME:;
#STEPSTYPE:dance-single;
#DESCRIPTION:;
#CHARTSTYLE:;
#DIFFICULTY:Beginner;
#METER:4;
#RADARVALUES:0.195,0.247,0.099,0.099,0.000,130.000,11.000,11.000,0.000,0.000,0.000,0.000,0.000,0.195,0.247,0.099,0.099,0.000,130.000,11.000,11.000,0.000,0.000,0.000,0.000,0.000;
#CREDIT:;
#NOTES:
// measure 0
0000
0000
0000
0000
,  // measure 1
0000
0000
0000
0000
,  // measure 2
0000
0000
0000
0000
,  // measure 3
0000
0000
0000
0000
,  // measure 4
1000
0000
1000
0000
,  // measure 5
1000
0000
1000
0000
,  // measure 6
0001
0000
0001
0000
,  // measure 7
0001
0001
0001
0001
,  // measure 8
0020
0000
0000
0000
,  // measure 9
0030
0000
0000
0000
,  // measure 10
0100
0000
0100
0000
,  // measure 11
1000
1000
1000
0000
,  // measure 12
0100
0000
0100
0000
,  // measure 13
0001
0001
0001
0000
,  // measure 14
0100
0000
0100
0000
,  // measure 15
0010
0010
0010
0000
,  // measure 16
0100
0000
0100
0000
,  // measure 17
0010
0010
0010
0000
,  // measure 18
0001
0000
0001
0000
,  // measure 19
1000
1000
1000
0000
,  // measure 20
0100
0000
0100
0000
,  // measure 21
0010
0010
0010
0000
,  // measure 22
0001
0000
0001
0000
,  // measure 23
0100
0100
0100
0000
,  // measure 24
0010
0000
0010
0000
,  // measure 25
1000
1000
1000
0000
,  // measure 26
1001
0000
0000
0000
,  // measure 27
1001
0000
0000
0000
,  // measure 28
1001
0000
0000
0000
,  // measure 29
1001
0000
0000
0000
,  // measure 30
0220
0000
0000
0000
,  // measure 31
0330
0000
0000
0000
,  // measure 32
0220
0000
0000
0000
,  // measure 33
0330
0000
0000
0000
,  // measure 34
0100
0000
0000
0000
,  // measure 35
0010
0010
0010
0010
,  // measure 36
0000
1000
0000
1000
,  // measure 37
0000
0001
0000
0001
,  // measure 38
0000
1000
0000
1000
,  // measure 39
0000
0001
0010
0001
,  // measure 40
0000
0010
0000
0010
,  // measure 41
0000
0100
0000
0100
,  // measure 42
0000
0010
0000
0010
,  // measure 43
0000
0100
1000
0100
,  // measure 44
0000
1000
0000
1000
,  // measure 45
0000
0001
0000
0001
,  // measure 46
0000
1000
0000
1000
,  // measure 47
0000
0001
0100
0001
,  // measure 48
0000
0100
0000
0100
,  // measure 49
0000
0010
0000
0010
,  // measure 50
0000
0100
0000
0100
,  // measure 51
0100
0010
1000
0010
,  // measure 52
1000
0000
1000
0000
,  // measure 53
1000
0000
0000
0000
,  // measure 54
0001
0000
0001
0000
,  // measure 55
0001
0000
0000
0000
,  // measure 56
0010
0000
0010
0000
,  // measure 57
0010
0000
0000
0000
,  // measure 58
0100
0000
0100
0000
,  // measure 59
0100
0000
0000
0000
,  // measure 60
1000
0000
1000
0000
,  // measure 61
2010
0000
3001
0000
,  // measure 62
0001
0000
0001
0000
,  // measure 63
0012
0000
1003
0000
,  // measure 64
1000
0000
1000
0000
,  // measure 65
2100
0000
3001
0000
,  // measure 66
0001
0000
0001
0000
,  // measure 67
0102
0100
1003
1000
,  // measure 68
2002
0000
0000
0000
,  // measure 69
3003
0000
0000
0000
;
