#VERSION:0.82;
#TITLE:One-on-One With Rainbow Dash;
#SUBTITLE:;
#ARTIST:♪♪♪♪♪;
#TITLETRANSLIT:;
#SUBTITLETRANSLIT:;
#ARTISTTRANSLIT:;
#GENRE:My Little Pony;
#ORIGIN:;
#CREDIT:;
#BANNER:One-on-One With Rainbow Dash.png;
#BACKGROUND:One-on-One With Rainbow Dash-bg.png;
#PREVIEWVID:Preview.avi;
#JACKET:One-on-One With Rainbow Dash-jacket.png;
#CDIMAGE:;
#DISCIMAGE:;
#LYRICSPATH:;
#CDTITLE:;
#MUSIC:One-on-One With Rainbow Dash.mp3;
#OFFSET:-0.065288;
#SAMPLESTART:31.299999;
#SAMPLELENGTH:15.000000;
#SELECTABLE:YES;
#DISPLAYBPM:115.000000;
#BPMS:0.000=115.000;
#STOPS:;
#DELAYS:;
#WARPS:;
#TIMESIGNATURES:0.000=4=4;
#TICKCOUNTS:0.000=4;
#COMBOS:0.000=1;
#SPEEDS:0.000=1.000=0.000=0;
#SCROLLS:0.000=1.000;
#FAKES:;
#LABELS:0.000=Song Start;
#BGCHANGES:-0.500=One-on-One With Rainbow Dash.avi=1.000=0=0=0=StretchNoLoop====,
99999=-nosongbg-=1.000=0=0=0 // don't automatically add -songbackground-
;
#KEYSOUNDS:;
#ATTACKS:
;

//---------------dance-single - ----------------
#NOTEDATA:;
#CHARTNAME:;
#STEPSTYPE:dance-single;
#DESCRIPTION:;
#CHARTSTYLE:;
#DIFFICULTY:Easy;
#METER:5;
#RADARVALUES:0.199057,0.215426,0.073337,0.128339,0.018334,65.000000,4.000000,7.000000,0.000000,0.000000,0.000000,0.000000,0.000000,0.199057,0.215426,0.073337,0.128339,0.018334,65.000000,4.000000,7.000000,0.000000,0.000000,0.000000,0.000000,0.000000;
#CREDIT:;
#DISPLAYBPM:115.000000;
#NOTES:
0000
0000
0000
0000
,
0000
1000
1000
0001
,
0000
0100
0100
0010
,
0000
1000
2000
3001
,
0020
0000
0000
0000
0000
0000
0000
0130
0000
0000
0000
0000
0000
0000
0000
0000
,
0000
1000
1000
0010
,
0000
0100
0100
0001
,
0000
1000
1001
0000
,
0001
0000
0000
0000
0010
0000
0000
0200
0000
0000
0000
0000
0000
0000
0000
0000
,
0300
1000
1000
0001
,
0000
0100
0100
0010
,
0000
1000
1010
0000
,
0010
0100
0002
0000
,
1003
0001
1000
0001
,
0020
0000
0030
0000
,
0000
0100
0100
1000
,
0000
1000
1000
0001
,
0000
0001
0001
0100
,
0020
0000
0000
1030
,
1000
0002
0000
0000
,
0013
0001
0100
1000
,
0100
0100
0010
0010
,
1010
0000
1000
0010
,
0100
0001
1001
0000
;

//---------------dance-single - ----------------
#NOTEDATA:;
#CHARTNAME:;
#STEPSTYPE:dance-single;
#DESCRIPTION:;
#CHARTSTYLE:;
#DIFFICULTY:Hard;
#METER:13;
#RADARVALUES:0.657411,0.748034,0.256678,0.311681,0.834204,220.000000,14.000000,17.000000,0.000000,0.000000,0.000000,0.000000,0.000000,0.657411,0.748034,0.256678,0.311681,0.834204,220.000000,14.000000,17.000000,0.000000,0.000000,0.000000,0.000000,0.000000;
#CREDIT:;
#DISPLAYBPM:115.000000;
#NOTES:
0000
0000
0000
0000
,
1000
0000
1000
0000
0001
0100
0000
0010
0000
0010
0000
0010
1000
0000
0001
0000
,
0010
0000
0000
0010
0000
0000
0001
0010
0001
0010
0001
0010
0100
1000
0100
1000
0100
1000
0001
0100
0001
0100
0000
0000
,
0001
0000
0001
0000
1000
0100
0000
0010
0000
0010
0000
0010
0001
0000
1000
0000
,
0010
0000
0100
0000
0001
0000
1000
0100
0000
0010
0001
0000
0100
0001
0000
1000
,
0010
0000
0010
0000
0100
0001
0000
0010
0000
0010
0000
0010
0100
1000
0001
0100
,
0001
0000
0001
0000
0100
0010
0000
1000
0000
1000
0000
1000
0001
0010
0100
1000
,
0010
0000
0010
0000
0110
0000
0100
0002
0000
0000
1003
0000
1000
0000
0001
0000
,
1000
0000
0100
0000
0010
0100
1000
0001
0000
0000
0202
0000
0000
0000
0303
0000
,
0001
0000
0001
0000
1000
0001
0000
0010
0000
0010
0000
0010
0100
0010
0100
1000
,
0001
0000
0001
0000
0100
0001
0000
0010
0000
0010
0000
0010
0200
0000
0000
1300
,
0100
0000
1000
0000
0001
0100
1000
0100
0000
0010
1000
0010
0001
0000
0010
0100
,
0010
0000
1000
0000
0001
0010
0100
1000
0000
0001
1000
0001
0100
0000
0010
0100
,
0010
2000
0000
0000
0001
0000
3001
1000
0001
0000
1000
0001
1000
0100
0010
0100
,
2200
0000
3300
0000
,
0100
0000
0100
0000
0010
0100
0000
1000
0000
1000
0000
1000
0001
0100
0010
1000
,
0001
0000
0001
0000
0010
0100
0000
0010
0000
0010
0000
0010
0001
0200
0000
0310
,
0100
0000
0001
0000
1000
0100
0000
0010
0000
0010
0000
0010
0100
0000
1000
0100
,
0010
0002
0000
0000
1000
0000
0100
0000
1000
0000
0100
0000
0010
0000
1000
0000
,
0010
0000
1003
0001
0020
0000
0100
0000
0001
0000
0100
0000
0001
0000
1030
0000
,
0010
0002
0000
0000
0103
0002
0000
0000
1003
0002
0000
0000
0013
0001
0010
0100
,
1000
0000
0010
0000
1010
0000
0100
0000
0110
0000
0001
0010
0001
0100
1000
0100
,
0202
0000
0000
0303
1001
1001
1100
1100
,
0110
0000
0110
0000
0011
0000
0001
1000
2002
0000
0000
0000
0000
0000
0000
0000
,
0000
0000
0000
0000
,
0000
0000
3003
0000
;

//---------------dance-single - ----------------
#NOTEDATA:;
#CHARTNAME:;
#STEPSTYPE:dance-single;
#DESCRIPTION:;
#CHARTSTYLE:;
#DIFFICULTY:Medium;
#METER:9;
#RADARVALUES:0.358826,0.420769,0.220010,0.128339,0.192509,118.000000,12.000000,7.000000,0.000000,0.000000,0.000000,0.000000,0.000000,0.358826,0.420769,0.220010,0.128339,0.192509,118.000000,12.000000,7.000000,0.000000,0.000000,0.000000,0.000000,0.000000;
#CREDIT:;
#DISPLAYBPM:115.000000;
#NOTES:
0000
0000
0000
0000
,
0000
0000
0000
0000
1000
0000
0000
0010
0000
0010
0000
0000
0110
0000
0000
0000
,
0100
0000
0001
0010
0001
0010
0100
0000
,
0010
0000
0000
0000
0001
0000
0000
1000
0020
0000
0000
0000
0030
0000
0000
0000
,
0100
0000
0000
0000
0001
0000
0000
0101
0000
0000
1010
0000
0000
1001
0000
0000
,
0001
0000
0000
0000
0010
0000
0000
0100
0000
0100
0000
0000
1000
0000
0010
0000
,
1000
0000
0000
0000
0001
0000
0000
0010
0000
0010
0000
0000
0100
0000
0010
0000
,
0100
0000
0000
0000
1000
0000
0000
0002
0000
0000
0000
0000
0000
0000
0000
0000
,
0103
0000
0001
0000
0100
0000
0000
0020
0000
0000
0000
0000
0030
0000
0000
0000
,
1000
0000
0000
0000
0010
0000
0000
0100
0000
0100
0000
0000
0001
0000
1000
0000
,
0001
0000
0000
0000
0010
0000
0000
0100
0000
0100
0000
0000
1000
0000
0000
0000
,
1010
0000
0010
0100
0001
1000
0001
0000
,
0010
0000
0001
0010
0100
0000
0010
0000
,
0011
0000
0011
0000
0001
1000
0001
1000
,
2020
0000
3030
0000
,
0010
0000
0000
0000
0100
0000
0000
0001
0000
0001
0000
0000
1000
0000
0100
0000
,
1000
0000
0000
0000
0100
0000
0000
0010
0000
0010
0000
0000
0100
0000
1000
0000
,
0001
0000
0000
0000
0100
0000
0000
0001
0000
0001
0000
0000
0010
0000
0100
0000
,
0010
0000
0001
0000
0010
0001
0010
0001
,
0100
0010
0100
0000
0010
0000
0010
0000
,
1010
1010
1010
1010
,
1000
0001
1000
0001
0010
0100
0010
0100
,
0020
0000
0000
0000
0031
0001
0010
0010
,
0100
0100
1000
1000
0002
0000
0000
0000
,
0000
0000
0000
0000
,
0000
0000
0003
0000
;

//---------------dance-single - ----------------
#NOTEDATA:;
#CHARTNAME:;
#STEPSTYPE:dance-single;
#DESCRIPTION:;
#CHARTSTYLE:;
#DIFFICULTY:Beginner;
#METER:1;
#RADARVALUES:0.062860,0.086171,0.000000,0.036668,0.000000,22.000000,0.000000,2.000000,0.000000,0.000000,0.000000,0.000000,0.000000,0.062860,0.086171,0.000000,0.036668,0.000000,22.000000,0.000000,2.000000,0.000000,0.000000,0.000000,0.000000,0.000000;
#CREDIT:;
#DISPLAYBPM:115.000000;
#NOTES:
0000
0000
0000
0000
,
0000
0000
1000
0000
,
0000
0000
1000
0000
,
0000
0000
0001
0000
,
0000
0000
0001
0000
,
0000
0000
0000
0000
,
0100
0000
0000
0000
,
0010
0000
0000
0000
,
2000
0000
0000
0000
,
3000
0000
0001
0000
,
0000
0000
0001
0000
,
0000
0000
0010
0000
,
0000
0000
0010
0000
,
0000
0000
0000
0000
,
0200
0000
0000
0000
,
0300
0000
0100
0000
,
0000
0000
0100
0000
,
0000
0000
0010
0000
,
0000
0000
0000
0000
,
0001
0000
0000
0000
,
0001
0000
0001
0000
,
0001
0000
0000
0000
,
0000
0000
1000
0000
,
1000
0000
1000
0000
;
