#TITLE:Nightmare Night;
#SUBTITLE:;
#ARTIST:WoodenToaster & MictheMicrophone;
#TITLETRANSLIT:;
#SUBTITLETRANSLIT:;
#ARTISTTRANSLIT:;
#GENRE:Drum 'n Bass;
#CREDIT:;
#BANNER:Nightmare Night.png;
#BACKGROUND:Nightmare Night-bg.png;
#LYRICSPATH:;
#CDTITLE:;
#MUSIC:Nightmare Night.mp3;
#OFFSET:-0.317360;
#SAMPLESTART:49.000000;
#SAMPLELENGTH:15.000000;
#SELECTABLE:YES;
#BPMS:0.000000=98.500000
;
#STOPS:
;
#BGCHANGES:-0.750=Nightmare Night.avi=1.000=0=0=0=StretchNoLoop====,
99999=-nosongbg-=1.000=0=0=0 // don't automatically add -songbackground-
;
#KEYSOUNDS:;
#ATTACKS:;

//---------------dance-single - ----------------
#NOTES:
     dance-single:
     :
     Beginner:
     2:
     0.079276,0.078765,0.026852,0.035802,0.000000,55.000000,3.000000,4.000000,0.000000,0.000000,0.000000,0.079276,0.078765,0.026852,0.035802,0.000000,55.000000,3.000000,4.000000,0.000000,0.000000,0.000000:
// measure 0
0000
0000
0000
0000
,  // measure 1
0000
0000
0000
0000
,  // measure 2
0000
0000
0000
0000
,  // measure 3
0000
0000
0000
0000
,  // measure 4
1000
0000
0000
0000
,  // measure 5
1000
0000
0000
0000
,  // measure 6
0001
0000
0000
0000
,  // measure 7
0001
0000
0000
0000
,  // measure 8
0100
0000
0000
0000
,  // measure 9
0100
0000
0000
0000
,  // measure 10
0010
0000
0000
0000
,  // measure 11
0010
0000
0000
0000
,  // measure 12
1000
0000
1000
0000
,  // measure 13
1000
0000
0000
0000
,  // measure 14
0100
0000
0100
0000
,  // measure 15
0100
0000
0000
0000
,  // measure 16
0010
0000
0010
0000
,  // measure 17
0010
0000
0000
0000
,  // measure 18
0001
0000
0001
0000
,  // measure 19
0001
0000
0000
0000
,  // measure 20
1000
0000
1000
0000
,  // measure 21
0010
0000
0010
0000
,  // measure 22
0100
0000
0100
0000
,  // measure 23
0001
0000
0001
0000
,  // measure 24
2002
0000
0000
0000
,  // measure 25
0000
0000
0000
3003
,  // measure 26
2002
0000
0000
0000
,  // measure 27
0000
0000
0000
3003
,  // measure 28
1000
0000
1000
0000
,  // measure 29
1000
0000
1000
0000
,  // measure 30
0001
0000
0001
0000
,  // measure 31
0001
0000
0001
0000
,  // measure 32
0010
0000
0010
0000
,  // measure 33
0010
0000
0010
0000
,  // measure 34
0100
0000
0100
0000
,  // measure 35
0100
0000
0100
0000
,  // measure 36
1000
0000
0000
0000
,  // measure 37
1000
0000
0000
0000
,  // measure 38
0001
0000
0000
0000
,  // measure 39
0001
0000
0000
0000
,  // measure 40
0100
0000
0000
0000
,  // measure 41
0100
0000
0000
0000
,  // measure 42
0010
0000
0000
0000
,  // measure 43
0010
0000
0000
0000
,  // measure 44
0110
0000
0000
0000
;

//---------------dance-single - ----------------
#NOTES:
     dance-single:
     :
     Easy:
     5:
     0.221206,0.199150,0.026852,0.179011,0.000000,150.000000,3.000000,20.000000,0.000000,0.000000,0.000000,0.221206,0.199150,0.026852,0.179011,0.000000,150.000000,3.000000,20.000000,0.000000,0.000000,0.000000:
0000
0000
0000
0000
,
0000
0000
0000
0000
,
0000
0000
0000
0000
,
0000
0000
0000
1001
,
0002
0013
0001
0001
,
2000
3010
1000
1000
,
0200
0310
0100
0100
,
0020
0130
0010
0010
,
0002
0013
0001
0001
,
2000
3010
1000
1000
,
0200
0310
0100
0100
,
0020
0130
0010
0010
,
0001
0010
0001
0010
,
0100
1000
0100
1000
,
0010
1000
0010
1000
,
0001
0100
0001
0100
,
0001
1000
0001
1000
,
0100
0010
0100
0010
,
0001
0010
0001
0100
,
0010
1000
0010
0100
,
0001
1000
0001
0100
,
1000
0001
1000
0100
,
0010
1000
0001
1000
,
0100
0001
1000
0001
,
0200
0000
0000
0000
,
0300
0000
0000
0000
,
0020
0000
0000
0000
,
0030
0000
0001
1001
,
1000
0020
0130
0100
,
0001
0020
0130
0100
,
1000
0002
0103
0100
,
0001
2000
3100
0100
,
0010
0200
1300
1000
,
0010
0200
0301
0001
,
0010
0002
1003
1000
,
0010
2000
3001
0001
,
0010
0001
0010
0001
,
1000
0100
1000
0100
,
1000
0001
1000
0001
,
0100
0010
0100
0010
,
1000
0010
0100
0001
,
1000
0100
0010
0001
,
1000
0001
0100
0010
,
1000
0001
0010
0100
,
0220
0000
0330
0000
;

//---------------dance-single - ----------------
#NOTES:
     dance-single:
     :
     Challenge:
     14:
     0.682799,0.657194,0.286418,0.062654,0.868203,495.000000,32.000000,7.000000,0.000000,0.000000,0.000000,0.682799,0.657194,0.286418,0.062654,0.868203,495.000000,32.000000,7.000000,0.000000,0.000000,0.000000:
0000
0000
0000
0000
,
0000
0000
0000
0000
,
0000
0000
0000
0000
,
0000
0000
0000
0000
0000
0000
1001
0001
,
0010
0000
0100
0010
0100
0000
0010
0000
0001
1000
0001
1000
0100
0000
0010
1000
,
0010
0000
0000
0000
0001
0000
0010
0000
0001
0000
0000
0000
0100
0000
0000
0000
0110
0000
0000
0000
1010
0000
1000
0001
1000
0000
0000
0000
0001
0000
0010
0000
,
0100
0000
0010
0100
0010
0000
0100
0000
1000
0001
1000
0001
0100
0000
0010
0001
,
0010
0000
0000
0000
1000
0000
0010
0000
1000
0000
0000
0000
0001
0000
0000
0000
0010
0000
0100
0000
0010
0000
0100
1000
0001
0000
0000
0000
0100
0000
0010
0000
,
0010
0000
1000
0010
1000
0000
0001
0000
0010
0100
0010
0100
1000
0000
0010
0001
,
0010
0000
0000
0000
1000
0000
0010
0000
1000
0000
0000
0000
0001
0000
0000
0000
0010
0000
0000
0000
0100
0000
1000
0001
1000
0000
0010
0000
1000
0000
0000
0000
,
0100
0000
0000
0000
0010
0000
0100
0000
0020
0000
0000
0000
0031
0000
0000
0000
0011
0000
0000
0000
0001
0000
0010
0000
0100
0000
0000
1000
0000
0000
0001
0000
,
0000
0000
0100
0000
0001
0000
0000
0000
1001
0000
0000
0000
1000
0000
0000
0000
0100
0000
0010
0000
0100
0000
1000
0001
1000
0000
0010
0000
1000
0000
0010
0000
,
0100
0010
1000
0100
0000
0001
1000
0010
0001
0100
0010
0100
0000
0010
0100
0001
,
1000
0100
0001
0100
0000
0010
0100
0010
0001
0010
0100
1000
0000
0010
1000
0010
,
1000
1000
0001
1000
0000
0001
0010
0001
0010
0010
0100
0010
0000
0010
0001
0010
,
0001
0001
1000
0001
0000
0001
0100
0001
0100
0100
0010
0100
0000
0001
0100
0010
,
1000
0100
0001
0100
0000
1000
0010
0001
0010
1000
0010
0001
0000
0010
0100
0010
,
1000
0010
0100
0001
0000
0100
0001
1000
0100
0010
0100
0010
0000
0001
0010
0001
,
0100
0010
0100
0010
0000
0100
0010
0100
0001
1000
0001
1000
0000
0100
0010
0100
,
1000
0010
0001
1000
0000
0100
0001
1000
0100
0010
0100
1000
0001
0000
0100
0100
,
0010
1010
1010
1010
1001
1001
0001
0010
,
0110
0000
0110
0000
1100
0000
1001
0000
0101
0000
0101
0000
0110
0000
0010
1000
,
0010
0000
1000
0000
0001
0000
0010
0001
0010
0100
0010
0000
0001
0000
0010
0001
,
0100
0000
0010
0000
0100
0000
0010
1000
0010
0010
0100
0000
0101
0000
0001
1000
,
0100
0000
0010
0100
0000
0010
0100
1000
0010
0000
0100
0000
0110
0000
0100
0000
,
0001
0000
0000
0000
0010
0000
0001
0000
0000
0000
0010
0000
0001
0000
0100
0000
0010
1000
0010
0000
1000
0000
0001
0000
0010
0001
0010
0000
0001
0000
0010
0000
,
0100
0000
0010
0100
0000
0010
0100
1000
0001
0000
0100
0000
0101
0000
0100
0000
,
0010
0000
0000
0000
1000
0000
0010
0000
0000
0000
1000
0000
0010
0000
1000
0000
0001
0000
0000
0000
0000
0000
0010
0001
0010
0000
0000
0000
0100
0000
0000
0000
,
0110
0000
0100
1000
0100
0000
0011
0000
0001
0100
0001
0000
1010
0000
1000
0000
,
0001
0000
0010
0001
0010
0000
0100
1000
0001
0000
0001
0000
0101
0000
0100
0010
,
0100
0000
0010
1000
0100
0000
0010
0000
0100
1000
0001
0000
0100
0000
0020
0000
,
0130
0000
0010
1000
0001
0000
0010
0001
0010
0000
0110
0000
0100
1000
0001
0100
,
0010
0000
1000
0010
2000
0000
3001
0000
1000
0100
1000
0000
0002
0000
0103
0000
,
0001
0000
0010
0100
0010
0000
0001
1000
0010
0000
0010
0000
1001
0000
1000
0100
,
0001
0000
1000
0010
0001
0000
0100
0000
0010
1000
0010
0000
0101
0000
0001
0000
,
1000
0000
0100
1000
0010
0000
1000
0001
0110
0000
0110
0000
0100
1000
0010
0100
,
0001
0000
1000
0001
0100
0000
0010
0000
0100
0010
0100
0010
1000
0000
0001
0010
,
0100
0000
0000
0000
0010
0000
0100
0000
0010
0000
0000
0000
0001
0000
0000
0000
1001
0000
0000
0000
1000
0000
0010
0100
0010
0000
0000
0000
0010
0000
0100
0000
,
0100
0000
0001
1000
0001
0000
0010
0000
0100
0010
0001
0010
0100
0000
1000
0010
,
1000
0000
0000
0000
0010
0000
0100
0000
0010
0000
0000
0000
0110
0000
0000
0000
0100
0000
0000
0000
0001
0000
1000
0001
1000
0000
0100
0000
0010
0000
0001
0000
,
0100
0010
1000
0001
2000
0000
3100
0000
1000
0100
0001
0100
0010
0000
0100
0010
,
0001
0000
1000
0000
0010
0000
1000
0000
0001
0000
0010
0000
0100
0000
0010
0000
0001
0000
0000
0000
0100
0000
0010
0100
0010
0000
1000
0000
0100
0000
1000
0000
,
0001
0010
0100
0010
0001
1000
0010
1000
0100
0010
0100
1000
0010
0100
0010
0001
,
0010
0000
1000
0000
0010
0000
1000
0000
0001
0000
1000
0000
0001
0000
1000
0000
0001
0000
0010
0000
0001
0000
0010
0100
0010
0000
0001
0000
1000
0000
0010
0000
,
0220
0000
0330
0000
;

//---------------dance-single - ----------------
#NOTES:
     dance-single:
     :
     Medium:
     7:
     0.370808,0.338554,0.134258,0.017901,0.017901,273.000000,15.000000,2.000000,0.000000,0.000000,0.000000,0.370808,0.338554,0.134258,0.017901,0.017901,273.000000,15.000000,2.000000,0.000000,0.000000,0.000000:
0000
0000
0000
0000
,
0000
0000
0000
0000
,
0000
0000
0000
0000
,
0000
0000
0000
0000
0000
0000
1001
1000
,
0010
0100
0001
1000
0001
0000
1001
1000
,
0100
0010
0100
1000
0010
0000
0110
0100
,
0001
1000
0001
0010
0100
0000
0110
0010
,
0001
0100
1000
0100
0001
0000
1001
1000
,
0010
0100
0010
1000
0100
0000
0110
0010
,
0001
0100
0001
0010
0100
0000
0110
0100
,
1000
0001
1000
0100
0001
0000
1001
0001
,
0100
0010
0100
1000
1010
0010
0100
0001
,
1000
1000
0100
0000
0010
0010
0100
0000
,
1000
1000
0100
0010
0010
0100
1000
0000
,
0001
0001
0100
0000
0010
0010
0100
0000
,
0001
0001
0100
0010
0010
0100
0001
0000
,
1000
1000
0100
0000
0001
0001
0100
0000
,
1000
1000
0100
0001
0001
0100
1000
0000
,
0010
0010
0100
0000
0001
0001
0100
0000
,
0010
0010
0100
0001
0001
0100
0010
0000
,
0000
1000
1000
1000
0001
0001
0010
0100
,
0010
0010
0001
0001
0100
0100
0010
0010
,
1000
1000
0010
0010
0100
0100
0001
0001
,
1000
1000
0001
0001
0010
0010
0010
0000
,
0110
0000
0000
0100
0000
0000
0000
0000
1000
0000
0100
0000
1000
0000
0000
0000
,
1001
0000
0000
0001
0000
0000
0000
0000
0100
0000
0001
0000
0100
0000
0100
0000
,
0110
0000
0000
0010
0000
0000
0000
0000
1000
0000
0001
0000
1000
0000
0000
0000
,
1001
0000
0000
0001
0000
0000
0000
0000
0010
0000
0000
0000
0110
0000
0100
0000
,
1000
0100
0001
0100
1000
1000
0010
0000
,
0001
0010
1000
0010
0001
0010
0100
0000
,
0001
0100
0010
0100
0001
0001
1000
0000
,
0100
1000
0100
0010
0100
0100
0001
0000
,
0100
1000
0010
0100
0001
0010
0001
0000
,
0100
0001
0010
0100
1000
0010
1000
0000
,
0010
1000
0001
1000
0100
0001
1000
0000
,
0001
1000
0001
0100
1000
0010
0100
0001
,
0010
0010
0100
0000
1000
1000
0100
0000
,
1000
0001
0100
0001
1000
0001
0100
0000
,
0001
0001
0100
0000
0010
0010
0100
0000
,
0001
1000
0100
1000
0001
1000
0100
0000
,
0010
0010
0100
0000
1000
1000
0001
0000
,
0100
0010
1000
0001
0010
0100
0010
0000
,
0001
0001
1000
0000
0010
0010
0100
0000
,
0001
0100
0010
1000
0010
0100
0001
1000
,
2002
0000
3003
0000
;

//---------------dance-single - ----------------
#NOTES:
     dance-single:
     :
     Hard:
     12:
     0.496116,0.483330,0.277467,0.017901,0.237190,355.000000,31.000000,2.000000,0.000000,0.000000,0.000000,0.496116,0.483330,0.277467,0.017901,0.237190,355.000000,31.000000,2.000000,0.000000,0.000000,0.000000:
0000
0000
0000
0000
,
0000
0000
0000
0000
,
0000
0000
0000
0000
,
0000
0000
0000
1001
,
0010
0000
0100
0001
0100
0000
0010
0000
1000
0000
0100
0000
0010
0000
0100
1000
,
0100
0000
1000
0100
1000
0000
0001
0000
0100
0000
0100
0000
0010
0100
0010
0000
,
0100
0000
0001
0100
0001
0000
1000
0000
0100
0000
0010
0000
0001
0000
1000
0010
,
1000
0000
1000
0010
1000
0000
0001
0000
0010
0000
0010
0000
0100
1000
0100
0000
,
0010
0000
0001
0010
0001
0000
0100
0000
0010
0000
0100
0000
0001
0000
1000
0100
,
1000
0000
1000
0100
1000
0000
0001
0000
0100
0000
0100
0000
0001
0010
0001
0000
,
0010
0000
0100
1000
0100
0000
1000
0000
0001
0000
0100
0000
0001
0000
1000
0100
,
1000
0000
0001
0100
0001
0000
0100
0000
0010
0000
0010
0000
0100
0001
0100
0000
,
0010
1000
1100
0000
0001
0010
0110
0100
,
1000
0001
0101
0000
0100
0010
0110
0100
,
0001
1000
1100
0000
0010
0100
0101
0010
,
0100
0010
0011
1000
0010
0100
0101
0010
,
0100
0001
1100
0010
0100
0001
0011
0100
,
1000
0001
0101
0000
0100
0010
1001
0100
,
0010
0100
1001
0000
0010
1000
0101
0001
,
0010
0001
1100
0000
1000
0010
0101
0001
,
1000
0100
0001
0100
1000
0010
0001
0010
,
0100
0001
0010
1000
0001
0100
1000
0010
,
0001
1000
0100
0010
0100
0001
1000
0100
,
0010
0000
0001
0000
1000
0000
0010
0000
0100
0001
0100
0000
1001
0000
0000
0000
,
1000
0000
0000
0100
0000
0000
1000
0000
0010
0000
0100
0000
0001
0000
0000
0000
,
0010
0000
0000
0001
0000
0000
0100
0000
0010
0000
1000
0000
0001
0000
0000
0000
,
0010
0000
0000
0100
0000
0000
1000
0000
0001
0000
0100
0000
1000
0000
0000
0000
,
0100
0000
0000
0010
0000
0000
1000
0000
0001
0000
0000
0000
1001
0000
0000
0000
,
1000
0000
0100
0000
1000
0000
1000
0000
0001
0100
0001
0000
0010
0000
0100
0000
,
1000
0000
0010
0000
0010
0000
0100
1000
0100
0000
0001
0000
0001
0000
1000
0100
,
1000
0000
0001
0000
0010
0000
0100
0000
1000
0001
1000
0000
1001
0000
0010
0000
,
0100
0000
0001
0100
0001
0000
1000
0100
1000
0000
0001
0000
0010
0100
0010
0000
,
0001
0000
1000
0010
1000
0000
0010
0000
0100
0001
0100
0000
0110
0000
0010
0000
,
1001
0000
0100
0010
0100
0000
1000
0100
1000
0000
0001
0000
0101
0000
0100
0010
,
0100
0000
0001
0010
0001
0000
1000
0000
0100
0000
1000
0000
1001
0000
0001
0000
,
0100
0000
0010
1000
0010
0000
0100
0001
0100
0000
0010
0000
1001
0000
0100
0000
,
0010
0000
0001
0010
0001
0000
1000
0000
0001
0000
0100
0000
0010
0000
0100
0001
,
0100
0000
0100
1000
0100
0000
0100
0000
0010
0000
0010
0000
1000
0001
1000
0000
,
0100
0000
1000
0010
1000
0000
0100
0000
0010
0000
0010
0000
0100
0000
1000
0100
,
1000
0000
0001
0100
0001
0000
1000
0000
0110
0000
0110
0000
0001
1000
0001
0000
,
1000
0000
0100
1000
0100
0000
1000
0000
0010
0000
0100
0000
0101
0000
0001
0010
,
0001
0000
0010
0100
0010
0000
0100
0000
1000
0000
1000
0000
0001
0100
0001
0000
,
0100
0000
0010
1000
0010
0000
0100
1000
0100
0000
0001
0000
1000
0000
0100
0010
,
0100
0000
1000
0001
1000
0000
0001
0000
0110
0000
1001
0000
0100
0010
0100
0000
,
2002
0000
0000
0000
,
3003
0000
0000
0000
;
