#VERSION:0.81;
#TITLE:My Little Pony Theme (Glitch Remix);
#SUBTITLE:;
#ARTIST:Alex S.;
#TITLETRANSLIT:;
#SUBTITLETRANSLIT:;
#ARTISTTRANSLIT:;
#GENRE:Dubstep;
#ORIGIN:;
#CREDIT:xddr1996x, RIME;
#BANNER:My Little Pony Theme (Alex S. Glitch Remix).png;
#BACKGROUND:My Little Pony Theme (Alex S. Glitch Remix)-bg.png;
#PREVIEWVID:Preview.avi;
#JACKET:My Little Pony Theme (Alex S. Glitch Remix)-jacket.png;
#CDIMAGE:;
#DISCIMAGE:My Little Pony Theme (Alex S. Glitch Remix) (Hi-Res).png;
#LYRICSPATH:;
#CDTITLE:;
#MUSIC:My Little Pony Theme (Alex S. Glitch Remix).ogg;
#OFFSET:-0.280000;
#SAMPLESTART:24.796000;
#SAMPLELENGTH:15.000000;
#SELECTABLE:YES;
#DISPLAYBPM:115.000000;
#BPMS:0.000=115.000,
6.000=124.717,
7.000=123.225,
8.000=114.998,
13.000=103.489,
14.000=111.284,
15.000=115.000,
23.500=230.000,
24.500=115.000,
40.000=230.000,
41.000=115.000,
57.500=460.000,
59.500=115.000,
60.000=460.000,
62.000=115.000,
76.500=460.000,
78.500=115.000,
79.000=460.000,
81.000=115.000,
89.500=57.500,
89.750=115.000,
91.250=57.500,
91.500=115.000,
99.000=57.500,
99.250=115.000,
106.750=57.500,
107.000=115.000,
113.250=57.500,
113.375=115.000,
114.375=57.500,
114.625=115.000,
132.250=230.000,
132.500=115.000,
133.000=28.750,
139.000=57.500,
143.000=115.000,
175.000=7.188,
175.750=115.000;
#STOPS:129.375=0.065,
132.250=0.326;
#DELAYS:;
#WARPS:;
#TIMESIGNATURES:0.000=4=4;
#TICKCOUNTS:0.000=4;
#COMBOS:0.000=1;
#SPEEDS:0.000=1.000=0.000=0;
#SCROLLS:0.000=1.000;
#FAKES:;
#LABELS:0.000=Song Start;
#BGCHANGES:-0.330=My Little Pony Theme (Alex S. Glitch Remix).avi=1.000=0=0=0=StretchNoLoop====,
99999=-nosongbg-=1.000=0=0=0 // don't automatically add -songbackground-
;
#KEYSOUNDS:;
#ATTACKS:
;

//---------------dance-single - ----------------
#NOTEDATA:;
#CHARTNAME:;
#STEPSTYPE:dance-single;
#DESCRIPTION:;
#CHARTSTYLE:;
#DIFFICULTY:Challenge;
#METER:18;
#RADARVALUES:1.000000,1.000000,0.918249,1.000000,1.000000,582.000000,101.000000,114.000000,0.000000,0.000000,0.000000,0.000000,0.000000,1.000000,1.000000,0.918249,1.000000,1.000000,582.000000,101.000000,114.000000,0.000000,0.000000,0.000000,0.000000,0.000000;
#CREDIT:;
#DISPLAYBPM:115.000000;
#NOTES:
0000
0000
0000
0000
0000
0000
0000
0000
0000
0000
0000
0000
1000
0001
1000
0001
,
0022
0030
2000
3000
0200
0300
2000
0000
3000
0000
0020
0000
0033
0000
0000
0000
,
0220
0030
2000
3000
0020
0030
0002
0000
0003
0000
2000
3000
2000
0000
3300
0000
,
1100
0000
1001
0000
1010
0000
0110
0000
0100
0010
0100
0010
1000
0001
1000
0001
,
0011
0000
0100
0100
0010
0100
1000
0001
0000
0100
0001
0100
0010
0000
0110
0000
,
1010
0000
1000
1000
0010
1000
0001
0010
0000
0100
0010
0100
1000
0000
1002
0000
,
0000
0000
0013
0000
0001
0001
0010
0001
0100
0010
0000
1000
0010
1000
0001
0000
,
0010
0001
0100
0000
0001
0101
0000
0110
0000
1010
0000
1001
0000
1000
0100
0100
,
0010
0010
0110
0000
1000
1000
0100
1000
0001
0100
0000
0001
0100
0001
0010
0000
,
0100
0000
0110
0000
0001
0001
0010
0001
0100
0010
1000
1000
0001
1000
0100
0000
,
0120
0000
0000
0000
0031
0000
0010
0010
0100
1000
0010
0100
0000
0010
0100
0100
,
0001
0000
1000
0001
1000
0000
0100
1100
0000
1010
0000
0110
0000
0101
0000
1001
,
0001
0001
1000
1000
0100
1000
0100
1000
0010
0000
0100
0010
0000
1000
0010
1000
,
0001
0000
0010
0001
0020
0000
0130
0010
0000
0100
1000
0001
0200
0000
0310
0100
,
0000
0010
0100
0001
0100
0001
2020
0000
0000
0000
0000
0000
3030
0000
1000
0100
,
0022
0000
0000
0000
0000
0000
0033
0000
0001
1000
0010
0100
0000
0010
0100
0001
,
1001
0000
1000
0100
0000
0010
0100
0010
0011
0000
1000
1000
0002
1000
0013
0000
,
0001
0001
0010
0001
0100
0000
0001
0010
0000
0100
0100
0010
0100
0000
1000
0100
,
2000
0000
3100
1000
0000
1000
0001
1000
0002
0000
0103
0001
0000
0100
0001
0100
,
0010
1000
0202
0000
0000
0000
0000
0000
0303
0000
0010
0001
2200
0000
0000
0000
,
0000
0000
3300
0000
1000
0010
0100
0010
0000
0010
1000
0001
0011
0000
0010
0100
,
0000
0100
0010
0100
1100
0000
0001
0001
1000
1000
0100
0100
0110
0000
0101
0000
,
0110
0000
0000
0000
0000
0000
0000
0000
1100
0000
0000
0000
0000
0000
0000
0000
0100
0000
0000
0000
0010
0000
0000
0000
0100
1000
0100
1000
0100
0000
0000
0000
0000
0000
0000
0000
0010
0000
0000
0000
0000
0000
0000
0000
0011
0000
0000
0000
0000
0000
0000
0000
1000
0010
1000
0010
1000
0000
0000
0000
0000
0000
0000
0000
,
0010
0000
0100
0100
0010
0000
1010
0000
1000
1000
0001
0010
0001
0100
0001
0001
,
1000
0000
0000
0000
0001
0000
0000
0000
0000
0000
0000
0000
0010
0000
0000
0000
0100
0000
0000
0000
0000
0000
0000
0000
0110
0000
0000
0000
0000
0000
0000
0000
1001
0000
0000
0000
0000
0000
0000
0000
0011
0000
0000
0000
0000
0000
0000
0000
0010
0100
0010
0100
0010
0000
0000
0000
0000
0000
0000
0000
0110
0000
0000
0000
,
0000
1000
1000
0100
0010
0001
0100
0001
0000
0110
0000
1010
0000
0110
0000
0011
,
0000
0000
0000
0000
0001
0000
0000
0000
0010
0000
0000
0000
0100
0000
0000
0000
1000
0000
0000
0000
0000
0000
0000
0000
0000
0000
0000
0000
1001
0000
0000
0000
0000
0000
0000
0000
1000
0000
0000
0000
0000
0000
0000
0000
0010
0100
0010
0100
0010
0000
0000
0000
0000
0000
0000
0000
1000
0000
0000
0000
0000
0000
0000
0000
,
0001
0001
1000
0000
0011
0000
0010
0010
0100
0010
0100
1000
0000
1000
0010
0100
,
0000
0000
0000
0000
0010
0000
0000
0000
0100
0000
0000
0000
0000
0000
0000
0000
0101
0000
0000
0000
0001
1000
0001
0000
0000
0000
0000
0000
0000
0000
1010
0000
0000
0000
0000
0000
0000
0000
0010
0100
0010
0100
0010
0000
0000
0000
1000
0000
0000
0000
0001
0000
0000
0000
0010
0000
0000
0000
0220
0000
0000
0000
0330
0000
,
0000
0220
0000
0330
0000
0022
0000
0033
0000
0202
0000
0303
0000
0220
0000
0330
0000
0220
0000
0330
0000
2020
0000
3030
0000
2200
0000
3300
0000
0202
0000
0303
,
0000
2020
0000
3030
0000
0022
0000
0033
0000
2200
0000
3300
0000
2002
0000
3003
0000
0220
0000
0330
0000
2002
0000
3003
0000
0220
0000
0330
0000
2020
0000
3030
,
0000
0202
0000
0303
0000
0022
0000
0033
0000
2200
0000
3300
0000
2000
0000
3200
0000
2300
0000
3200
0000
0320
0000
0032
0000
0023
0000
0032
0000
0203
0300
0200
,
0300
0020
0030
0020
0030
2000
3000
2000
3000
0002
0003
0002
1003
0000
0100
0000
0010
0000
0001
0000
1000
0000
0010
0000
0100
0000
0001
0000
1000
0000
0001
0000
,
0010
0000
0000
0000
0100
0000
0000
0000
0110
0000
0000
0000
0000
0000
0000
0000
0011
0000
0001
0000
0101
0000
0100
0000
0110
0000
0010
0000
1010
0000
1000
0000
1001
0000
0001
0000
0011
0000
0001
0000
1001
0000
1000
0000
1010
0000
0010
0000
0110
0000
0100
0001
0101
0000
0001
0000
1001
0000
1000
0000
1100
0000
0100
0000
,
0110
0000
0110
0000
0010
0001
0000
0001
0101
0000
0101
0000
0100
0010
0000
0010
1010
0000
1010
0000
1000
0001
0000
0001
0011
0000
0011
0000
0010
0100
0000
0100
2100
3000
2100
3000
1000
0001
0000
0001
0102
0003
0102
0003
0001
0001
0010
0010
0200
0000
1300
0000
0200
0000
0310
0000
0200
0000
0301
0000
0200
0000
1300
0000
,
2000
3010
2000
3001
2000
3100
2000
3010
1000
0000
0001
0001
0101
0000
0100
0100
0110
0010
0000
0010
1000
1000
0001
0001
1001
0000
0100
0000
1000
0000
0100
0000
,
0001
0100
0001
0100
1000
0010
1000
0010
0001
0010
0001
0010
0100
0010
1000
1001
,
0000
0000
0010
0000
0001
0000
0010
0000
0100
0000
1000
0000
0001
0000
0100
0010
0100
0000
0001
0000
0010
0000
0000
0000
0110
0000
1000
0000
0100
0000
1000
0000
,
0001
0100
0001
0100
0010
1000
0010
1000
0001
0010
0001
0010
0100
0100
0010
0100
,
1000
0000
1000
0000
0001
0000
1000
0000
0010
0000
0100
0000
0010
0000
0100
0001
0100
0000
0001
0000
1000
0000
0000
0000
1002
0000
0103
0000
0002
0000
0103
0000
,
0020
0130
0020
0130
2000
3010
2000
3010
0200
0301
0200
0301
0010
0010
0001
0010
,
0100
0000
0100
0000
1000
0000
0001
0000
0100
0000
0001
0000
0010
0000
0100
0010
0100
0000
1000
0000
0001
0000
0000
0000
0210
0000
0301
0000
0200
0000
0301
0000
,
0020
0031
0020
0031
0020
0130
0020
0130
2000
3100
2000
3100
1000
1000
0001
1000
,
0010
0100
0010
1000
0100
0001
0100
1000
0010
0010
0100
0100
0220
0000
0000
0330
;
