#TITLE:Mirai Start!;
#SUBTITLE:;
#ARTIST:Mimori Suzuko;
#TITLETRANSLIT:;
#SUBTITLETRANSLIT:;
#ARTISTTRANSLIT:;
#GENRE:My Little Pony;
#CREDIT:;
#BANNER:Mirai Start!.png;
#BACKGROUND:Mirai Start!-bg.png;
#LYRICSPATH:;
#CDTITLE:;
#MUSIC:Mirai Start!.mp3;
#OFFSET:1.060;
#SAMPLESTART:58.011;
#SAMPLELENGTH:15.000;
#SELECTABLE:YES;
#BPMS:0.000=165.000
;
#STOPS:
;
#BGCHANGES:2.500=Mirai Start!.avi=1.000=0=0=0=StretchNoLoop====,
99999=-nosongbg-=1.000=0=0=0 // don't automatically add -songbackground-
;
#KEYSOUNDS:;
#ATTACKS:;

//---------------dance-single - ----------------
#NOTES:
     dance-single:
     :
     Beginner:
     1:
     0.097,0.102,0.000,0.011,0.000,60.000,0.000,1.000,0.000,0.000,0.000,0.097,0.102,0.000,0.011,0.000,60.000,0.000,1.000,0.000,0.000,0.000:
0000
0000
0000
0000
,
0000
0000
0000
0000
,
0000
0000
0000
0000
,
0000
0000
0000
0000
,
0000
0000
0000
0000
,
0000
0000
0000
0000
,
0010
0000
0000
0000
,
0100
0000
0000
0000
,
1000
0000
0000
0000
,
0001
0000
0000
0000
,
0100
0000
0000
0000
,
0100
0000
0000
0000
,
0010
0000
0000
0000
,
0010
0000
0000
0000
,
1000
0000
0000
0000
,
0100
0000
0000
0000
,
0010
0000
0000
0000
,
0001
0000
0000
0000
,
1000
0000
0000
0000
,
0010
0000
0000
0000
,
0100
0000
0000
0000
,
0001
0000
0000
0000
,
0010
0000
0000
0000
,
0100
0000
0000
0000
,
1000
0000
0000
0000
,
0001
0000
0000
0000
,
0100
0000
0000
0000
,
0010
0000
0000
0000
,
1000
0000
0000
0000
,
0001
0000
0000
0000
,
0010
0000
0000
0000
,
0010
0000
0000
0000
,
0100
0000
0000
0000
,
0100
0000
0000
0000
,
1000
0000
0000
0000
,
1000
0000
0000
0000
,
0001
0000
0000
0000
,
0001
0000
0000
0000
,
0100
0000
0000
0000
,
0010
0000
0010
0000
,
0000
0000
0000
0000
,
1000
0000
1000
0000
,
1000
0000
0000
0000
,
0001
0000
0001
0000
,
0001
0000
0000
0000
,
0010
0000
0000
0000
,
0100
0000
0000
0000
,
1000
0000
0000
0000
,
0001
0000
0000
0000
,
0100
0000
0100
0000
,
0100
0000
0000
0000
,
0010
0000
0010
0000
,
0010
0000
0000
0000
,
1000
0000
0000
0000
,
0100
0000
0000
0000
,
0010
0000
0000
0000
,
0001
0000
0000
0000
,
1000
0000
0000
0000
,
0010
0000
0000
0000
,
0100
0000
0000
0000
,
0001
0000
0002
0000
,
0003
0000
0000
0000
;

//---------------dance-single - ----------------
#NOTES:
     dance-single:
     :
     Easy:
     4:
     0.233,0.270,0.022,0.078,0.000,138.000,2.000,7.000,0.000,0.000,0.000,0.233,0.270,0.022,0.078,0.000,138.000,2.000,7.000,0.000,0.000,0.000:
0000
0000
0000
0000
,
0000
0000
0000
0000
,
0000
0000
0000
0000
,
0000
0000
0000
0000
,
0000
0000
0000
0000
,
0000
0000
0000
0000
,
0010
0000
0100
0000
,
0001
0010
0100
1000
,
0010
0000
0100
0000
,
0002
0000
0000
0003
0000
0000
0000
0000
,
0010
0001
0010
0100
,
1000
0010
0100
0001
,
1000
0100
0001
0010
,
1000
0001
1001
0000
,
1000
0000
0010
0000
,
0100
0000
0001
0000
,
1000
0000
0100
0000
,
0010
0001
0100
0000
,
0010
0000
0100
0000
,
0001
0000
1000
0000
,
0100
0000
0010
0000
,
0002
0000
0000
0003
0000
0000
0000
0000
,
0100
0000
0010
0000
,
1000
0000
0100
0000
,
0010
0000
0100
0000
,
1000
0001
0100
0000
,
0010
0000
0100
0000
,
0001
0000
0010
0000
,
0100
0000
1000
0000
,
0002
0000
0000
0003
,
0100
0000
0010
0000
,
1000
0000
0100
0000
,
0010
0000
0001
0000
,
0100
1000
0100
0000
,
0010
0000
1000
0000
,
0100
0000
0010
0000
,
0001
0000
0100
0000
,
0010
0000
0000
0000
0020
0000
0000
0030
,
0000
0000
0000
0000
,
1000
0000
0000
0000
0002
0000
0000
0003
,
0000
0000
0000
0000
,
0010
0010
0010
0000
,
0100
1000
0010
1000
,
0001
0001
0001
0000
,
0010
0100
1000
0000
,
0010
0100
0001
0100
,
0010
1000
0100
0000
,
1000
0010
0001
0010
,
0000
0100
0001
0010
,
0100
0100
0100
0000
,
1000
0010
0100
0001
,
0010
0010
0010
0000
,
0100
1000
0010
0100
,
0010
1000
0100
0010
,
0001
0010
0100
1000
,
0010
0000
0100
0000
,
0002
0000
0000
0003
0000
0000
0000
0000
,
0010
0000
0100
0000
,
2000
0000
0000
3000
0000
0000
0000
0000
,
0001
0100
1000
0010
,
0001
0100
0010
1001
;

//---------------dance-single - ----------------
#NOTES:
     dance-single:
     :
     Hard:
     12:
     0.683,0.640,0.366,0.355,0.128,366.000,33.000,32.000,0.000,0.000,0.000,0.683,0.640,0.366,0.355,0.128,366.000,33.000,32.000,0.000,0.000,0.000:
0000
0000
0000
0000
,
0000
0000
0000
0000
,
0000
0000
0000
0000
,
0000
0000
0000
0000
,
0000
0000
0000
0000
,
0000
0000
0000
0000
0000
0000
0000
1000
,
0100
0010
0001
0010
0200
0000
1300
0001
,
2000
3020
0230
0301
,
0101
0101
0000
0000
1100
1100
0000
0000
,
0001
0010
0100
2000
0000
0001
3001
0000
,
1000
0000
0010
0000
0001
0000
0010
0000
0100
0000
0001
2000
0000
0000
3001
0000
,
1000
0000
0100
0000
0001
0000
0100
0000
0010
0000
0001
2000
0000
0000
3001
0000
,
1000
0000
0010
0000
0100
0000
0001
0100
0000
0010
0000
1000
0001
0000
1000
0000
,
0001
0010
0001
0010
0001
0010
0001
0000
2000
0000
0000
0000
3001
0000
0000
0000
,
1000
0010
0100
0001
1000
1000
0001
0000
,
1000
0100
0010
0001
1000
1000
0001
0000
,
1000
0010
0100
0001
0100
0010
0000
2000
,
0000
0001
3001
0000
1000
0100
0010
0001
,
0100
0010
0000
0010
0200
0000
0301
0010
,
0100
0010
0000
0010
0200
0000
1300
0000
,
1100
1100
1000
0000
0101
0101
0001
0000
,
1000
0000
0010
0000
0100
0000
0002
0000
0000
0000
1003
0100
1000
0000
0001
0000
,
1000
0010
0001
0010
0100
0100
0001
0000
,
1000
0100
0001
0100
0010
0010
0001
0000
,
1000
0010
0100
0001
0010
0100
0000
2000
,
0000
0100
3100
0000
1000
0010
0001
0010
,
0100
0001
0000
0001
0020
0000
0130
1000
,
0010
0100
0000
0100
0002
0000
1003
1010
,
0000
0010
0100
0001
1000
1000
0010
0100
,
0001
0000
0001
0000
0010
0000
0010
0000
0100
1000
0100
0000
1000
0000
0002
0000
,
0000
0103
1000
0100
0010
0000
1000
0002
,
0000
0013
1000
0010
0100
0000
1000
0002
,
0000
0103
1000
0100
0020
0000
1030
0000
,
0001
0000
0100
0000
0010
0000
1000
0000
0001
1000
0001
0000
0010
0000
1100
0000
,
0000
0001
0100
1000
0100
0001
1000
0001
,
0000
1000
0010
0001
0010
1000
0001
1000
,
0000
0001
0100
1000
0100
0100
0010
0010
,
0001
0000
1000
0010
0100
0010
0000
1020
,
0000
1030
0010
0010
0100
0100
0001
0001
,
1000
0000
0100
0010
0001
0010
0000
0110
,
0000
0000
0000
0000
1000
0001
1000
0001
1000
0000
0001
0000
0100
0000
0010
0000
,
1010
0000
0110
0000
0101
0000
0001
0010
,
0100
0010
0001
0100
0000
0001
0100
0010
,
1010
0000
1100
0000
1001
0000
1000
0100
,
0010
0100
1000
0002
0100
0000
1003
0001
,
1000
0100
0001
0100
2000
0000
3001
1000
,
0001
0100
1000
0100
0002
0000
1003
1020
,
0000
0130
0001
1000
0200
0000
0310
0002
,
0000
0100
0103
0000
0001
0100
0010
1000
,
1100
0000
0110
0000
0011
0000
0001
0010
,
1000
0001
0100
1000
0000
0001
0100
0010
,
1010
0000
0110
0000
0101
0000
1000
0010
,
0001
1000
0100
0002
0010
0000
0103
0001
,
0010
0100
1000
0010
0002
0000
0013
0100
,
0002
0023
0230
1300
,
1100
1001
0000
0000
0101
1001
0000
0000
,
0001
0100
1000
0200
0000
0010
0310
0000
,
1010
1001
0000
0000
0011
1001
0000
0000
,
0001
0000
0010
0000
1000
0000
0010
0000
0100
1000
0100
1000
0001
0000
0000
0000
,
1000
0000
0010
0000
0100
0000
0001
0100
0000
0010
0000
1000
0001
0000
1000
0000
,
0001
0010
0001
0010
0001
0010
0001
0000
1000
0001
1000
0001
1000
0000
0000
0000
;

//---------------dance-single - ----------------
#NOTES:
     dance-single:
     :
     Medium:
     10:
     0.526,0.506,0.333,0.255,0.000,279.000,30.000,23.000,0.000,0.000,0.000,0.526,0.506,0.333,0.255,0.000,279.000,30.000,23.000,0.000,0.000,0.000:
0000
0000
0000
0000
,
0000
0000
0000
0000
,
0000
0000
0000
0000
,
0000
0000
0000
0000
,
0000
0000
0000
0000
,
0000
0000
0000
0000
0000
0000
0000
1000
,
0001
0100
0001
0000
2000
0000
3001
0000
,
1100
0011
0101
1010
,
0001
0001
0000
0000
1000
1000
0000
0000
,
0001
0010
0100
1000
0000
0000
1001
0000
,
1000
0000
0010
0000
0100
0001
0100
0000
,
0001
0000
0010
0000
0100
1000
0100
0000
,
1000
0010
1000
0000
0001
0010
0001
0000
,
1000
0100
1000
0001
0200
0000
0310
0000
,
1000
0000
0010
0000
0100
0100
0100
0000
,
0001
0000
0010
0000
0100
0100
0100
0000
,
1000
0001
0010
0001
,
1000
0100
1000
0000
0001
0100
0001
0000
,
1000
0010
0000
0010
2000
0000
3001
0000
,
0001
0010
0000
0010
0002
0000
1003
0000
,
0100
0100
0000
0000
0010
0010
0000
0000
,
1000
0010
0100
0001
0000
0000
1001
0000
,
0001
0000
0100
0000
0010
0010
0010
0000
,
1000
0000
0100
0000
0010
0010
0010
0000
,
0001
1000
0100
1000
,
0001
0010
0001
0000
1000
0010
1000
0000
,
0001
0100
0000
0100
0002
0000
1003
0000
,
1000
0100
0000
0100
2000
0000
3001
0000
,
1100
0011
0101
1010
,
0001
0100
0001
0100
0010
1000
0010
0000
,
1000
0000
0100
0010
0200
0000
1300
0000
,
0001
0000
0100
0010
0200
0000
0301
0000
,
1000
0000
0100
0010
0200
0000
1300
0000
,
1001
0000
0000
0201
0000
0000
0310
0000
,
1000
0010
1000
0000
0010
0100
0010
0000
,
0100
0001
0100
0000
0001
0010
0001
0000
,
0010
0100
0010
0000
0100
1000
0100
0000
,
1000
0000
0001
0100
0001
0100
0000
0101
,
0000
0001
0010
0100
,
1000
0000
0010
1000
0010
1000
0000
1010
,
0000
0000
1000
0001
2000
0000
3100
0000
,
1100
1100
2100
3001
,
1000
0010
1000
0000
0001
0010
0001
0000
,
0011
0011
0012
1003
,
0001
0100
0001
0000
1000
0100
1000
0000
,
0001
1000
0001
1000
0002
0000
1003
0000
,
0010
0100
0010
0100
0020
0000
0130
0000
,
0001
0100
0001
0000
1000
0010
1000
0000
,
0001
0010
0001
0000
1000
0100
1000
0000
,
0011
0011
0012
1003
,
0001
0100
0001
0000
1000
0100
1000
0000
,
1100
1100
2100
3001
,
1000
0010
1000
0000
0001
0100
0001
0000
,
1000
0001
1000
0001
2000
0000
3001
0000
,
2000
3020
0230
0301
,
1000
1000
0000
0000
0001
0001
0000
0000
,
1000
0100
0010
0001
0000
0000
1001
0000
,
0001
0001
0000
0000
1000
1000
0000
0000
,
0001
0010
0100
1000
0000
0000
1001
0000
,
2010
3001
0012
1003
,
0001
0100
0010
1000
0001
0001
0001
0000
;

//---------------dance-single - ----------------
#NOTES:
     dance-single:
     :
     Challenge:
     11:
     0.609,0.573,0.288,0.133,0.161,346.000,26.000,12.000,204.000,0.000,0.000,0.609,0.573,0.288,0.133,0.161,346.000,26.000,12.000,204.000,0.000,0.000: // measure 0
0000
0000
0000
0000
,  // measure 1
0000
0000
0000
0000
0000
0010
0001
0100
,  // measure 2
0110
MMMM
0110
MMMM
0110
0000
0000
0010
,  // measure 3
1000
0100
1000
0001
0000
0100
0000
0010
,  // measure 4
0110
MMMM
0110
MMMM
0110
0000
0000
0010
,  // measure 5
1000
0100
0010
0002
0000
0000
0000
1003
,  // measure 6
0001
0000
0100
0000
0010
0000
1000
0020
0000
0000
0000
0000
0000
0000
0130
0010
,  // measure 7
0100
0001
1000
0100
,  // measure 8
MMMM
0010
0001
0010
MMMM
0001
0100
0001
,  // measure 9
0100
0000
0010
0000
1000
0000
0001
0000
0000
0000
1000
0001
1000
0000
0010
0000
,  // measure 10
0100
0000
0010
0000
0100
0000
0010
0000
1000
0000
0001
0010
0000
0000
0100
0000
,  // measure 11
1000
0000
0001
0000
0100
0000
0001
0000
0100
0000
0010
1000
0000
0000
0001
0010
,  // measure 12
0100
0000
0010
0000
0001
0000
1000
0010
0000
0100
0000
0001
0000
1000
0001
0000
,  // measure 13
0001
0010
0001
0000
0010
0100
0010
0000
0200
0000
0000
0000
0000
0000
0000
0000
,  // measure 14
0300
1000
0001
1000
0010
0100
MMMM
0000
,  // measure 15
MMMM
0001
1000
0001
0010
0100
MMMM
0000
,  // measure 16
MMMM
1000
0010
0100
0001
0001
1000
0100
,  // measure 17
MMMM
0100
1000
0000
0000
0000
0000
0100
,  // measure 18
0010
0100
MMMM
0100
0010
0000
0000
0010
,  // measure 19
0001
0100
MMMM
0100
0001
0000
0000
0000
,  // measure 20
MMMM
1000
0100
0010
MMMM
0100
1000
0001
,  // measure 21
0010
0000
0100
0000
0010
0000
0100
0000
0000
0000
0010
0001
0010
0000
0001
0000
,  // measure 22
MMMM
0010
0100
1000
0001
0100
MMMM
0000
,  // measure 23
MMMM
0010
0100
0001
1000
0100
MMMM
0000
,  // measure 24
MMMM
0010
0001
0010
0100
1000
0000
1001
,  // measure 25
MMMM
0010
0110
0000
0000
MMMM
MMMM
1000
,  // measure 26
0100
1000
0000
0001
0100
0000
0000
0001
,  // measure 27
0100
0001
0000
1000
0100
0000
0000
0110
,  // measure 28
0000
0010
0001
0100
0010
1000
0001
1001
,  // measure 29
0000
1000
0100
0010
0001
0010
0100
1000
,  // measure 30
0000
0100
0010
0100
0010
0010
MMMM
0110
,  // measure 31
0000
0010
0001
0100
0010
0010
MMMM
0110
,  // measure 32
0000
0010
1000
0001
0010
0100
0020
0000
,  // measure 33
0031
0010
0100
1000
0000
0010
1000
0002
,  // measure 34
0000
1003
0001
1000
0010
0100
0010
2000
,  // measure 35
0000
3200
0000
0320
0000
0032
0000
0103
,  // measure 36
0000
0001
0100
1000
0001
0010
1000
0001
,  // measure 37
0000
0000
MMMM
1000
0001
1000
MMMM
0110
,  // measure 38
0000
0000
0000
0000
1000
0100
1000
0000
0100
0010
0100
0000
0010
0001
0010
0000
,  // measure 39
0001
0000
MMMM
0010
0100
1000
0000
1001
,  // measure 40
0000
0000
0000
0000
1000
0010
0000
0100
0000
0000
0010
0000
0000
0000
0100
0000
,  // measure 41
0110
MMMM
0110
MMMM
0110
0000
0000
0010
,  // measure 42
1000
0100
1000
0001
0000
0100
0000
0010
,  // measure 43
0110
MMMM
0110
MMMM
0110
0000
0000
1000
,  // measure 44
0001
0010
0001
0100
0000
MMMM
MMMM
0010
,  // measure 45
1000
0000
0001
0000
0010
0000
0100
0010
MMMM
0000
MMMM
0000
MMMM
0000
0001
0000
,  // measure 46
0010
0000
0100
0000
1000
0000
0001
0100
MMMM
0000
MMMM
0000
MMMM
0000
0020
0000
,  // measure 47
0000
1030
0010
0100
0010
0000
1000
0010
,  // measure 48
0000
1000
0001
0000
MMMM
0010
0100
0010
,  // measure 49
0110
MMMM
0110
MMMM
0110
0000
0000
0001
,  // measure 50
0010
0100
1000
0010
MMMM
0100
MMMM
0010
,  // measure 51
0110
MMMM
0110
MMMM
0110
0000
0000
1000
,  // measure 52
0010
0100
0001
1000
0000
0000
0000
0100
,  // measure 53
0010
0000
0001
0000
0100
0000
0010
0200
0000
0000
0000
0000
0000
0000
0310
0100
,  // measure 54
0010
1000
0001
0010
,  // measure 55
MMMM
0100
1000
0010
MMMM
0100
0001
0010
,  // measure 56
0100
0100
1000
0001
0000
0100
0010
0000
,  // measure 57
MMMM
0100
0001
1000
MMMM
0100
1000
0001
,  // measure 58
0010
0001
0100
0010
0000
0100
0100
0000
,  // measure 59
0001
0000
0010
0000
0100
0000
1000
0001
0000
0010
0000
0100
1000
0100
1000
0001
,  // measure 60
0010
0100
0010
0000
0100
1000
0100
0000
2000
0000
0000
0000
3000
0000
0000
0000
;
