#TITLE:Miles;
#SUBTITLE:;
#ARTIST:dBPony feat. EileMonty;
#TITLETRANSLIT:;
#SUBTITLETRANSLIT:;
#ARTISTTRANSLIT:;
#GENRE:Swing Rock;
#CREDIT:;
#BANNER:Miles.png;
#BACKGROUND:Miles-bg.png;
#LYRICSPATH:;
#CDTITLE:;
#MUSIC:Miles.mp3;
#OFFSET:0.000000;
#SAMPLESTART:86.279999;
#SAMPLELENGTH:15.000000;
#SELECTABLE:YES;
#BPMS:0.000000=164.307007
,1.000000=150.000000
,25.000000=137.985001
,26.000000=150.000000
,232.000000=75.000000
,248.000000=150.000000
,276.000000=115.671997
,277.000000=107.586998
,278.000000=110.716003
,279.000000=65.599998
;
#STOPS:
;
#BGCHANGES:;
#KEYSOUNDS:;
#ATTACKS:;

//---------------dance-single - ----------------
#NOTES:
     dance-single:
     :
     Hard:
     12:
     0.562434,0.570790,0.524401,0.371114,0.580875,377.000000,65.000000,46.000000,0.000000,0.000000,0.000000,0.562434,0.570790,0.524401,0.371114,0.580875,377.000000,65.000000,46.000000,0.000000,0.000000,0.000000:
// measure 0
1000
0000
0000
0001
0000
2000
0000
0000
0000
3100
0000
0000
,  // measure 1
1000
0000
0010
0100
0000
0110
0000
0000
0000
0010
0000
0000
,  // measure 2
1000
0000
0002
0000
0000
0000
0013
0000
0000
0100
0000
0110
,  // measure 3
0000
0010
0001
0100
,  // measure 4
0010
0000
1000
0010
0000
0000
1000
0000
0001
1000
0000
0100
,  // measure 5
0010
0000
0001
0100
0000
0010
0000
0000
1000
0010
0000
0001
,  // measure 6
0010
0000
1000
0100
0000
0000
0010
0000
0010
0000
0000
1100
,  // measure 7
0000
0000
0000
1000
0000
0000
0001
0000
1000
0200
0000
0000
,  // measure 8
0310
0000
0000
0000
0100
0000
1000
0000
0000
0000
0001
0000
0000
0000
0000
0101
0000
0000
0000
0000
0000
0000
0000
0000
,  // measure 9
0001
0000
0010
0100
0000
1100
0000
0000
1000
0001
0000
0001
,  // measure 10
0100
0000
0010
0000
0000
0000
1010
0000
0000
1000
0000
0001
,  // measure 11
0000
0010
0001
0100
,  // measure 12
0010
0000
0000
1010
0000
0000
0011
0000
0000
1100
0000
0100
,  // measure 13
0010
0000
0010
1000
0000
1001
0000
0000
0000
0001
0000
0010
,  // measure 14
0200
0000
0000
2300
0000
0000
3010
0000
1000
0010
0000
0001
,  // measure 15
0020
2030
3200
0320
,  // measure 16
0031
0000
0000
1100
0000
1100
0000
0000
0000
2000
0000
0000
,  // measure 17
3010
0000
0000
1010
0000
0101
0000
0000
0001
0010
0000
0100
,  // measure 18
0010
0000
0000
0001
0000
0000
1000
0000
0000
0000
0010
0000
0000
0000
0000
0000
1000
0000
0010
0000
0000
0000
0110
0000
,  // measure 19
0000
0000
0000
0101
0000
0000
1100
0000
0000
0100
0000
0020
,  // measure 20
0000
0000
1030
0010
0000
0000
1000
0000
0001
1000
0000
0100
,  // measure 21
0010
0000
0000
0011
0000
1100
0000
0000
1000
0001
0000
0001
,  // measure 22
0100
0000
0100
0010
0000
0010
1000
0000
1000
0001
0000
1000
,  // measure 23
0002
0000
0000
0023
0000
0000
0130
0010
0100
0010
0100
0010
,  // measure 24
0100
0011
0100
1010
,  // measure 25
1000
0000
0000
0001
0000
0020
0100
0030
0010
0000
0000
0100
,  // measure 26
1000
0000
1000
0001
0000
0000
0101
0000
0000
0100
0000
0020
,  // measure 27
0000
0000
0000
0031
0000
0010
0000
0000
0000
1000
0000
0001
,  // measure 28
1000
0000
0100
1000
0000
0000
0110
0000
0000
0010
0000
0000
,  // measure 29
0001
0000
0000
0010
0000
0000
0100
0000
0000
1000
0000
0000
0000
0000
0000
0000
0000
0000
1001
0000
0000
0000
1000
0000
,  // measure 30
0010
0000
0100
0010
0000
0000
1010
0000
1001
0000
0000
0001
,  // measure 31
0020
0000
0000
0230
0000
0000
1300
0000
0100
1000
0000
0010
,  // measure 32
2000
3002
0023
0130
,  // measure 33
1001
0001
1010
0011
,  // measure 34
1000
0000
0000
0100
0000
0000
0001
0000
0000
1000
0000
0001
,  // measure 35
2000
0000
0000
3200
0000
0000
0320
0000
0031
0010
0000
0000
,  // measure 36
0110
1100
1010
0110
,  // measure 37
0101
0000
0000
1001
0000
1001
0000
0000
0000
1000
0000
0200
,  // measure 38
0010
0000
0000
0010
0000
0000
0010
0000
0310
0100
0000
1000
,  // measure 39
0000
0001
1000
0001
,  // measure 40
0101
0000
0000
1010
0000
0000
1000
0000
0010
0100
0000
0220
,  // measure 41
0000
0000
0330
1001
0000
0000
1000
0000
0010
0000
0000
0011
,  // measure 42
0000
0000
1000
0100
0000
1000
0200
0000
0000
0310
0000
1010
,  // measure 43
0000
0000
0100
0001
0000
0100
0002
0000
0013
0000
0000
0110
,  // measure 44
0000
0000
0100
1000
0000
1000
0001
0000
0001
0100
0000
0100
,  // measure 45
0010
0000
1000
0000
0100
0000
0010
0000
0001
0000
0100
0000
0010
0000
0000
0000
1010
0000
0000
0000
0000
0000
0000
1001
,  // measure 46
0000
0000
0000
0000
0000
0000
0000
0000
0000
0000
0000
0000
0000
0000
0000
0000
0000
0000
0000
0000
0000
0000
0000
0000
0000
0000
0000
0000
0000
0000
0000
0000
0000
0000
0000
0000
0000
0000
0000
0000
0001
0000
0000
0000
0000
0000
0000
0000
0000
0000
0000
0000
0000
0000
0000
0000
1000
0000
0000
0000
0000
0000
0000
0000
0000
0000
0000
0000
0000
0000
0000
0000
0000
0000
0000
0000
0000
0000
0000
0000
0000
0000
0000
0000
1000
0000
0000
0000
0000
0000
0000
0000
0000
0000
0000
0000
0000
0000
0000
0000
0000
0000
0100
0000
0000
0000
0000
0000
0000
0000
0000
0000
0000
0000
0000
0000
0000
0000
0000
0000
0000
0000
0000
0000
0000
0000
0000
0000
0010
0000
0000
0000
0000
0000
0000
0000
0000
0000
0000
0000
0000
0000
0000
0000
0100
0000
0000
0000
0000
0000
0000
0000
0000
0000
0000
0000
0000
0000
0000
0000
0000
0000
0000
0000
0000
0000
0000
0000
0000
0000
0000
0000
0000
0000
0000
0000
0000
0000
0000
0000
0000
0000
0000
0000
1000
0000
0000
0000
0000
0000
0000
0000
,  // measure 47
0000
0000
0000
0000
0000
0000
0000
0000
0000
0000
0000
0000
0000
0000
0000
0000
0000
0000
0000
0000
0000
0000
0000
0000
0000
0000
0000
0000
0000
0000
0000
0000
0000
0000
0000
0000
0000
0000
0000
0000
0000
0000
0000
0000
0000
0000
0000
0000
0001
0000
0000
0000
0000
0000
0000
0000
0000
0000
0000
0000
0000
0000
0000
0000
0000
0000
0000
0000
0000
0000
0000
0000
0000
0000
0000
0000
0000
0000
0000
0000
0000
0000
0000
0000
0000
0000
0000
0000
0000
0000
0000
0000
0000
0000
0000
0000
0000
0000
0000
0000
0000
0000
1000
0000
0000
0000
0000
0000
0000
0000
0000
0000
0000
0000
0000
0000
0000
0000
0000
0000
0000
0000
0000
0000
0000
0000
0000
0000
0000
0000
0000
0000
0001
0000
0000
0000
0000
0000
0000
0000
0000
0000
0000
0000
0000
0000
0000
0000
0000
0000
0100
0000
0000
0000
0000
0000
0000
0000
0000
0000
0000
0000
0000
0000
0000
0000
0000
0000
0000
0000
0000
0000
0000
0000
0000
0000
0100
0000
0000
0000
0000
0000
0000
0000
0000
0000
0000
0000
0000
0000
0000
0000
,  // measure 48
1000
0000
1000
0100
0000
0100
0001
0000
0001
0010
0000
0000
,  // measure 49
0110
0000
0000
0000
0010
0000
1000
0000
0000
0000
1000
0000
0010
0000
0000
0000
0010
0000
0001
0000
0000
1001
0000
0000
,  // measure 50
0000
0000
0000
1010
0000
0000
0110
0000
0110
0000
0000
0101
,  // measure 51
0000
0000
0001
1000
0000
0000
1100
0000
1100
0000
0000
0110
,  // measure 52
0000
0020
0032
0203
,  // measure 53
0310
0100
0010
0100
0001
0100
0001
0000
1001
0000
0000
1100
,  // measure 54
0000
0000
0100
0010
0000
0100
0010
0000
0100
1000
0000
0001
,  // measure 55
0000
0000
0000
0100
0000
0010
0100
0000
0010
0000
0000
1010
,  // measure 56
0000
0000
0000
1000
0000
0000
0001
0000
0010
0001
0000
1000
,  // measure 57
0001
0000
0100
1000
0000
0001
0010
0000
1000
0010
0000
0000
,  // measure 58
1000
0000
0000
1000
0000
0000
0001
0000
0000
0001
0000
0010
0100
0000
0000
1000
0000
0000
0020
0000
0000
0000
0000
0000
,  // measure 59
0130
0000
0000
0100
0000
0000
0010
0000
0000
0010
0000
1000
0020
0000
0000
0230
0000
0000
0302
0000
0000
0000
0000
0000
,  // measure 60
2003
3200
0302
0023
,  // measure 61
2030
0000
0000
0000
0002
0000
3003
1001
,  // measure 62
0010
0000
0000
0010
0000
0000
1000
0000
1000
0001
0000
0001
,  // measure 63
0020
0000
0000
0230
0000
0000
2300
0000
0000
0000
0000
3001
,  // measure 64
1000
0000
0000
1010
0000
0000
0010
0000
0100
0001
0000
0000
,  // measure 65
0011
0000
0000
0110
0000
0000
1100
0000
1000
0010
0000
0011
,  // measure 66
0000
0000
0000
0110
0000
0010
0100
0000
0100
0001
0000
0000
,  // measure 67
1001
0000
0000
1000
0000
0000
0100
0000
0010
0100
0000
0100
,  // measure 68
2000
0000
0000
0000
,  // measure 69
0002
0000
0000
0000
,  // measure 70
0000
0000
0000
3003
;

//---------------dance-single - Blank----------------
#NOTES:
     dance-single:
     :
     Medium:
     10:
     0.451791,0.485172,0.371114,0.258167,0.326742,314.000000,46.000000,32.000000,0.000000,0.000000,0.000000,0.451791,0.485172,0.371114,0.258167,0.326742,314.000000,46.000000,32.000000,0.000000,0.000000,0.000000:
// measure 0
0010
0010
0010
0010
,  // measure 1
0100
0100
0100
0100
,  // measure 2
1000
1000
1000
1000
,  // measure 3
0001
0001
0001
0001
,  // measure 4
0101
1010
0101
1010
,  // measure 5
1100
0011
1100
0011
,  // measure 6
1001
0110
1001
0110
,  // measure 7
1010
0000
0000
0101
0000
0000
0011
0000
0001
2000
0000
0000
,  // measure 8
3001
0000
0000
0000
1000
0000
0001
0000
0000
0000
0000
0000
1000
0000
0000
0000
0000
0000
1000
0000
0000
0000
0000
0100
,  // measure 9
0000
0000
0000
1000
0000
0000
0010
0000
0000
0000
0100
0000
0000
0000
0000
0000
0001
0000
0100
0000
0000
0000
0000
0000
,  // measure 10
0010
0000
0000
1000
0000
0000
0001
0000
0000
0010
0000
0110
,  // measure 11
0000
0100
1000
0100
,  // measure 12
0010
0011
0101
1100
,  // measure 13
1000
0000
0001
0010
0000
1000
0000
0000
0000
0000
0000
0001
,  // measure 14
1000
0000
0000
0100
0000
0000
0010
0000
0100
1000
0000
0010
,  // measure 15
0200
0302
2003
3200
,  // measure 16
1300
0000
0000
0100
0000
0110
0000
0000
0000
0010
0000
0000
,  // measure 17
0011
0000
0000
0010
0000
0110
0000
0000
0100
1000
0000
0000
,  // measure 18
0001
0000
1000
0001
0000
0100
0000
0000
0010
1000
0000
0000
,  // measure 19
0001
0010
0100
1000
,  // measure 20
0001
0000
1000
0001
0000
0000
1000
0000
0000
1000
0000
0000
,  // measure 21
0100
0100
0010
0100
,  // measure 22
1100
1010
0101
0011
,  // measure 23
0010
0000
0000
0010
0000
0000
0100
1000
0100
1000
0100
1000
,  // measure 24
0100
0110
0011
0110
,  // measure 25
0100
0000
0000
1000
0000
0010
1000
0000
0010
0000
0000
0100
,  // measure 26
0010
0000
0000
1000
0000
0000
0001
0000
0000
1000
0000
0001
,  // measure 27
2000
3200
0320
0032
,  // measure 28
1003
0001
1000
0100
,  // measure 29
0010
0000
0000
0100
0000
0000
1000
0000
0000
0001
0000
0000
0000
0000
0000
0000
0000
0000
0100
0000
0000
0000
1000
0000
,  // measure 30
0100
0000
0001
0100
0000
0000
0010
0000
0000
0010
0000
0000
,  // measure 31
2000
3002
2003
3002
,  // measure 32
0203
0000
0000
0000
0000
0000
0000
0000
0310
0100
0000
0000
,  // measure 33
0002
0000
0000
0003
,  // measure 34
2020
0000
0000
0000
0000
0000
0000
0000
0000
3030
0000
1000
,  // measure 35
0010
0000
0000
0100
0000
0000
0001
0000
1000
0001
0000
0000
,  // measure 36
0011
0011
0011
0010
,  // measure 37
0100
0000
0000
1000
0000
0010
0000
0000
0000
0101
0000
0202
,  // measure 38
0000
0000
0000
0000
0000
0000
0003
0000
0000
0001
0000
0310
,  // measure 39
0000
0010
1000
0100
,  // measure 40
0110
0000
0000
0110
0000
0000
0110
0000
0000
0100
0000
1000
,  // measure 41
0000
0000
0000
0001
0000
0000
1000
0000
0001
0000
0000
0011
,  // measure 42
0000
0000
0000
0010
0000
0000
0100
0000
0000
1000
0000
1010
,  // measure 43
0000
0000
0000
0100
0000
0000
0010
0000
0000
0100
0000
0110
,  // measure 44
0000
0010
1000
0001
,  // measure 45
1000
0000
0001
0000
1000
0000
0001
0000
1000
0000
0001
0000
1000
0000
0000
0000
0001
0000
0000
0000
0000
0000
0000
1000
,  // measure 46
0000
0000
0000
0000
0000
0000
0000
0000
0000
0000
0000
0000
0000
0000
0000
0000
0000
0000
0000
0000
0000
0000
0000
0000
0000
0000
0000
0000
0000
0000
0000
0000
0000
0000
0000
0000
0000
0000
0000
0000
0001
0000
0000
0000
0000
0000
0000
0000
0000
0000
0000
0000
0000
0000
0000
0000
1000
0000
0000
0000
0000
0000
0000
0000
0000
0000
0000
0000
0000
0000
0000
0000
0000
0000
0000
0000
0000
0000
0000
0000
0000
0000
0000
0000
0000
0000
0000
0000
0000
0000
0000
0000
0000
0000
0000
0000
0000
0000
0000
0000
0000
0000
0001
0000
0000
0000
0000
0000
0000
0000
0000
0000
0000
0000
0000
0000
0000
0000
0000
0000
0000
0000
0000
0000
0000
0000
0000
0000
0000
0000
0000
0000
0100
0000
0000
0000
0000
0000
0000
0000
0000
0000
0000
0000
0000
0000
0000
0000
0000
0000
0001
0000
0000
0000
0000
0000
0000
0000
0000
0000
0000
0000
0000
0000
0000
0000
0000
0000
0000
0000
0000
0000
0000
0000
0000
0000
0000
0000
0000
0000
0000
0000
0000
0000
0000
0000
0000
0000
0000
0000
0000
0000
,  // measure 47
0000
0000
0000
0000
0000
0000
0000
0000
0100
0000
0000
0000
0000
0000
0000
0000
0000
0000
0000
0000
0000
0000
0000
0000
0000
0000
0000
0000
0000
0000
0000
0000
0000
0000
0000
0000
0010
0000
0000
0000
0000
0000
0000
0000
0000
0000
0000
0000
0000
0000
0000
0000
0000
0000
0100
0000
0000
0000
0000
0000
0000
0000
0000
0000
0000
0000
0000
0000
0000
0000
0000
0000
0000
0000
0000
0000
0000
0000
0000
0000
0000
0000
0000
0000
0000
0000
0000
0000
0000
0000
0000
0000
0000
0000
0000
0000
0000
0000
0000
0000
0000
0000
0010
0000
0000
0000
0000
0000
0000
0000
0000
0000
0000
0000
0000
0000
0000
0000
0000
0000
0000
0000
0000
0000
0000
0000
0000
0000
0000
0000
0000
0000
1000
0000
0000
0000
0000
0000
0000
0000
0000
0000
0000
0000
0000
0000
0000
0000
0000
0000
0010
0000
0000
0000
0000
0000
0000
0000
0000
0000
0000
0000
0000
0000
0000
0000
0000
0000
0000
0000
0000
0000
0000
0000
0000
0000
0000
0000
0000
0000
0000
0000
0000
0000
0000
0000
0000
0000
0000
0000
0000
0000
,  // measure 48
0000
1000
0000
0000
0000
0000
0000
0000
0100
0000
0000
0000
0000
0000
0000
0000
0010
0000
0000
0000
0000
0000
0000
0000
1001
0000
0000
0000
0000
0000
0000
0000
,  // measure 49
0001
0000
0100
0000
0010
0000
1001
1001
,  // measure 50
0000
0000
0000
1000
0000
0000
0010
0000
0000
0001
0000
0011
,  // measure 51
0000
0000
0000
0010
0000
0000
1000
0000
0000
0100
0000
0101
,  // measure 52
0000
1000
0010
0100
,  // measure 53
0010
0100
0010
0100
0010
0100
0010
0000
0100
0000
0000
0010
,  // measure 54
0000
0000
1000
0010
0000
0000
1000
0000
0001
1000
0000
0000
,  // measure 55
0001
0000
0100
0001
0000
0100
0001
0000
1000
0000
0000
0100
,  // measure 56
0000
0010
0100
1000
,  // measure 57
0020
0230
0320
0230
,  // measure 58
0301
0000
0000
0001
0000
0000
0001
0000
0000
0000
0000
0001
1000
0000
0000
0200
0000
0000
0310
0000
0000
0000
0000
0000
,  // measure 59
1000
0000
0000
1000
0000
0000
1000
0000
0000
0000
0000
1000
0001
0000
0000
1000
0000
0000
0010
0000
0000
0000
0000
0000
,  // measure 60
0200
0302
2003
3200
,  // measure 61
0320
0000
0000
0000
0230
0000
0000
0310
,  // measure 62
0100
0000
0000
0100
0000
0000
0100
0000
1000
0100
0000
0000
,  // measure 63
0010
0000
0000
0010
0000
0000
0010
0000
0000
0000
0000
0001
,  // measure 64
1000
0000
0000
0010
0000
0000
1000
0000
0001
1000
0000
0000
,  // measure 65
0100
0000
0000
0010
0000
0000
0100
0000
1000
0100
0000
0010
,  // measure 66
0000
0000
0000
0001
0000
1000
0001
0000
0001
1000
0000
0000
,  // measure 67
0010
0000
0000
0100
0000
0000
0001
0000
0000
0000
0000
0010
,  // measure 68
0200
0000
0000
0000
,  // measure 69
2300
0000
0000
0000
,  // measure 70
0000
0000
0000
3000
;

//---------------dance-single - Blank----------------
#NOTES:
     dance-single:
     :
     Easy:
     6:
     0.330776,0.342474,0.201693,0.282370,0.000000,227.000000,25.000000,35.000000,0.000000,0.000000,6.000000,0.330776,0.342474,0.201693,0.282370,0.000000,227.000000,25.000000,35.000000,0.000000,0.000000,6.000000:
// measure 0
0010
0010
0010
0000
,  // measure 1
0100
0100
0100
0000
,  // measure 2
1000
1000
1000
0000
,  // measure 3
0001
0001
0001
0000
,  // measure 4
1000
1000
1000
1010
,  // measure 5
0000
0001
0001
0001
,  // measure 6
0000
0100
0010
1000
,  // measure 7
1010
0010
0010
0200
,  // measure 8
0301
0000
0101
1000
,  // measure 9
0000
1001
0000
0101
,  // measure 10
0010
1000
0001
0020
,  // measure 11
0100
0130
1000
0100
,  // measure 12
0010
0001
0001
1000
,  // measure 13
1000
0010
0001
0010
,  // measure 14
0010
0100
0010
1000
,  // measure 15
0200
0302
2003
3200
,  // measure 16
0300
0000
0100
0010
,  // measure 17
1000
0001
1000
1000
,  // measure 18
0001
0010
0001
0100
,  // measure 19
1000
0010
0100
0001
,  // measure 20
0001
1001
1000
0000
,  // measure 21
0100
1000
0010
0001
,  // measure 22
0001
0010
0100
0010
,  // measure 23
0100
0010
4400
0000
,  // measure 24
0000
3300
0000
0000
0000
0000
0010
0000
0000
0000
0000
0000
0001
0000
0000
0000
0000
0000
0100
0000
0000
0000
0000
0000
,  // measure 25
1000
0010
1000
0110
,  // measure 26
0001
1000
0001
1000
,  // measure 27
2001
0001
0010
0010
,  // measure 28
3001
0000
1000
0100
,  // measure 29
0020
1000
1030
0001
,  // measure 30
0100
0100
1000
0010
,  // measure 31
2000
3002
2003
3002
,  // measure 32
2003
0000
0100
3100
,  // measure 33
0220
0000
0000
0330
,  // measure 34
2002
0000
0000
3003
,  // measure 35
0000
0100
0100
0010
,  // measure 36
0010
0001
0001
0100
,  // measure 37
0100
1000
1000
0202
,  // measure 38
0000
0000
0000
0000
,  // measure 39
0303
0010
1000
0100
,  // measure 40
1000
0010
0001
0100
,  // measure 41
1000
0010
0001
0100
,  // measure 42
1000
0010
0100
1000
,  // measure 43
0000
0100
0010
0100
,  // measure 44
0110
0010
1000
0001
,  // measure 45
4004
0000
0000
0000
0000
0000
0000
0000
3003
0000
0000
0000
,  // measure 46
0000
0100
0010
0100
,  // measure 47
0001
0100
0001
1000
,  // measure 48
0000
0100
0010
1001
,  // measure 49
0001
0100
0010
2200
,  // measure 50
3300
1000
0010
0001
,  // measure 51
0100
0010
1000
0100
,  // measure 52
0100
1000
0010
0100
,  // measure 53
0440
0000
0000
0000
0000
0000
0000
0000
0330
0000
0000
0000
,  // measure 54
0000
0010
0100
1000
,  // measure 55
0100
0001
0001
0010
,  // measure 56
0100
0010
0100
1000
,  // measure 57
0020
0230
0320
0230
,  // measure 58
0300
0000
0000
0010
,  // measure 59
1000
1010
0001
0010
,  // measure 60
0200
0302
2003
3200
,  // measure 61
0320
0000
0000
0000
0230
0000
0000
0300
,  // measure 62
0000
1001
1000
0001
,  // measure 63
0010
0100
0010
0000
,  // measure 64
0110
0010
1001
1000
,  // measure 65
0100
0010
1010
1000
,  // measure 66
0110
0001
0001
1000
,  // measure 67
0010
0100
0001
0000
,  // measure 68
2002
0000
0000
0000
0000
0000
0000
3003
0000
0000
0000
0000
,  // measure 69
0202
0000
0000
0000
,  // measure 70
0000
0000
0000
0303
;

//---------------dance-single - Blank----------------
#NOTES:
     dance-single:
     :
     Beginner:
     3:
     0.170574,0.167001,0.137151,0.000000,0.000000,131.000000,17.000000,0.000000,0.000000,0.000000,0.000000,0.170574,0.167001,0.137151,0.000000,0.000000,131.000000,17.000000,0.000000,0.000000,0.000000,0.000000:
// measure 0
0010
0000
0010
0000
,  // measure 1
0100
0000
0100
0000
,  // measure 2
1000
0000
1000
0000
,  // measure 3
0001
0000
0001
0000
,  // measure 4
1000
0000
0000
1001
,  // measure 5
0000
0001
0000
0001
,  // measure 6
0000
0000
0000
0000
,  // measure 7
0000
0000
0000
0000
,  // measure 8
0001
0000
0000
0000
,  // measure 9
0001
0000
1000
0000
,  // measure 10
0001
0000
0010
0000
,  // measure 11
0100
0000
0010
0000
,  // measure 12
0001
0000
0001
0000
,  // measure 13
1000
0000
0010
0000
,  // measure 14
1000
0000
0100
0000
,  // measure 15
0100
0000
0010
0000
,  // measure 16
0010
0010
0010
0000
,  // measure 17
1000
1000
1000
0000
,  // measure 18
0001
0001
0001
0000
,  // measure 19
1000
0000
0010
0000
,  // measure 20
1001
0000
0010
0000
,  // measure 21
0100
0000
1000
0000
,  // measure 22
0001
0000
0100
0000
,  // measure 23
1001
0000
0100
0000
,  // measure 24
1000
0000
0001
0000
,  // measure 25
0010
0000
0001
0000
,  // measure 26
1000
0000
0001
0000
,  // measure 27
1001
0000
0000
0000
,  // measure 28
0110
0000
1000
0000
,  // measure 29
0010
0000
0001
0000
,  // measure 30
0100
0000
0001
0000
,  // measure 31
1000
0000
0001
0000
,  // measure 32
1000
0000
0100
0100
,  // measure 33
0110
0000
0000
0000
,  // measure 34
1001
0000
0000
0000
,  // measure 35
0000
0100
0000
0010
,  // measure 36
0000
0001
0000
0100
,  // measure 37
0000
1000
0000
1001
,  // measure 38
0000
0000
0000
0000
,  // measure 39
0000
0010
0000
0100
,  // measure 40
0000
0001
0000
0010
,  // measure 41
0000
1000
0000
0100
,  // measure 42
0000
0001
0000
0001
,  // measure 43
0000
0010
0000
0100
,  // measure 44
0000
1000
0000
0000
,  // measure 45
1001
0000
0000
0000
,  // measure 46
0000
0100
0000
0010
,  // measure 47
0000
1000
0000
0010
,  // measure 48
0000
0100
0000
0001
,  // measure 49
0000
0100
0000
0010
,  // measure 50
0000
1000
0000
0010
,  // measure 51
0000
1000
0000
1001
,  // measure 52
0000
0100
0000
0000
,  // measure 53
0110
0000
0000
0000
,  // measure 54
0000
0010
0000
0100
,  // measure 55
0000
1000
0000
0001
,  // measure 56
0000
0010
0000
0100
,  // measure 57
0000
0001
0001
0001
,  // measure 58
0001
0000
0000
0010
,  // measure 59
0000
0110
0000
0001
,  // measure 60
0000
1001
0000
0110
,  // measure 61
0000
1000
0000
0010
,  // measure 62
0000
1001
0000
0001
,  // measure 63
0000
0100
0000
1000
,  // measure 64
0000
0100
0000
0001
,  // measure 65
0000
0010
0010
0010
,  // measure 66
0000
1000
1000
1000
,  // measure 67
0000
0100
0100
0000
,  // measure 68
1001
0000
0000
0000
,  // measure 69
0110
0000
0000
0000
;
