#VERSION:0.81;
#TITLE:Magic;
#SUBTITLE:;
#ARTIST:The Living Tombstone feat. Lauren G.;
#TITLETRANSLIT:;
#SUBTITLETRANSLIT:;
#ARTISTTRANSLIT:;
#GENRE:Drum 'n Bass;
#ORIGIN:;
#CREDIT:;
#BANNER:Magic.png;
#BACKGROUND:Magic-bg.png;
#PREVIEWVID:;
#JACKET:Magic-jacket.png;
#CDIMAGE:;
#DISCIMAGE:;
#LYRICSPATH:;
#CDTITLE:;
#MUSIC:Magic.mp3;
#OFFSET:-0.063;
#SAMPLESTART:37.480;
#SAMPLELENGTH:15.000;
#SELECTABLE:YES;
#DISPLAYBPM:108.000;
#BPMS:0.000=108.000,
34.000=104.717,
35.000=108.000;
#STOPS:;
#DELAYS:;
#WARPS:;
#TIMESIGNATURES:0.000=4=4;
#TICKCOUNTS:0.000=4;
#COMBOS:0.000=1;
#SPEEDS:0.000=1.000=0.000=0;
#SCROLLS:0.000=1.000;
#FAKES:;
#LABELS:0.000=Song Start;
#BGCHANGES:-0.500=Magic.avi=1.000=0=0=0=StretchNoLoop====,
99999=-nosongbg-=1.000=0=0=0 // don't automatically add -songbackground-
;
#KEYSOUNDS:;
#ATTACKS:
;

//---------------dance-single - ----------------
#NOTEDATA:;
#CHARTNAME:;
#STEPSTYPE:dance-single;
#DESCRIPTION:;
#CHARTSTYLE:;
#DIFFICULTY:Beginner;
#METER:1;
#RADARVALUES:0.065,0.088,0.013,0.000,0.000,34.000,1.000,0.000,0.000,0.000,0.000,0.000,0.000,0.065,0.088,0.013,0.000,0.000,34.000,1.000,0.000,0.000,0.000,0.000,0.000,0.000;
#CREDIT:;
#DISPLAYBPM:108.000;
#NOTES:
0000
0000
0000
0000
,
1000
0000
0000
0000
,
0010
0000
0000
0000
,
0100
0000
0000
0000
,
0001
0000
0000
0000
,
0010
0000
0000
0000
,
0100
0000
0000
0000
,
1000
0000
0000
0000
,
0001
0000
0000
0000
,
0100
0000
0000
0000
,
0010
0000
0000
0000
,
1000
0000
0000
0000
,
0001
0000
0000
0000
,
0010
0000
0000
0000
,
0100
0000
0000
0000
,
1000
0000
0000
0000
,
0001
0000
0000
0000
,
0100
0000
0000
0000
,
0010
0000
0000
0000
,
0100
0000
0000
0000
,
0001
0000
0000
0000
,
0010
0000
0000
0000
,
0100
0000
0000
0000
,
1000
0000
0000
0000
,
0001
0000
0000
0000
,
0100
0000
0000
0000
,
0010
0000
0000
0000
,
1000
0000
0000
0000
,
0001
0000
0000
0000
,
0010
0000
0000
0000
,
0100
0000
0000
0000
,
1000
0000
0000
0000
,
0001
0000
0000
0000
,
0100
0000
0000
0110
;

//---------------dance-single - ----------------
#NOTEDATA:;
#CHARTNAME:;
#STEPSTYPE:dance-single;
#DESCRIPTION:;
#CHARTSTYLE:;
#DIFFICULTY:Challenge;
#METER:8;
#RADARVALUES:0.419,0.375,0.026,0.221,0.104,206.000,2.000,17.000,48.000,0.000,0.000,0.000,0.000,0.419,0.375,0.026,0.221,0.104,206.000,2.000,17.000,48.000,0.000,0.000,0.000,0.000;
#CREDIT:;
#DISPLAYBPM:108.000;
#NOTES:
// measure 0
1000
0000
0000
0000
,  // measure 1
0001
0000
0000
0000
0010
0000
0000
0000
0100
0000
0000
1000
0000
0000
0100
0000
,  // measure 2
MMMM
0000
0010
0000
0001
0000
0000
0000
0100
0000
0000
0010
0000
0000
0100
0000
,  // measure 3
MMMM
0001
1000
0100
0010
0000
0100
0000
,  // measure 4
1000
0010
0100
0001
MMMM
0001
0100
0010
,  // measure 5
1000
0000
0100
0000
0010
0000
0100
0000
1000
0000
0000
0001
0000
0000
0100
0000
,  // measure 6
0010
0000
0100
0000
0001
0000
0010
0000
0100
0000
0000
1000
0000
0000
0010
0000
,  // measure 7
MMMM
0100
0001
1000
0100
0001
0100
1000
,  // measure 8
0010
0100
0001
1000
MMMM
0010
MMMM
0110
,  // measure 9
0100
0001
0010
2000
0000
3020
0000
0000
,  // measure 10
0130
1000
0010
0200
0000
0302
0000
0013
,  // measure 11
0100
1000
0001
0200
0000
0310
0020
0000
,  // measure 12
1030
0100
0010
0002
0000
0203
0000
0310
,  // measure 13
0010
0100
0001
2000
0000
3100
0010
0002
,  // measure 14
0000
0103
0010
0200
0000
0301
0010
0100
,  // measure 15
1000
0100
1000
0002
0000
0023
0000
0031
,  // measure 16
MMMM
0100
MMMM
0010
MMMM
1000
MMMM
0001
,  // measure 17
0020
0001
0000
0001
0030
0001
0100
1000
,  // measure 18
0200
0010
0000
0010
0300
0010
1000
0100
,  // measure 19
2000
0010
0000
0010
3000
0010
0100
1000
,  // measure 20
0002
0010
0000
0010
0003
0010
0100
0001
,  // measure 21
0010
0000
0100
0000
1000
0000
0000
0000
0010
0000
0000
0100
0000
0000
0010
0000
,  // measure 22
1000
0000
0100
0000
0010
0000
0000
0000
0001
0000
0000
0100
0000
0000
0010
0000
,  // measure 23
0100
0000
0001
0000
1000
0000
0000
0000
0100
0000
0000
0010
0000
0000
0100
0000
,  // measure 24
1000
0000
0010
0000
0100
0000
0001
0000
0010
0000
0000
0100
0000
0000
1000
0000
,  // measure 25
0001
0000
0100
0000
0010
0000
0100
0000
0001
0000
0000
0010
0000
0000
0100
0000
,  // measure 26
1000
0000
0001
0000
0100
0000
0010
0000
0100
0000
0000
0001
0000
0000
0010
0000
,  // measure 27
0100
0000
1000
0000
0010
0000
0100
0000
0001
0000
0000
1000
0000
0000
0100
0000
,  // measure 28
1000
0000
0010
0000
0100
0000
0001
0000
0010
0000
0000
0100
0000
0000
0010
0000
,  // measure 29
0001
0000
0100
0000
1000
0000
0100
0000
0001
0000
0000
0010
0000
0000
0100
0000
,  // measure 30
1000
0000
0010
0000
0100
0000
0010
0000
1000
0000
0000
0100
0000
0000
0010
0000
,  // measure 31
0001
0000
0100
0000
0010
0000
0100
0000
0001
0000
0000
1000
0000
0000
0100
0000
,  // measure 32
0010
0000
0001
0000
0100
0000
0010
0000
0100
0000
0000
0001
0000
0000
0010
0000
,  // measure 33
0100
1000
0001
0100
0000
MMMM
MMMM
1001
;

//---------------dance-single - Blank----------------
#NOTEDATA:;
#CHARTNAME:;
#STEPSTYPE:dance-single;
#DESCRIPTION:Blank;
#CHARTSTYLE:;
#DIFFICULTY:Easy;
#METER:4;
#RADARVALUES:0.188,0.221,0.208,0.104,0.000,77.000,16.000,8.000,0.000,0.000,0.000,0.000,0.000,0.188,0.221,0.208,0.104,0.000,77.000,16.000,8.000,0.000,0.000,0.000,0.000,0.000;
#CREDIT:;
#DISPLAYBPM:108.000;
#NOTES:
0000
0000
0000
0000
,
1000
0000
1000
0000
,
0001
0000
0001
0000
,
0100
0000
0100
0000
,
0010
1000
0001
0000
,
0010
0000
0010
0000
,
0100
0000
0100
0000
,
1000
0000
1000
0000
,
0001
0100
0010
0000
,
1010
0000
1001
0000
,
0011
0000
1001
0000
,
1100
0000
1001
0000
,
0101
0000
1001
0110
,
1010
0000
0110
0000
,
0101
0000
0110
0000
,
1001
0000
0110
0000
,
0010
0010
0100
0100
,
1000
0000
1000
0000
,
0001
0000
0001
0100
,
0010
0000
0010
0000
,
0100
0000
0100
0001
,
1000
0000
1000
0000
,
0001
0000
0001
1000
,
0010
0000
0100
0000
,
0001
0000
1000
0100
,
0020
0000
0031
0000
,
0002
0000
1003
0000
,
2000
0000
3100
0000
,
0200
0000
0310
0000
,
0020
0000
0130
0000
,
0200
0000
1300
0000
,
2000
0000
3001
0000
,
0002
0000
0013
0000
,
0110
0000
0000
0000
0000
0100
0100
0100
;

//---------------dance-single - Blank----------------
#NOTEDATA:;
#CHARTNAME:;
#STEPSTYPE:dance-single;
#DESCRIPTION:Blank;
#CHARTSTYLE:;
#DIFFICULTY:Hard;
#METER:12;
#RADARVALUES:0.562,0.485,0.339,0.078,0.254,270.000,26.000,6.000,0.000,0.000,0.000,0.000,0.000,0.562,0.485,0.339,0.078,0.254,270.000,26.000,6.000,0.000,0.000,0.000,0.000,0.000;
#CREDIT:;
#DISPLAYBPM:108.000;
#NOTES:
1000
0000
0001
0000
0000
1000
0001
0000
0000
0010
0000
0000
0100
0000
0000
1000
0000
0000
0010
0000
0000
1000
0000
0000
,
0001
0000
0000
0000
0000
0000
0010
0000
0000
0000
0000
0000
0001
0000
0000
0000
0000
0000
0100
0000
0000
0000
0000
0000
0010
0000
0000
0000
0000
0000
1000
0000
0000
0010
0000
0000
0000
0000
0000
0000
0010
0000
1000
0000
0000
0000
0000
0000
,
0000
0000
0000
0000
0000
0000
0100
0000
0000
0000
0000
0000
0010
0000
0000
0000
0000
0000
0100
0000
0000
0000
0000
0000
1000
0000
0000
0000
0000
0000
0001
0000
0000
1000
0000
0000
0000
0000
0000
0000
0100
0000
0010
0000
0000
0000
0000
0000
,
0000
0001
0010
0001
0100
0010
0110
0010
,
1000
0001
1000
0010
0000
1000
0010
0100
,
0101
0000
0001
0000
0010
0000
0001
0000
0100
0000
0010
1000
0000
1000
0010
0100
,
0000
0000
0000
0001
0000
0000
1000
0000
0000
0100
0000
0000
0010
0000
0000
0100
0000
1000
0000
1000
0000
0010
0000
0000
,
0000
1000
0010
0100
0001
1000
0100
0001
,
1000
0010
0001
1000
0000
1001
0000
0110
,
1010
0010
0100
0002
0000
1003
0000
1000
,
0001
0100
0010
2000
0000
3100
0000
1000
,
0100
0010
0100
2000
0000
0010
3010
0000
,
0010
1000
0001
0100
0000
0101
0000
0011
,
0010
0100
0010
0002
0000
1003
0001
1000
,
1010
0010
1000
0010
1010
1000
0001
1000
,
1001
0001
0010
0001
0011
0101
0000
1010
,
0000
1100
0000
0110
0000
1001
1001
0110
,
0000
0000
0000
0000
0000
0000
1020
0000
0000
0000
0000
0000
0000
0000
0000
0000
0000
0000
0000
0000
0000
0000
0000
0000
0130
0000
0000
0000
0000
0000
0010
0000
0000
1000
0000
0000
0000
0000
0000
0000
1000
0000
0100
0000
0000
0000
0000
0000
,
0010
0000
0001
0000
0010
0000
0001
0000
0100
0000
0010
0100
0001
0000
0010
0000
,
0100
0000
0000
0000
0000
0000
1000
0000
0000
0000
0000
0000
0010
0000
0000
0000
0000
0000
0100
0000
0000
0000
0000
0000
0010
0000
0000
0000
0000
0000
1000
0000
0000
0100
0000
0000
0000
0000
0000
0000
0010
0000
0100
0000
0000
0000
0000
0000
,
0010
0001
0100
0001
1000
0100
0110
0110
,
1001
0000
0000
0000
0000
0000
0001
0000
0000
0000
0000
0000
0010
0000
0000
0000
0000
0000
0001
0000
0000
0000
0000
0000
1000
0000
0000
0000
0000
0000
0010
0000
0000
0100
0000
0000
0000
0000
0000
0000
0100
0000
0001
0000
0000
0000
0000
0000
,
0010
0000
1000
0000
0001
0000
0100
0000
1000
0000
0010
0100
0001
0000
0100
0000
,
0010
0000
0000
0000
0000
0000
1000
0000
0000
0000
0000
0000
0100
0000
0000
0000
0000
0000
0010
0000
0000
0000
0000
0000
0100
0000
0000
0000
0000
0000
1000
0000
0000
0010
0000
0000
0000
0000
0000
0000
0010
0000
0100
0000
0000
0000
0000
0000
,
0001
1000
0001
0100
1000
0001
0010
1000
,
0100
0000
0000
0000
0000
0000
0010
0000
0000
0000
0000
0000
0100
0000
0000
0000
0000
0000
0010
0000
0000
0000
0000
0000
0001
0000
0000
0000
0000
0000
1000
0000
0000
0001
0000
0000
0000
0000
0000
0000
1000
0000
0001
0000
0000
0000
0000
0000
,
0010
0000
0000
0000
0000
0000
0100
0000
0000
0000
0000
0000
1000
0000
0000
0000
0000
0000
0010
0000
0000
0000
0000
0000
0100
0000
0000
0000
0000
0000
0001
0000
0000
1000
0000
0000
0000
0000
0000
0000
0001
0000
1000
0000
0000
0000
0000
0000
,
0100
0000
0000
0000
0000
0000
0010
0000
0000
0000
0000
0000
0001
0000
0000
0000
0000
0000
1000
0000
0000
0000
0000
0000
0010
0000
0000
0000
0000
0000
0100
0000
0000
0001
0000
0000
0000
0000
0000
0000
0100
0000
0001
0000
0000
0000
0000
0000
,
0010
0000
0000
0000
0000
0000
0100
0000
0000
0000
0000
0000
1000
0000
0000
0000
0000
0000
0001
0000
0000
0000
0000
0000
0100
0000
0000
0000
0000
0000
0010
0000
0000
1000
0000
0000
0000
0000
0000
0000
0010
0000
1000
0000
0000
0000
0000
0000
,
1100
0000
0000
0000
0000
0000
0100
0000
0000
0000
0000
0000
0010
0000
0000
0000
0000
0000
0100
0000
0000
0000
0000
0000
1000
0000
0000
0000
0000
0000
0010
0000
0000
1000
0000
0000
0000
0000
0000
0000
1000
0000
0001
0000
0000
0000
0000
0000
,
0010
0000
0000
0000
0000
0000
0100
0000
0000
0000
0000
0000
1000
0000
0000
0000
0000
0000
0001
0000
0000
0000
0000
0000
0100
0000
0000
0000
0000
0000
0001
0000
0000
1000
0000
0000
0000
0000
0000
0000
1000
0000
0100
0000
0000
0000
0000
0000
,
0010
0000
0000
0000
0000
0000
0100
0000
0000
0000
0000
0000
0010
0000
0000
0000
0000
0000
0001
0000
0000
0000
0000
0000
1000
0000
0000
0000
0000
0000
0010
0000
0000
1000
0000
0000
0000
0000
0000
0000
1000
0000
0100
0000
0000
0000
0000
0000
,
0010
0000
0000
0000
0000
0000
0001
0000
0000
0000
0000
0000
0100
0000
0000
0000
0000
0000
0010
0000
0000
0000
0000
0000
1000
0000
0000
0000
0000
0000
0001
0000
0000
0010
0000
0000
0000
0000
0000
0000
0100
0000
1000
0000
0000
0000
0000
0000
,
0010
0000
0000
1000
0100
0010
0002
0000
0000
1003
0000
0000
0000
0000
0000
1001
0000
0000
1001
0000
0000
0110
0000
0000
;

//---------------dance-single - Blank----------------
#NOTEDATA:;
#CHARTNAME:;
#STEPSTYPE:dance-single;
#DESCRIPTION:Blank;
#CHARTSTYLE:;
#DIFFICULTY:Medium;
#METER:8;
#RADARVALUES:0.424,0.397,0.234,0.052,0.026,206.000,18.000,4.000,0.000,0.000,0.000,0.000,0.000,0.424,0.397,0.234,0.052,0.026,206.000,18.000,4.000,0.000,0.000,0.000,0.000,0.000;
#CREDIT:;
#DISPLAYBPM:108.000;
#NOTES:
0000
0000
0000
0000
,
1000
0000
0001
0000
1000
0100
1000
0000
,
0100
0000
0010
0000
0100
0010
0100
0000
,
0000
1000
0100
0010
0001
0100
0110
0010
,
1000
0001
1000
0001
0000
0010
0010
0100
,
0110
0000
0100
0000
1000
0000
0001
0000
0100
0000
0000
0100
0000
0000
0000
0100
,
0000
0000
0010
0000
1000
0000
0001
0000
0010
0000
0000
0010
0000
0000
0010
0000
,
0000
0100
1000
0100
1000
0010
0100
0001
,
1000
1000
0001
1000
0000
0100
0000
0100
,
0010
0100
1000
0002
0000
0103
0000
0001
,
0100
0010
1000
0002
0000
0013
0000
0010
,
0001
0100
0010
0200
0000
1300
0100
0000
,
0010
1000
0001
0010
0000
0110
0000
0100
,
1000
0001
0100
1000
0000
0001
0010
0100
,
0000
0010
1000
0001
0000
0010
0010
0100
,
1000
0001
1000
0100
0000
0110
0000
1001
,
0000
0011
0000
1100
0000
0100
0100
0020
,
0000
0031
0000
0000
0010
0100
0010
0000
,
0100
0000
1100
0000
1000
0001
1000
0001
,
0100
0010
0100
0000
0010
0010
1000
0000
,
0001
0000
1001
0000
1000
0100
1100
0110
,
0100
1000
0001
0000
0100
0001
1000
0000
,
0010
1000
0001
0000
0010
0001
1000
0100
,
0001
0100
1000
0000
0010
1000
0010
0000
,
0100
0000
0100
0000
0110
0000
1010
0101
,
0001
0010
0001
0000
0010
0100
0010
0000
,
0100
1000
0100
0000
1000
0001
1000
0000
,
0001
0100
0001
0100
0010
0100
0010
0100
,
0010
1000
0010
1000
0001
1000
1001
1001
,
0001
0000
0010
0000
0001
0010
0001
0000
,
0010
0000
0100
0000
0010
0100
0010
0000
,
0001
0010
0001
0010
0100
0010
0100
0010
,
0001
0010
0100
1000
0001
0010
0100
1000
,
0010
0000
0000
1000
0000
0010
1000
0000
0000
0001
0000
0000
0000
0000
0000
0110
0000
0000
0110
0000
0000
0001
0000
0000
;
