#TITLE:Made Up Your Mind;
#SUBTITLE:;
#ARTIST:Evdog & Friends;
#TITLETRANSLIT:;
#SUBTITLETRANSLIT:;
#ARTISTTRANSLIT:;
#GENRE:Swing Jazz;
#CREDIT:;
#BANNER:Made Up Your Mind.png;
#BACKGROUND:Made Up Your Mind-bg.png;
#LYRICSPATH:;
#CDTITLE:;
#MUSIC:Made Up Your Mind.mp3;
#OFFSET:-13.200000;
#SAMPLESTART:83.040192;
#SAMPLELENGTH:17.318176;
#SELECTABLE:YES;
#BPMS:0.000000=220.000000
;
#STOPS:
;
#BGCHANGES:;
#KEYSOUNDS:;
#ATTACKS:;

//---------------dance-single - ----------------
#NOTES:
     dance-single:
     :
     Hard:
     11:
     0.462540,0.387758,0.193879,0.077552,0.334442,306.000000,20.000000,8.000000,0.000000,0.000000,0.000000,0.462540,0.387758,0.193879,0.077552,0.334442,306.000000,20.000000,8.000000,0.000000,0.000000,0.000000:
1001
0000
1001
0000
,
0010
0000
0100
0000
0000
0010
0000
0000
0000
0000
0000
0000
,
0100
0001
1000
0100
,
1000
0000
0010
0000
0000
0100
0000
0000
0000
0000
0000
0000
,
0110
0000
0110
0000
,
0010
0000
1000
0000
0000
0002
0000
0000
0000
0003
0000
0000
,
1000
0100
0010
0001
,
1000
0000
0000
0010
0000
0100
0000
0000
0000
0000
0000
0000
,
0101
0000
0101
0000
,
0100
0000
0010
0000
0000
0100
0000
0000
0000
0001
0000
0000
,
1000
0100
0010
0001
,
1000
0000
0010
0000
0000
1000
0000
0000
0000
0001
0000
0000
,
0011
0000
0011
0000
,
0010
0000
0100
0000
0000
1000
0000
0000
0000
0001
0000
0000
,
0100
0010
1000
0001
,
0010
0000
0000
0001
0000
1000
0000
0000
0000
0000
0000
0000
,
0010
0100
0001
0100
,
0010
0000
0000
1000
0000
0010
0000
0000
0000
0100
0000
0000
,
0001
0010
0100
1000
,
0001
0000
0000
1000
0000
0100
0000
0000
0000
0010
0000
0000
,
0001
1000
0010
0100
,
0001
0000
0000
0100
0000
0010
0000
0000
0000
1000
0000
0000
,
0100
0000
0010
0000
0000
0000
0001
0000
0000
1000
0000
0000
,
0010
0000
0000
0000
0000
0000
0100
0000
0000
0001
0000
0000
0000
0000
0000
0000
0001
0000
1000
0000
0000
0000
0000
0000
,
0010
0100
0001
0100
,
0010
0000
0000
0000
0000
0000
0000
0000
0000
1000
0000
0000
0000
0000
0000
0000
0000
0000
0000
0000
0010
0000
0000
0000
0000
0000
0000
0000
0000
0000
0000
0000
0000
0000
0000
0000
0100
0000
0000
0000
0000
0000
0000
0000
0000
0000
0000
0000
,
0001
0000
0000
0000
0010
0000
0000
0000
0100
0000
0000
1000
0000
0000
0010
0000
,
0100
0000
0001
0000
0000
0010
0000
0000
0000
0100
0000
0000
,
1000
0010
0100
0001
,
0010
0000
0100
0000
0000
1000
0000
0000
0000
0001
0000
0000
,
2002
0000
0000
0000
,
0000
0000
3003
0000
,
0010
1000
0100
1000
,
0001
0000
0100
0000
0000
0010
0000
0000
0000
0100
0000
0000
,
0001
0010
0100
1000
,
0010
0000
0100
0000
0000
0010
0000
0000
0000
1000
0000
0000
,
0001
0010
0100
1000
,
0001
0000
0100
0000
0000
0010
0000
0000
0000
0100
0000
0000
,
0001
0010
0100
1000
,
0001
0000
0000
0100
0000
0010
0000
0000
0000
0110
0000
0000
,
1000
0100
0001
0100
,
1000
0000
0010
0000
0000
0100
0000
0000
0000
0001
0000
0000
,
0010
0100
1000
0010
,
0100
0000
0001
0000
0000
0100
0000
0000
0000
0010
0000
0000
,
1000
0100
0010
0001
,
1000
0000
0010
0000
0000
0100
0000
0000
0000
0001
0000
0000
,
0100
0010
1000
0001
,
0010
0000
0000
0100
0000
0010
0000
0000
0000
1001
0000
0000
,
0010
0100
0001
1000
,
0100
0000
1000
0000
0000
1000
0010
0000
0100
0000
0001
0000
,
0000
1000
0000
0100
0000
0000
0010
0000
0001
0010
0000
0000
,
0100
0000
0000
1000
0000
0000
0010
0000
0000
0100
0000
0001
,
0000
0000
0100
0000
0010
0000
1000
0100
,
0000
0010
0000
0001
0000
1000
0000
0000
,
0010
0000
0000
0100
0000
0000
0001
0000
0000
0100
0000
0010
,
0000
1000
0100
0010
,
0001
0000
0000
0000
0000
0000
0100
0000
0000
0000
0010
0000
0000
0000
0100
0000
0000
0000
0000
0000
0000
0001
0000
0000
,
0010
0000
0000
0100
0000
1000
0000
0000
0000
0010
0000
0000
,
0100
0000
0001
0100
0000
0010
0000
2000
,
0000
0001
0000
3001
,
0100
0000
0010
1000
0000
0000
0001
0000
,
0010
0001
0000
0100
0000
0000
0010
0000
,
1000
0000
0100
1000
0000
0010
0000
2000
,
0000
0000
0002
3003
,
1000
0000
0000
0010
0000
0000
0100
0000
0000
0001
0000
0010
,
0001
0000
0100
0000
0000
0110
0000
0000
0000
0010
0000
0000
,
1000
0000
0000
0010
0000
1000
0100
0000
0000
0010
0000
0000
,
0001
0000
0000
1000
0000
0001
0000
0000
0000
1001
0000
0000
,
0010
0100
0001
0100
,
0010
0000
1000
0000
0000
0001
0000
0000
0000
0010
0000
0000
,
0100
0000
1000
0000
0000
0010
0000
0000
0000
0100
0000
0000
,
0001
0000
0000
1000
0000
0100
0000
0000
0000
0011
0000
0000
,
0001
1001
0110
0010
,
1000
0000
0100
0000
0000
0001
0000
0000
0000
0100
0000
0000
,
0010
0000
0000
0000
0000
0000
1000
0000
0000
0000
0000
0000
0100
0000
0000
0000
1000
0000
0000
0000
0000
0001
0000
0000
,
0100
0010
0000
0110
0000
0000
0010
0000
,
1000
0100
0001
0100
,
1000
0000
0010
0000
0101
0000
0000
0000
0000
0010
0000
0000
,
0100
0000
1000
0000
0000
0000
0010
0000
0100
0000
0000
0000
,
0001
0000
0000
1000
0000
2002
0000
0000
0000
3003
0000
0000
,
0110
0000
0000
0000
;

//---------------dance-single - ----------------
#NOTES:
     dance-single:
     :
     Medium:
     8:
     0.337904,0.310207,0.087246,0.019388,0.000000,233.000000,9.000000,2.000000,0.000000,0.000000,0.000000,0.337904,0.310207,0.087246,0.019388,0.000000,233.000000,9.000000,2.000000,0.000000,0.000000,0.000000:
0010
0000
0010
0000
,
1000
0100
1000
0000
,
0001
0100
0010
1000
,
0001
0010
0100
0000
,
1000
0000
1000
0000
,
0100
0010
0001
0000
,
0100
1000
0100
0010
,
1000
0001
1000
0000
,
1001
0000
1001
0000
,
0100
0010
0001
0000
,
1000
0010
0100
0001
,
0010
0100
1000
0000
,
0110
0000
0110
0000
,
0010
0100
0001
0000
,
0010
1000
0001
0100
,
1000
0010
0100
0000
,
0001
0000
0100
0000
,
0010
0000
1000
0000
,
0001
0000
0010
0000
,
0100
1000
0100
0000
,
0010
0000
0001
0000
,
1000
0000
0010
0000
,
0100
0000
1000
0000
,
0100
0001
0100
0000
,
0001
0000
1000
0000
,
0100
0000
0010
0000
,
0001
0000
1000
0000
,
0010
0100
0010
0000
,
1000
0000
0100
0000
,
0010
0000
0001
0000
,
2002
0000
0000
0000
,
0000
0000
3003
0000
,
1001
0000
0100
0000
,
0010
0001
0100
0000
,
0010
1000
0100
0001
,
0100
1000
0010
0000
,
0110
0000
1001
0000
,
0100
0010
0001
0000
,
1000
0010
0100
0001
,
1000
0100
0010
0000
,
0010
0000
0001
0000
,
0010
0001
0100
0000
,
0010
1000
0100
0001
,
0100
1000
0010
0100
,
0001
0000
1000
0000
,
0001
0100
0010
0000
,
0010
1000
0100
1000
,
0010
0100
0001
0000
,
0010
0000
0100
0000
,
1000
0010
0100
0000
,
0010
0000
1000
0000
,
0001
0010
0100
1000
,
0010
0000
0100
0000
,
0001
1000
0100
0000
,
1000
0000
0010
0000
,
0100
0001
0010
0100
,
1000
0000
0010
0000
,
0100
1000
0100
0000
,
0001
0000
0010
0000
,
0100
1000
0001
1000
,
0100
0000
0010
0000
,
0001
0100
0010
0000
,
1000
0000
0100
0000
,
0001
0100
1000
0010
,
0100
0001
0100
0001
,
1000
0100
1000
0100
,
0010
0001
1000
0010
,
0100
0001
0010
0000
,
0010
0001
0100
0010
,
0100
0001
1000
0100
,
0010
0001
1000
0010
,
0100
1000
0100
0000
,
0010
1000
0001
0010
,
0100
1000
0001
0100
,
1000
0100
0001
0010
,
0100
1000
0001
0000
,
0100
0010
1000
0001
,
0010
0100
1000
0010
,
0100
1000
0100
0001
,
0010
0000
0100
0000
,
1001
0000
0000
0000
;

//---------------dance-single - ----------------
#NOTES:
     dance-single:
     :
     Easy:
     5:
     0.159258,0.155103,0.019388,0.000000,0.000000,113.000000,2.000000,0.000000,0.000000,0.000000,0.000000,0.159258,0.155103,0.019388,0.000000,0.000000,113.000000,2.000000,0.000000,0.000000,0.000000,0.000000:
1000
0000
1000
0000
,
1000
0000
0000
0000
,
0001
0000
0010
0000
,
0100
0000
1000
0000
,
0010
0000
0010
0000
,
0010
0000
0000
0000
,
0100
0000
0010
0000
,
1000
0000
0001
0000
,
0100
0000
0100
0000
,
0100
0000
0000
0000
,
0001
0000
0100
0000
,
0010
0000
1000
0000
,
0001
0000
0001
0000
,
0001
0000
0000
0000
,
0010
0000
0100
0000
,
1000
0000
0000
0000
,
0001
0000
1000
0000
,
0001
0000
0000
0000
,
1000
0000
0001
0000
,
1000
0000
0000
0000
,
0010
0000
0100
0000
,
0010
0000
0000
0000
,
0100
0000
0010
0000
,
0100
0000
0000
0000
,
0010
0000
1000
0000
,
0100
0000
0000
0000
,
0010
0000
0001
0000
,
0100
0000
0000
0000
,
0100
0000
0001
0000
,
0010
0000
0000
0000
,
0100
0000
0000
0000
,
0000
0000
0000
0000
,
1000
0000
0001
0000
,
1000
0000
0000
0000
,
0010
0000
0000
0000
,
0100
0000
0000
0000
,
0001
0000
1000
0000
,
0001
0000
0000
0000
,
0010
0000
0000
0000
,
0100
0000
0000
0000
,
1000
0000
0000
0000
,
0100
0000
0000
0000
,
1000
0000
0001
0000
,
1000
0000
0000
0000
,
0010
0000
0000
0000
,
0100
0000
0000
0000
,
0010
0000
0100
0000
,
0010
0000
0000
0000
,
0110
0000
0000
0000
,
1000
0000
0000
0000
,
0001
0000
0000
0000
,
0100
0000
0000
0000
,
0010
0000
0000
0000
,
1000
0000
0000
0000
,
0001
0000
0000
0000
,
0010
0000
0000
0000
,
0100
0000
1000
0000
,
0100
0000
0000
0000
,
0010
0000
0001
0000
,
0010
0000
0000
0000
,
0001
0000
1000
0000
,
0001
0000
0000
0000
,
0100
0000
0010
0000
,
0100
0000
0000
0000
,
0010
0000
0000
0000
,
1000
0000
0000
0000
,
0100
0000
0001
0000
,
0100
0000
1000
0000
,
0010
0000
0000
0000
,
0100
0000
0000
0000
,
0001
0000
0010
0000
,
1000
0000
0010
0000
,
0001
0000
0000
0000
,
0010
0000
0000
0000
,
0100
0000
1000
0000
,
0001
0000
0100
0000
,
0010
0000
0000
0000
,
1000
0000
0000
0000
,
0001
0000
0010
0000
,
0100
0000
0000
0000
,
1001
0000
0000
0000
;

//---------------dance-single - ----------------
#NOTES:
     dance-single:
     :
     Beginner:
     2:
     0.084476,0.077552,0.038776,0.000000,0.000000,57.000000,4.000000,0.000000,0.000000,0.000000,0.000000,0.084476,0.077552,0.038776,0.000000,0.000000,57.000000,4.000000,0.000000,0.000000,0.000000,0.000000:
1000
0000
0000
0000
,
0000
0000
0000
0000
,
0010
0000
0000
0000
,
0000
0000
0000
0000
,
0100
0000
0000
0000
,
0000
0000
0000
0000
,
0001
0000
0000
0000
,
0000
0000
0000
0000
,
1001
0000
0000
0000
,
0000
0000
0000
0000
,
0010
0000
0000
0000
,
0000
0000
0000
0000
,
0100
0000
0000
0000
,
0000
0000
0000
0000
,
0001
0000
0000
0000
,
0000
0000
0000
0000
,
1000
0000
0000
0000
,
1000
0000
0000
0000
,
1000
0000
0000
0000
,
0000
0000
0000
0000
,
0001
0000
0000
0000
,
0001
0000
0000
0000
,
0001
0000
0000
0000
,
0000
0000
0000
0000
,
0010
0000
0000
0000
,
0010
0000
0000
0000
,
0010
0000
0000
0000
,
0000
0000
0000
0000
,
0100
0000
0000
0000
,
0100
0000
0000
0000
,
0100
0000
0000
0000
,
0000
0000
0000
0000
,
1000
0000
0000
0000
,
0001
0000
0000
0000
,
1000
0000
0000
0000
,
0000
0000
0000
0000
,
0010
0000
0000
0000
,
0100
0000
0000
0000
,
0010
0000
0000
0000
,
0000
0000
0000
0000
,
0100
0000
0000
0000
,
0001
0000
0000
0000
,
0100
0000
0000
0000
,
0000
0000
0000
0000
,
0010
0000
0000
0000
,
1000
0000
0000
0000
,
0010
0000
0000
0000
,
0000
0000
0000
0000
,
0110
0000
0000
0000
,
0000
0000
0000
0000
,
0100
0000
0000
0000
,
0001
0000
0000
0000
,
1000
0000
0000
0000
,
0000
0000
0000
0000
,
0100
0000
0000
0000
,
0010
0000
0000
0000
,
0001
0000
0000
0000
,
0000
0000
0000
0000
,
1000
0000
0000
0000
,
0010
0000
0000
0000
,
0100
0000
0000
0000
,
0000
0000
0000
0000
,
0001
0000
0000
0000
,
1000
0000
0000
0000
,
1001
0000
0000
0000
,
0000
0000
0000
0000
,
0100
0000
0000
0000
,
0010
0000
0000
0000
,
0100
0000
0000
0000
,
0000
0000
0000
0000
,
1000
0000
0000
0000
,
0001
0000
0000
0000
,
1000
0000
0000
0000
,
0000
0000
0000
0000
,
0010
0000
0000
0000
,
0100
0000
0000
0000
,
0010
0000
0000
0000
,
0000
0000
0000
0000
,
1000
0000
0000
0000
,
0001
0000
0000
0000
,
1001
0000
0000
0000
;

//---------------dance-single - ----------------
#NOTES:
     dance-single:
     :
     Challenge:
     13:
     0.703505,0.581638,0.542862,0.571944,0.542862,393.000000,56.000000,59.000000,0.000000,0.000000,0.000000,0.703505,0.581638,0.542862,0.571944,0.542862,393.000000,56.000000,59.000000,0.000000,0.000000,0.000000:
// measure 0
1002
0000
0000
0103
0000
0000
2001
0000
0000
3100
0000
0100
,  // measure 1
0010
0000
0001
0000
0000
0012
0000
0000
0000
1003
0000
0000
,  // measure 2
1100
0000
0000
0001
0000
1000
0010
0000
0000
1010
0000
0000
,  // measure 3
0100
0000
0001
0000
0000
0100
0000
0000
0100
0010
0000
0000
,  // measure 4
2001
0000
0000
3100
0000
0000
1002
0000
0000
0103
0000
0010
,  // measure 5
0100
0000
0001
0000
0000
1100
0000
0000
0000
0100
0000
0000
,  // measure 6
0010
0000
0000
0001
0000
0100
0001
0000
0001
0100
0000
0000
,  // measure 7
0010
0000
1000
0010
0000
0200
0000
0000
0000
0310
0000
0000
,  // measure 8
2001
0000
0000
3100
0000
0000
0120
0000
0000
0031
0000
1000
,  // measure 9
0010
0000
0100
0000
0000
1020
0000
0000
0000
0130
0000
0000
,  // measure 10
0101
0000
0000
0010
0000
1000
0100
0000
0000
0010
0000
0000
,  // measure 11
0100
0000
0001
0000
0000
0100
0000
0000
1000
0010
0000
0000
,  // measure 12
0120
0000
0000
1030
0000
0000
2001
0000
0000
3010
0000
0100
,  // measure 13
0001
0000
0010
0000
0000
1100
0000
0000
0000
0001
0000
0000
,  // measure 14
1100
0000
0000
0010
0000
0001
0100
0000
0010
1000
0000
0000
,  // measure 15
0010
0000
0100
0010
0000
2000
0000
0000
0000
3100
0000
0100
,  // measure 16
0010
0011
1020
0130
,  // measure 17
0200
0000
0000
0000
0000
0000
0010
0000
0000
0010
0300
0000
0000
0000
0000
0000
0100
0000
0001
0000
0000
0000
0000
0000
,  // measure 18
0001
0000
1000
0100
0000
0100
0010
0000
0000
0001
0000
1000
,  // measure 19
0020
0000
0000
0000
0000
0000
0130
0000
0000
0002
0000
0000
0000
0000
0000
0003
0100
0000
0010
0000
0000
0000
0000
0000
,  // measure 20
1000
1010
0021
0130
,  // measure 21
1100
0000
0000
0000
0000
0000
0010
0000
0000
0001
0000
0000
0000
0000
0000
0000
0001
0000
0100
0000
0000
0000
0000
0000
,  // measure 22
0100
0000
0000
0010
0000
0000
0000
0000
0000
0000
0010
0000
1000
0000
0000
0000
1000
0000
0100
0000
0000
0000
0000
0000
,  // measure 23
0020
0000
0000
0000
0000
0000
0001
0000
0000
0031
0000
0000
0000
0000
0000
0000
1000
0000
0010
0000
0000
0000
0000
0000
,  // measure 24
0100
1010
1200
0310
,  // measure 25
2100
0000
0000
0000
0000
0000
3001
0000
0000
0100
0000
0000
0000
0000
0000
0000
0000
0000
0010
0000
0000
0000
1000
0000
,  // measure 26
0100
0000
0000
0000
0100
0000
0010
0000
0000
0000
0000
0000
0100
0000
0000
0001
0000
0000
0000
0000
0000
0100
0000
0000
,  // measure 27
1000
0000
0001
0000
0000
0100
0000
0000
0100
0010
0000
0000
,  // measure 28
0110
0000
1000
0100
0000
0000
0010
0000
0000
0010
0000
0100
,  // measure 29
1000
0000
0000
0000
0001
0000
0000
0000
0000
0000
0100
0000
0000
0000
0000
0000
0000
0000
0010
0000
0000
0100
0000
0000
,  // measure 30
0001
1000
0000
0000
0100
0010
0000
0000
,  // measure 31
0010
0000
0001
0000
0100
0000
0000
0000
0100
0010
0000
0000
,  // measure 32
1010
0000
0000
0100
0000
0000
2001
0000
0000
3100
0000
0010
,  // measure 33
0001
0000
1000
0000
0000
0020
0000
0000
0000
0130
0000
0000
,  // measure 34
0101
0000
0000
0010
0000
1000
0200
0000
0000
0310
0000
0000
,  // measure 35
0200
0000
0001
0000
0000
1300
0000
0000
0001
0100
0000
0000
,  // measure 36
2010
0000
0000
3100
0000
0000
0210
0000
0000
1300
0000
0010
,  // measure 37
0100
0000
0001
0000
0000
2001
0000
0000
0000
3100
0000
0000
,  // measure 38
1200
0000
0000
0310
0000
0001
0100
0000
0100
0010
0000
0000
,  // measure 39
1000
0000
0100
0010
0000
0001
0000
0000
0000
0100
0000
0000
,  // measure 40
2010
0000
0000
3100
0000
0000
0012
0000
0000
1003
0000
0010
,  // measure 41
0100
0000
0001
0000
0000
0201
0000
0000
0000
0310
0000
0000
,  // measure 42
0120
0000
0000
1030
0000
0100
0010
0000
0000
0001
0000
0000
,  // measure 43
0002
0000
0010
0000
0000
0103
0000
0000
0001
0010
0000
0000
,  // measure 44
2001
0000
0000
3100
0000
0000
0012
0000
0000
1003
0000
0010
,  // measure 45
0100
0000
0001
0000
0000
0102
0000
0000
0000
0013
0000
0000
,  // measure 46
1100
0000
0000
0010
0000
0001
0100
0000
0100
0010
0000
0000
,  // measure 47
1000
0000
0001
0010
0000
0200
0000
0000
0000
0301
0000
0100
,  // measure 48
0010
0001
1000
0010
,  // measure 49
0100
0000
0000
0001
0000
0000
0000
0000
0000
0001
0000
0000
0100
0000
0000
0010
0000
0000
0000
0000
1000
0000
0000
0000
,  // measure 50
0020
0000
0000
0001
0000
0000
0130
0000
0100
0001
0000
0000
,  // measure 51
0020
0000
1000
0000
0130
0000
0001
0200
,  // measure 52
0000
0000
0010
0000
1300
0000
0001
0200
,  // measure 53
0000
0000
0000
1000
0000
0000
0000
0000
0000
0302
0000
0000
0000
0000
0000
0013
0000
0000
0000
0000
0000
0000
0100
0000
,  // measure 54
0010
0000
0100
0000
0010
0000
0001
2000
,  // measure 55
0000
0100
3002
0203
,  // measure 56
0310
0000
0000
0000
0100
0000
0010
0000
0000
0000
1000
0000
0000
0000
0000
0001
0000
0000
0000
0000
0000
0000
1000
0000
,  // measure 57
0100
0000
0000
0000
0010
0000
0000
0000
0000
0001
0000
0000
0000
0000
0000
0100
0000
0000
0000
0000
0000
0000
0100
0000
,  // measure 58
0010
0000
0000
0000
0100
0000
0000
0000
0020
0000
0000
0000
0000
0000
0000
2030
0000
0000
0000
0000
0000
3100
0000
0000
,  // measure 59
0020
1000
0001
0130
,  // measure 60
0010
0000
0000
0000
0000
0000
0010
0000
0000
0001
0000
0000
0000
0000
0000
0000
1000
0000
0010
0000
0000
0000
0000
0000
,  // measure 61
0100
0001
0000
0200
0000
0000
0310
0000
,  // measure 62
0100
0000
0010
1000
0000
0001
0000
0020
,  // measure 63
0000
0000
0100
0000
0002
0030
0103
0000
,  // measure 64
0010
1010
0021
0130
,  // measure 65
0010
0000
0000
0001
0000
0000
0000
0000
0000
2000
0000
0000
0000
0000
0000
0000
3001
0000
0000
0000
0000
0000
0000
0000
,  // measure 66
0101
0000
0100
0010
0000
1000
0100
0000
0000
0010
0000
0001
,  // measure 67
0200
0000
0000
0000
0000
0000
0010
0000
0000
0310
0000
0000
0000
0000
0000
0000
0100
0000
0010
0000
0000
0000
0000
0000
,  // measure 68
0100
1010
0101
1001
,  // measure 69
1000
0000
0000
0100
0000
0000
0000
0000
0000
1100
0000
0000
0000
0000
0000
0000
1000
0000
0100
0000
0000
0000
0000
0000
,  // measure 70
0010
0000
0000
0010
0000
0000
0000
0000
0000
0000
0010
0000
0001
0000
0000
0000
1000
0000
0010
0000
0000
0000
0000
0000
,  // measure 71
0201
0000
0000
0000
0000
0000
0010
0000
0000
0310
0000
0000
0000
0000
0000
0000
0100
0000
0010
0000
0000
0000
0000
0000
,  // measure 72
0101
1001
1200
0310
,  // measure 73
1100
0000
0001
0000
0200
0000
0000
0000
0000
0310
0000
0100
,  // measure 74
0010
0000
0000
0000
1000
0000
0002
0000
0000
0000
0000
0000
0010
0000
0000
0013
0000
0000
0000
0000
0000
0100
0000
0000
,  // measure 75
1000
0000
0000
0001
0000
0000
0000
0000
0000
0100
0000
0000
0000
0000
0000
0000
0100
0000
0010
0000
0000
0000
0000
0000
,  // measure 76
1010
0000
0001
0010
0000
0000
1100
0000
0000
1001
0000
0001
,  // measure 77
0200
0000
0000
1000
0000
0000
0000
0000
0000
0301
0000
0000
0000
0000
0000
0000
1000
0000
0100
0000
0000
0000
0000
0000
,  // measure 78
0010
0000
0001
0000
0000
0000
1000
0000
0010
0000
0000
0000
,  // measure 79
0100
0000
0001
0000
1000
0000
0000
0000
0100
0010
0000
0000
,  // measure 80
1001
0000
0000
0000
;
