#TITLE:MAKE IT SPECIAL (Season Rebirth MIX);
#SUBTITLE:;
#ARTIST:Foozogz;
#TITLETRANSLIT:;
#SUBTITLETRANSLIT:;
#ARTISTTRANSLIT:;
#GENRE:;
#CREDIT:;
#BANNER:MAKE IT SPECIAL (Season Rebirth MIX).png;
#BACKGROUND:MAKE IT SPECIAL (Season Rebirth MIX)-bg.png;
#LYRICSPATH:;
#CDTITLE:;
#MUSIC:Make It Special (Season Rebirth MIX).mp3;
#OFFSET:-11.403;
#SAMPLESTART:27.000;
#SAMPLELENGTH:15.000;
#SELECTABLE:YES;
#BPMS:0.000=184.000
,48.000=92.000
,52.000=184.000
;
#STOPS:
;
#BGCHANGES:;
#KEYSOUNDS:;
#ATTACKS:;

//---------------dance-single - ----------------
#NOTES:
     dance-single:
     :
     Hard:
     11:
     0.459,0.482,0.097,0.161,0.000,275.000,9.000,15.000,0.000,0.000,0.000,0.459,0.482,0.097,0.161,0.000,275.000,9.000,15.000,0.000,0.000,0.000:
0001
0000
0000
0020
0000
0000
0000
0000
,
0000
0001
0000
0000
0031
2000
0000
0000
,
3020
0000
0000
0230
0000
0000
0000
0000
,
0000
0302
0000
0000
1003
2000
0000
0000
,
3010
0000
0100
0001
0000
0100
0001
0000
,
0010
0100
1000
0001
,
0100
0010
1000
0100
,
0001
0100
1000
0010
,
0100
0000
0001
0100
0000
0001
1000
0000
,
0100
0010
0100
0010
0001
1000
0001
1000
,
0010
0100
0001
1000
0100
0010
0001
1000
,
0020
0230
0302
2003
,
3200
0000
0000
0000
,
1300
0000
0100
0000
1000
0001
0000
0100
,
0000
0010
0000
0100
0001
0000
1000
0000
,
0100
0000
0010
0000
0001
1000
0000
0010
,
0000
0100
0000
0001
1000
0000
0100
0000
,
0010
0000
0100
0000
1000
0001
0000
0100
,
0000
0010
0000
0100
0001
0000
0010
0000
,
0100
0000
1000
0002
0000
2003
0000
3010
,
0000
0100
0000
0001
0001
0100
0001
0100
,
0010
1000
0100
0010
0100
1000
0001
0100
,
0000
0010
0000
0100
0001
0000
0011
0000
,
0010
0100
1000
0001
0100
0010
1000
0001
,
0000
0010
0000
0100
1000
0000
1100
0000
,
1000
0001
0100
0010
0100
0001
1000
0100
,
0000
0010
0000
0001
1000
0000
1010
0000
,
0010
0100
0001
0100
0000
0010
0000
1000
,
0000
0100
0000
1000
0001
0100
0010
0100
,
0001
1000
0100
0010
0001
1000
0010
0100
,
0001
0100
0010
1000
0001
0000
0011
0000
,
0010
0100
1000
0100
0010
0001
1000
0010
,
0100
0001
0100
0010
1000
0000
1001
0000
,
0001
0010
0100
0010
0001
1000
0010
0100
,
0001
0100
0010
1000
0001
0000
1001
0000
,
0001
0010
0100
1000
0000
0001
0000
0100
,
0000
0010
0000
0100
0001
1000
0001
1000
,
0001
0010
0100
0000
1000
0001
0000
0100
,
0000
0010
0000
0100
0001
0000
1000
0000
,
0100
0010
0100
0000
1000
0001
0000
0100
,
0000
0010
0000
1000
0100
0000
0110
0000
,
0010
0001
1000
0000
0010
0100
0000
0001
,
0000
0100
0000
0010
1000
0000
1100
0000
,
0100
0010
0100
1000
0000
0001
0000
0100
,
0000
0010
0000
0100
0001
0001
1000
1000
,
0001
0000
0100
0010
0000
0010
0100
0000
,
0001
1000
0100
0100
,
1000
0000
0010
0100
0000
0100
0010
0000
,
1000
0100
0010
0010
,
0001
0000
1000
0001
0000
0001
1000
0000
,
0010
0100
0001
0001
,
0100
0000
0010
1000
0000
0010
1000
0000
,
0001
0100
1000
0001
0010
1000
0100
0000
,
2002
0000
0000
0000
,
0000
0000
0000
0000
,
0000
0000
0000
0000
,
3003
0000
0000
0000
;

//---------------dance-single - ----------------
#NOTES:
     dance-single:
     :
     Medium:
     8:
     0.338,0.361,0.075,0.075,0.000,206.000,7.000,7.000,0.000,0.000,0.000,0.338,0.361,0.075,0.075,0.000,206.000,7.000,7.000,0.000,0.000,0.000:
0002
0000
0000
0000
,
0023
0000
0000
0000
,
0230
0000
0000
0000
,
2300
0000
0000
0000
0000
0000
0000
3000
,
0001
0000
0000
0100
0000
0000
0001
0000
,
1000
0100
0010
0001
,
0100
0010
1000
0100
,
0010
0100
1000
0010
,
0100
0000
0000
0010
0000
0000
0100
0000
,
0001
0010
0100
1000
,
0010
0100
0001
1000
,
0001
1000
0001
1000
0001
1000
0001
1000
,
0002
0000
0000
0000
,
0013
0000
0001
0000
0100
0000
0000
0010
,
0000
0010
0000
0000
1000
0000
0100
0000
,
1000
0000
0001
0000
0100
0000
0000
0010
,
0000
0010
0000
0000
0100
0000
0001
0000
,
1000
0000
0100
0000
0010
0000
0000
0100
,
0000
0100
0000
0000
1000
0000
0001
0000
,
0100
0000
0000
0010
0000
0100
0000
0001
,
0000
1000
0000
0100
0100
0000
1000
0000
,
0010
0100
0001
0001
,
0100
0010
1001
0110
,
0010
1000
0100
0010
,
0100
1000
1010
0110
,
0100
0001
0010
0100
,
0010
0001
0100
0110
,
1010
0000
1000
0001
0000
0001
0000
0010
,
0000
0100
0000
1000
0010
1000
0010
1000
,
0010
0000
0100
0000
0001
1000
0000
0001
,
0000
0010
0000
0000
0100
0000
1000
0000
,
0010
0000
0100
0000
0001
0010
0000
0100
,
0000
1000
0000
0000
0100
0000
0010
0000
,
0001
0000
1000
0000
0010
0100
0000
0010
,
0000
1000
0000
0000
0001
0000
0010
0000
,
0100
0000
0000
1000
0000
0100
0000
0010
,
0000
0001
0000
1000
0010
0000
0100
0000
,
0001
0000
0100
0000
0010
0000
0000
0010
,
0000
1000
0000
0100
0001
0000
0100
0000
,
1000
0000
0001
0000
0100
0000
0000
0010
,
0000
1000
0000
0100
0010
0000
0100
0000
,
1000
0000
0001
0000
0100
0000
0000
0010
,
0000
0100
0000
0001
1000
0000
0100
0000
,
0010
0000
0000
0001
0000
1000
0000
0010
,
0000
0100
0000
0001
0100
0010
0100
0010
,
1000
0000
0001
1000
0000
0001
1000
0000
,
0010
0100
0001
0010
,
0100
0000
0010
0100
0000
0010
0100
0000
,
1000
0001
0100
0010
,
1000
0000
0001
0010
0000
0001
0010
0000
,
0100
1000
0001
0100
,
0010
0000
1000
0100
0000
1000
0100
0000
,
0010
0001
0100
0010
,
2002
0000
0000
0000
,
0000
0000
0000
0000
,
0000
0000
0000
0000
,
3003
0000
0000
0000
;

//---------------dance-single - ----------------
#NOTES:
     dance-single:
     :
     Easy:
     5:
     0.218,0.228,0.011,0.022,0.000,139.000,1.000,2.000,0.000,0.000,0.000,0.218,0.228,0.011,0.022,0.000,139.000,1.000,2.000,0.000,0.000,0.000:
0010
0000
0000
0000
,
0100
0000
0000
0000
,
0001
0000
0000
0000
,
1000
0000
0000
0000
,
0010
0000
0000
0010
0000
0000
0010
0000
,
0000
0100
0000
0001
,
0000
1000
0000
0100
,
0000
0010
0001
0100
,
0010
0000
0000
0010
0000
0000
0010
0000
,
1000
0100
0010
0100
,
1000
0010
0001
0100
,
1000
0010
0001
0100
,
2000
0000
0000
0000
,
3001
0000
0100
0000
,
0010
1000
0100
0000
,
1000
0000
0010
0000
,
0100
0001
0010
0000
,
0100
0000
1000
0000
,
0001
0100
0010
0000
,
0100
0000
0001
0000
,
1000
0100
0010
0001
,
0010
0000
0100
0000
,
1000
0001
0100
0000
,
0010
0000
1000
0000
,
0100
0010
0100
0000
,
1000
0000
0010
0000
,
0100
0001
0010
0000
,
0100
0000
1000
0000
,
0001
0100
0010
1000
,
0001
0000
0010
0000
,
0100
1000
0001
0000
,
0100
0000
0010
0000
,
0100
0001
1000
0000
,
0100
0000
0010
0000
,
0001
1000
0010
0000
,
0100
0000
0001
0000
,
1000
0010
0200
0000
,
0301
0000
1000
0000
,
0100
0010
0100
0000
,
1000
0000
0010
0000
,
0100
0001
0010
0000
,
0100
0000
1000
0000
,
0001
0100
0010
0000
,
0100
0000
0001
0000
,
1000
0100
0010
0010
,
0001
0100
0010
0100
,
0001
1000
0100
0000
,
0010
0001
1000
0010
,
0100
0001
1000
0000
,
0100
0001
0100
0010
,
0001
1000
0010
0000
,
0100
0000
0001
0000
,
1000
0000
0010
0000
,
1001
0000
0000
0000
;

//---------------dance-single - ----------------
#NOTES:
     dance-single:
     :
     Beginner:
     2:
     0.092,0.114,0.022,0.000,0.000,58.000,2.000,0.000,0.000,0.000,0.000,0.092,0.114,0.022,0.000,0.000,58.000,2.000,0.000,0.000,0.000,0.000:
0000
0000
0000
0000
,
0000
0000
0000
0000
,
0000
0000
0000
0000
,
0000
0000
0000
0000
,
1000
0000
0000
0000
,
0001
0000
0000
0000
,
0100
0000
0000
0000
,
0010
0000
0000
0000
,
1000
0000
0000
0000
,
0100
0000
0000
0000
,
0010
0000
0000
0000
,
0001
0000
0000
0000
,
1001
0000
0000
0000
,
1000
0000
1000
0000
,
1000
0000
0000
0000
,
0010
0000
0010
0000
,
0010
0000
0000
0000
,
0100
0000
0100
0000
,
0100
0000
0000
0000
,
0001
0000
0001
0000
,
0001
0000
0000
0000
,
0010
0000
0010
0000
,
0010
0000
0000
0000
,
0100
0000
0100
0000
,
0100
0000
0000
0000
,
1000
0000
1000
0000
,
1000
0000
0000
0000
,
0001
0000
0001
0000
,
0001
0000
0000
0000
,
0100
0000
0000
0000
,
0010
0000
0000
0000
,
0100
0000
0000
0000
,
0001
0000
0000
0000
,
1000
0000
0000
0000
,
0100
0000
0000
0000
,
0010
0000
0000
0000
,
0001
0000
0000
0000
,
1000
0000
0000
0000
,
0010
0000
0000
0000
,
0100
0000
0000
0000
,
0001
0000
0000
0000
,
1000
0000
0000
0000
,
0100
0000
0000
0000
,
0010
0000
0000
0000
,
0001
0000
0000
0000
,
1000
0000
0000
0000
,
0001
0000
0000
0000
,
1000
0000
0000
0000
,
0001
0000
0000
0000
,
0100
0000
0000
0000
,
0010
0000
0000
0000
,
0100
0000
0000
0000
,
0010
0000
0000
0000
,
1001
0000
0000
0000
;
